Tags
Language
Tags

Natalie Cole - Thankful (1977) [1996, Reissue]

Posted By: BlondStyle
Natalie Cole - Thankful (1977) [1996, Reissue]

Natalie Cole - Thankful (1977) [1996, Reissue]
R&B, Soul, Jazz, Quiet Storm | EAC Rip | FLAC, Img+CUE+LOG+Scans (JPEG) | 35:35 Min | 229,53 Mb
Label: One Way Records (USA) | Cat.# 72438 19084 26 | Released: 1996-10-01 (1977-11-16)
Natalie Cole - Thankful (1977) [1996, Reissue]

"Thankful" is a 1977 album by American singer Natalie Cole. Released on November 16, 1977 by Capitol Records, The album single, "Our Love", peaked at #10 on the U.S. Billboard Hot 100, and topped the R&B Charts in 1978.
~Wikipedia
"Thankful" could be subtitled the finest hour for Natalie Cole and the songwriting/production duo of Chuck Jackson and Marvin Yancy. The album flows from track to track. It boasts the beautiful number one R&B/Top Ten pop million-selling ballad "Our Love," as well as radio-aired tracks: the rousing, gospel-ish "Be Thankful," " Just Can't Stay Away," the lushly orchestrated torch number "Aint Nothing Stronger Than Love," and the smooth tropical-flavored "La Costa." The driving, dramatic-themed "Annie Mae" became a steppers favorite. "Thankful" went Platinum and was later issued both as a high-quality audiophile pressing from Mobile Fidelity and as a 1996 CD from One Way. Some of the LP's tracks are on The Collection, the 1995 EMI-Capitol CD I've Got Love on My Mind, This Will Be: Natalie Cole's Everlasting Love, and the HOL CD Sophisticated Lady.
~Review by Ed Hogan

Natalie Cole - Thankful (1977) [1996, Reissue]




Release of the album: 1977, November, 16 [LP Capitol Records, Cat.# SW-11708, USA]
Release of this CD: 1996, October, 1 [CD One Way Records (USA), Cat.# 72438 19084 26 / UPC: 724381908426]
℗ 1977 Capitol Records, Inc.
℗© 1996 EMI-Capitol Music Special Markets
Manufactured by EMI-Capitol Music Special Markets
Printed in U.S.A.


Credits:

Arranged By – Gene Barge, Richard Evans
Backing Vocals – The Colettes
Bass – Larry Ball
Co-producer – Gene Barge
Drums – Donnell Hagan, James Gadson, Paul Humphrey, Teddy Sparks
Executive-Producer – Larkin Arnold
Guitar – Criss Johnson, Lee Ritenour, Ray Parker Jr.
Mastered By [Reissue] – Alan Wilson
Organ – Sonny Burke
Percussion – Alan Estes
Piano, Keyboards [Fender Rhodes] – Linda Williams
Piano, Organ, Clavinet – Marvin Yancy
Producer – Chuck Jackson, Marvin Yancy
Synthesizer – Michael Boddicker


Tracklist:

01. Lovers (03:51)
(Chuck Jackson, Marvin Yancy, Natalie Cole)
02. Our Love (05:23)
(Chuck Jackson, Marvin Yancy)
03. La Costa (03:52)
(Linda Williams, Natalie Cole)
04. Nothing Stronger Than Love (04:56)
(Chuck Jackson, Marvin Yancy)
05. Be Thankful (03:52)
(Chuck Jackson, Marvin Yancy)
06. Just Can't Stay Away (05:28)
(Chuck Jackson, Marvin Yancy)
07. Annie Mae (04:07)
(Natalie Cole)
08. Keeping A Light (04:06)
(Natalie Cole)

Exact Audio Copy V0.99 prebeta 4 from 23. January 2008

EAC extraction logfile from 20. May 2009, 18:03

Natalie Cole / Thankful

Used drive : HP DVD Writer 1170d Adapter: 1 ID: 0

Read mode : Secure
Utilize accurate stream : Yes
Defeat audio cache : Yes
Make use of C2 pointers : No

Read offset correction : 6
Overread into Lead-In and Lead-Out : No
Fill up missing offset samples with silence : Yes
Delete leading and trailing silent blocks : No
Null samples used in CRC calculations : Yes
Used interface : Native Win32 interface for Win NT & 2000

Used output format : Internal WAV Routines
Sample format : 44.100 Hz; 16 Bit; Stereo


TOC of the extracted CD

Track | Start | Length | Start sector | End sector
––––––––––––––––––––––––––––-
1 | 0:00.00 | 3:51.25 | 0 | 17349
2 | 3:51.25 | 5:23.00 | 17350 | 41574
3 | 9:14.25 | 3:51.62 | 41575 | 58961
4 | 13:06.12 | 4:56.13 | 58962 | 81174
5 | 18:02.25 | 3:52.25 | 81175 | 98599
6 | 21:54.50 | 5:27.50 | 98600 | 123174
7 | 27:22.25 | 4:06.42 | 123175 | 141666
8 | 31:28.67 | 4:05.58 | 141667 | 160099


Range status and errors

Selected range

Filename C:\Documents and Settings\My Documents\My Music\Natalie Cole - Thankful\Natalie Cole - Thankful.wav

Peak level 98.8 %
Range quality 100.0 %
Copy CRC 4040CD84
Copy OK

No errors occurred


AccurateRip summary

Track 1 accurately ripped (confidence 1) [91A96415]
Track 2 accurately ripped (confidence 1) [95B3AF04]
Track 3 accurately ripped (confidence 1) [344685B9]
Track 4 accurately ripped (confidence 1) [9C0E2796]
Track 5 accurately ripped (confidence 1) [2626325A]
Track 6 accurately ripped (confidence 1) [0F80CEF6]
Track 7 accurately ripped (confidence 1) [BE857F80]
Track 8 accurately ripped (confidence 1) [8E8D3A46]

All tracks accurately ripped

End of status report

––––––––––––––––––––––––––––––––––––––––
Analyzed: Natalie Cole / Thankful
––––––––––––––––––––––––––––––––––––––––

DR Peak RMS Duration Track
––––––––––––––––––––––––––––––––––––––––
DR13 -0.10 dB -17.53 dB 3:51 01-Lovers
DR13 -0.10 dB -17.58 dB 5:23 02-Our Love
DR12 -0.85 dB -16.82 dB 3:52 03-La Costa
DR12 -2.13 dB -18.12 dB 4:56 04-Nothing Stronger Than Love
DR14 -0.36 dB -16.60 dB 3:52 05-Be Thankful
DR14 -0.14 dB -17.66 dB 5:28 06-Just Can't Stay Away
DR13 -1.31 dB -17.06 dB 4:07 07-Annie Mae
DR12 -1.24 dB -16.78 dB 4:06 08-Keeping A Light
––––––––––––––––––––––––––––––––––––––––

Number of tracks: 8
Official DR value: DR13

Samplerate: 44100 Hz
Channels: 2
Bits per sample: 16
Bitrate: 817 kbps
Codec: FLAC
================================================================================

Thanks to original releaser

See also:


password: BlondStyle