Subcategories
Tags
Language
Tags

National Health - Missing Pieces [Recorded 1975-1979] (1996)

Posted By: gribovar
National Health - Missing Pieces [Recorded 1975-1979] (1996)

National Health - Missing Pieces [Recorded 1975-1979] (1996)
EAC Rip | WavPack (image+.cue+log) - 327 MB | MP3 CBR 320 kbps (LAME 3.93) - 148 MB | Covers (14 MB) included
Genre: Progressive Rock/Canterbury Scene | RAR 3% Rec. | Label: Voiceprint (VP-113-CD)

Skip around to any ten-second window on this album and you may think you are hearing a well-rehearsed college band. But, step back and witness the sudden shifts in tempo and musical voice and you know you are witnessing a uniquely successful eclecticism. Most of the material from this superlative British prog rock band was previously unavailable in any form. National Health was the farm team for some of Great Britain's most expansive and important artists. Bill Bruford (Yes, King Crimson) handles the traps on most of the tracks. Bassist "Dirk" Mont Cambell's very interesting multi-instrumental album is also on East Side Digital. Steve Hillage laid down his guitar to produce albums and explore electronica with System 7. This and other news along the where-are-they-now? line is included in the liner notes by Dave Stewart. Stewart himself is spoken of in neo-classical circles for his avant-pop albums. A taste of this can be had in the re-recording of "Starlight on Seaweed" presented here and produced by Stewart and his then-current partner Barbara Gaskin. Stewart also elucidates each daring track with notes. Missing Pieces is a compelling reason to believe progressive rock suggested much artistic possibility that was never realized.

Tracklist:
01. Bouree
02. Paracelsus (Inc. Bouree)
03. Clocks And Clouds
04. Agrippa
05. The Lethargy Shuffle & The Mind-Your-Backs Tango
06. Zabaglione
07. Lethargy Shuffle, Part 2
08. Croquette For Electronic Beating Group
09. Phlakaton
10. The Towplane & The Glider
11. Starlight On Seaweed
12. Walking The Dog (Extract)

Total time: 56:25

Exact Audio Copy V1.0 beta 3 from 29. August 2011

EAC extraction logfile from 18. November 2012, 8:03

National Health / Missing Pieces

Used drive : HL-DT-STBDDVDRW GBC-H20N Adapter: 1 ID: 0

Read mode : Secure
Utilize accurate stream : Yes
Defeat audio cache : Yes
Make use of C2 pointers : No

Read offset correction : 667
Overread into Lead-In and Lead-Out : No
Fill up missing offset samples with silence : Yes
Delete leading and trailing silent blocks : No
Null samples used in CRC calculations : Yes
Used interface : Native Win32 interface for Win NT & 2000

Used output format : User Defined Encoder
Selected bitrate : 1024 kBit/s
Quality : High
Add ID3 tag : No
Command line compressor : C:\Program Files\Exact Audio Copy\wavpack.exe
Additional command line options : -hm %source% %dest%


TOC of the extracted CD

Track | Start | Length | Start sector | End sector
––––––––––––––––––––––––––––-
1 | 0:00.00 | 0:53.40 | 0 | 4014
2 | 0:53.40 | 5:36.07 | 4015 | 29221
3 | 6:29.47 | 6:47.03 | 29222 | 59749
4 | 13:16.50 | 8:22.32 | 59750 | 97431
5 | 21:39.07 | 9:19.45 | 97432 | 139401
6 | 30:58.52 | 7:47.70 | 139402 | 174496
7 | 38:46.47 | 4:36.05 | 174497 | 195201
8 | 43:22.52 | 3:51.40 | 195202 | 212566
9 | 47:14.17 | 0:25.60 | 212567 | 214501
10 | 47:40.02 | 5:12.45 | 214502 | 237946
11 | 52:52.47 | 3:07.58 | 237947 | 252029
12 | 56:00.30 | 0:25.05 | 252030 | 253909


Range status and errors

Selected range

Filename C:\Users\ProgDog\Music\ZALIVKI\Phil Miller\National Health - Missing Pieces (1975-1979)\National Health - Missing Pieces.wav

Peak level 100.0 %
Extraction speed 6.3 X
Range quality 100.0 %
Test CRC 4FEB4F46
Copy CRC 4FEB4F46
Copy OK

No errors occurred


AccurateRip summary

Track 1 cannot be verified as accurate (confidence 13) [E1DA2297], AccurateRip returned [3E85E5FB] (AR v2)
Track 2 cannot be verified as accurate (confidence 13) [DBB4F06A], AccurateRip returned [AB80CD76] (AR v2)
Track 3 cannot be verified as accurate (confidence 13) [1564A208], AccurateRip returned [D6FD98CE] (AR v2)
Track 4 cannot be verified as accurate (confidence 13) [69550926], AccurateRip returned [EF9B035F] (AR v2)
Track 5 cannot be verified as accurate (confidence 13) [DC1AC825], AccurateRip returned [DF52340D] (AR v2)
Track 6 cannot be verified as accurate (confidence 13) [5F7DC52B], AccurateRip returned [09BFF9BC] (AR v2)
Track 7 cannot be verified as accurate (confidence 13) [79F174C0], AccurateRip returned [E831F39C] (AR v2)
Track 8 cannot be verified as accurate (confidence 13) [BE87D6AE], AccurateRip returned [E24EED8A] (AR v2)
Track 9 cannot be verified as accurate (confidence 13) [A76D75C9], AccurateRip returned [6C12FA70] (AR v2)
Track 10 cannot be verified as accurate (confidence 13) [CCFE3693], AccurateRip returned [5CCF75F7] (AR v2)
Track 11 cannot be verified as accurate (confidence 13) [D6B2E988], AccurateRip returned [4DA5CE2D] (AR v2)
Track 12 cannot be verified as accurate (confidence 13) [34E18BC7], AccurateRip returned [60FBB56D] (AR v2)

No tracks could be verified as accurate
You may have a different pressing from the one(s) in the database

End of status report

–– CUETools DB Plugin V2.1.3

[CTDB TOCID: vXfNM776uteB3V55EMK5RvFlA9Q-] found, Submit result: vXfNM776uteB3V55EMK5RvFlA9Q- has been confirmed
[c6f93b27] (2/4) No match
[5ece1735] (2/4) Accurately ripped


==== Log checksum E55E2B1D04BC1925D4A40AD123499B861600E10A63A0A32FFE7FAA6006B0CE1F ====

[CUETools log; Date: 23.02.2019 15:57:20; Version: 2.1.4]
[CTDB TOCID: vXfNM776uteB3V55EMK5RvFlA9Q-] found.
Track | CTDB Status
1 | (38/39) Accurately ripped
2 | (38/39) Accurately ripped
3 | (38/39) Accurately ripped
4 | (38/39) Accurately ripped
5 | (38/39) Accurately ripped
6 | (37/39) Accurately ripped
7 | (37/39) Accurately ripped
8 | (37/39) Accurately ripped
9 | (37/39) Accurately ripped
10 | (37/39) Accurately ripped
11 | (37/39) Accurately ripped
12 | (21/39) Accurately ripped
[AccurateRip ID: 001c8a8c-010a252e-a20d390c] found.
Track [ CRC | V2 ] Status
01 [12593869|e1da2297] (00+06/47) Accurately ripped
02 [a8b103d2|dbb4f06a] (00+06/48) Accurately ripped
03 [1cd3518e|1564a208] (00+06/47) Accurately ripped
04 [4dcb459f|69550926] (00+06/48) Accurately ripped
05 [1e9cb2b7|dc1ac825] (00+06/47) Accurately ripped
06 [dc81fee6|5f7dc52b] (00+06/47) Accurately ripped
07 [456c90f4|79f174c0] (00+06/48) Accurately ripped
08 [807f5b64|be87d6ae] (00+06/47) Accurately ripped
09 [638adb78|a76d75c9] (00+06/47) Accurately ripped
10 [348aeadd|ccfe3693] (00+06/48) Accurately ripped
11 [d1655e4d|d6b2e988] (00+06/47) Accurately ripped
12 [115de2a6|34e18bc7] (00+06/47) Accurately ripped
Offsetted by 6:
01 [0e51930a] (04/47) Accurately ripped
02 [08e99563] (04/48) Accurately ripped
03 [c24ae44e] (04/47) Accurately ripped
04 [b35c55df] (04/48) Accurately ripped
05 [8b998711] (04/47) Accurately ripped
06 [869ee5c0] (04/47) Accurately ripped
07 [23ed178c] (04/48) Accurately ripped
08 [80160d6e] (04/47) Accurately ripped
09 [309fb040] (04/47) Accurately ripped
10 [7c5ba593] (04/48) Accurately ripped
11 [27525d6d] (04/47) Accurately ripped
12 [b0a03462] (04/47) Accurately ripped
Offsetted by -182:
01 [3e85e5fb] (13/47) Accurately ripped
02 [ab80cd76] (13/48) Accurately ripped
03 [d6fd98ce] (13/47) Accurately ripped
04 [ef9b035f] (13/48) Accurately ripped
05 [df52340d] (13/47) Accurately ripped
06 [09bff9bc] (13/47) Accurately ripped
07 [e831f39c] (13/48) Accurately ripped
08 [e24eed8a] (13/47) Accurately ripped
09 [6c12fa70] (13/47) Accurately ripped
10 [5ccf75f7] (13/48) Accurately ripped
11 [4da5ce2d] (13/47) Accurately ripped
12 [dd2cde0a] (00/47) No match
Offsetted by 40:
01 [89994509] (00/47) No match (V2 was not tested)
02 [f058d24a] (00/48) No match (V2 was not tested)
03 [c145ce8e] (00/47) No match (V2 was not tested)
04 [9d925c9f] (00/48) No match (V2 was not tested)
05 [9fdce50f] (00/47) No match (V2 was not tested)
06 [9fed573e] (00/47) No match (V2 was not tested)
07 [10c56794] (00/48) No match (V2 was not tested)
08 [d316a8fc] (00/47) No match (V2 was not tested)
09 [1015bb58] (00/47) No match (V2 was not tested)
10 [bdfa7245] (00/48) No match (V2 was not tested)
11 [b8e6adcd] (00/47) No match (V2 was not tested)
12 [e1c2ae36] (00/47) No match (V2 was not tested)

Track Peak [ CRC32 ] [W/O NULL] [ LOG ]
– 100,0 [4FEB4F46] [3299EA91] CRC32
01 62,8 [5D909EDD] [8C4BD97A]
02 90,2 [237CB04B] [5CD4CB37]
03 95,6 [58CC0AE1] [B5A48A66]
04 81,0 [8CE7E33B] [3EDA4CAA]
05 95,5 [E8D94E33] [0036F0B9]
06 100,0 [090B742A] [F505D8F8]
07 94,3 [C0D392EC] [C51B88CA]
08 79,0 [382F726D] [ACEA6F50]
09 58,7 [3135C176] [572918B2]
10 79,6 [64AA878A] [8DFFC89A]
11 97,7 [6F02A527] [2058B6FC]
12 91,1 [A612AD74] [3A808EC8]

Thanks to arizonadream