National Health - National Health (1978) [Reissue 2009]

Posted By: gribovar
National Health - National Health (1978) [Reissue 2009]

National Health - National Health (1978) [Reissue 2009]
EAC Rip | WavPack (image+.cue+log) - 276 MB | MP3 CBR 320 kbps (LAME 3.93) - 117 MB | Covers - 13 MB
Genre: Progressive Rock/Canterbury Scene | RAR 3% Rec. | Label: Esoteric Recordings (ECLEC2129)

Esoteric Recordings are pleased to announce the release of a new re-mastered edition of the classic 1978 debut album by National Health. Evolving from Canterbury stylists Hatfield & the north, National Health featured the talents of Dave Stewart on keyboards, Pip Pyle on drums and Phil Miller on guitar along with guests such as Jimmy Hastings. At various times the group also included such luminaries as Bill Bruford, Mont Campbell and Alan Gowen. Released by Affinity Records in February 1978, the album is a classic of the ‘Canterbury’ style and is sure to be a much sought after release by all aficionados of the genre.

Tracklist:
01. Thermos Roads
02. Brujo
03. Borogoves (Excerpt From Part 2)
04. Borogoves (Part 1)
05. Elephants

Total time: 49:51

Exact Audio Copy V1.0 beta 3 from 29. August 2011

EAC extraction logfile from 17. November 2012, 21:54

National Health / National Health

Used drive : HL-DT-STBDDVDRW GBC-H20N Adapter: 1 ID: 0

Read mode : Secure
Utilize accurate stream : Yes
Defeat audio cache : Yes
Make use of C2 pointers : No

Read offset correction : 667
Overread into Lead-In and Lead-Out : No
Fill up missing offset samples with silence : Yes
Delete leading and trailing silent blocks : No
Null samples used in CRC calculations : Yes
Used interface : Native Win32 interface for Win NT & 2000

Used output format : User Defined Encoder
Selected bitrate : 1024 kBit/s
Quality : High
Add ID3 tag : No
Command line compressor : C:\Program Files\Exact Audio Copy\wavpack.exe
Additional command line options : -hm %source% %dest%


TOC of the extracted CD

Track | Start | Length | Start sector | End sector
––––––––––––––––––––––––––––-
1 | 0:00.00 | 14:32.17 | 0 | 65416
2 | 14:32.17 | 10:14.13 | 65417 | 111479
3 | 24:46.30 | 4:13.30 | 111480 | 130484
4 | 28:59.60 | 6:30.11 | 130485 | 159745
5 | 35:29.71 | 14:20.59 | 159746 | 224304


Range status and errors

Selected range

Filename C:\Users\ProgDog\Music\ZALIVKI\Phil Miller\08 - 1978 - National Health - National Health\National Health - National Health.wav

Peak level 98.8 %
Extraction speed 6.0 X
Range quality 100.0 %
Test CRC A105292D
Copy CRC A105292D
Copy OK

No errors occurred


AccurateRip summary

Track 1 accurately ripped (confidence 7) [ECA10B89] (AR v1)
Track 2 accurately ripped (confidence 7) [F1441BFD] (AR v1)
Track 3 accurately ripped (confidence 7) [2E5F8157] (AR v1)
Track 4 accurately ripped (confidence 7) [B22976C9] (AR v1)
Track 5 accurately ripped (confidence 7) [76B1AF86] (AR v1)

All tracks accurately ripped

End of status report

–– CUETools DB Plugin V2.1.3

[CTDB TOCID: 37g0JvBCTbk1o1Yjxt_5_vVR2SY-] found, Submit result: 37g0JvBCTbk1o1Yjxt_5_vVR2SY- has been confirmed
[0c985df0] (9/9) Accurately ripped


==== Log checksum EF926A485E93F8FE58C9BE98D27AFC2C672D74EEAF94E2066DA4AD7AA55B8372 ====

[CUETools log; Date: 27.10.2016 20:06:20; Version: 2.1.4]
[CTDB TOCID: 37g0JvBCTbk1o1Yjxt_5_vVR2SY-] found.
Track | CTDB Status
1 | (21/21) Accurately ripped
2 | (21/21) Accurately ripped
3 | (21/21) Accurately ripped
4 | (21/21) Accurately ripped
5 | (21/21) Accurately ripped
[AccurateRip ID: 000a8ce9-002fc97f-3e0bae05] found.
Track [ CRC | V2 ] Status
01 [eca10b89|ff4e1eb3] (07+16/25) Accurately ripped
02 [f1441bfd|bc1b1ca6] (07+16/25) Accurately ripped
03 [2e5f8157|90bf9722] (07+16/25) Accurately ripped
04 [b22976c9|5398026b] (07+16/25) Accurately ripped
05 [76b1af86|99f3e26e] (07+16/25) Accurately ripped
Offsetted by -730:
01 [3b10938f] (02/25) Accurately ripped
02 [da1747c9] (02/25) Accurately ripped
03 [6b420923] (02/25) Accurately ripped
04 [b1767df1] (02/25) Accurately ripped
05 [3cbabb9d] (02/25) Accurately ripped

Track Peak [ CRC32 ] [W/O NULL] [ LOG ]
– 98,8 [A105292D] [660AA667] CRC32
01 98,8 [25FE139E] [360EF8F1]
02 98,8 [F4DFC69A] [4C97D565]
03 98,8 [E953E30A] [9D4FCDB6]
04 98,8 [2F197F49] [02352D44]
05 98,8 [3325EE65] [B00DDEEE]

Thanks to arizona–dream

See also:
National Health - Of Queues And Cures (1978) [Reissue 2009]
National Health - Playtime (2001)