Subcategories
Tags
Language
Tags

National Health - Of Queues And Cures (1978) [Reissue 2009]

Posted By: gribovar
National Health - Of Queues And Cures (1978) [Reissue 2009]

National Health - Of Queues And Cures (1978) [Reissue 2009]
EAC Rip | WavPack (image+.cue+log) - 323 MB | MP3 CBR 320 kbps (LAME 3.93) - 125 MB | Covers - 19 MB
Genre: Progressive Rock/Canterbury Scene | RAR 3% Rec. | Label: Esoteric Recordings (ECLEC2130)

Of Queues and Cures is one of the last and finest examples of the instrumental Canterbury sound on record during the 1970s. This somewhat sweeping claim for National Health's second album is made not only because of the complexity and quirkiness heard throughout, but because of the presence - quite rare in the years to follow - of fuzz organ, here played by Dave Stewart prior to his departure from the group and the return of the arguably jazzier and less fuzz-inclined Alan Gowen as sole keyboardist.

Tracklist:
01. The Bryden 2-step (for Amphibians) (Part 1)
02. The Collapso
03. Squarer for Maud
04. Dreams Wide Awake
05. Binoculars
06. Phlakaton
07. The Bryden 2-step (for Amphibians) (Part 2)

Total time: 53:22

Exact Audio Copy V1.0 beta 3 from 29. August 2011

EAC extraction logfile from 17. November 2012, 22:20

National Health / Of Queues and Cures

Used drive : HL-DT-STBDDVDRW GBC-H20N Adapter: 1 ID: 0

Read mode : Secure
Utilize accurate stream : Yes
Defeat audio cache : Yes
Make use of C2 pointers : No

Read offset correction : 667
Overread into Lead-In and Lead-Out : No
Fill up missing offset samples with silence : Yes
Delete leading and trailing silent blocks : No
Null samples used in CRC calculations : Yes
Used interface : Native Win32 interface for Win NT & 2000

Used output format : User Defined Encoder
Selected bitrate : 1024 kBit/s
Quality : High
Add ID3 tag : No
Command line compressor : C:\Program Files\Exact Audio Copy\wavpack.exe
Additional command line options : -hm %source% %dest%


TOC of the extracted CD

Track | Start | Length | Start sector | End sector
––––––––––––––––––––––––––––-
1 | 0:00.00 | 8:54.50 | 0 | 40099
2 | 8:54.50 | 6:19.44 | 40100 | 68568
3 | 15:14.19 | 11:51.27 | 68569 | 121920
4 | 27:05.46 | 8:50.02 | 121921 | 161672
5 | 35:55.48 | 11:45.62 | 161673 | 214609
6 | 47:41.35 | 0:09.02 | 214610 | 215286
7 | 47:50.37 | 5:31.10 | 215287 | 240121


Range status and errors

Selected range

Filename C:\Users\ProgDog\Music\ZALIVKI\Phil Miller\09 - 1978 - National Health - Of Queues and Cures\National Health - Of Queues and Cures.wav

Peak level 99.4 %
Extraction speed 6.1 X
Range quality 100.0 %
Test CRC 890919F5
Copy CRC 890919F5
Copy OK

No errors occurred


AccurateRip summary

Track 1 accurately ripped (confidence 6) [CEF73016] (AR v1)
Track 2 accurately ripped (confidence 6) [68EC3F17] (AR v1)
Track 3 accurately ripped (confidence 6) [635BEA2A] (AR v1)
Track 4 accurately ripped (confidence 6) [0612B5BB] (AR v1)
Track 5 accurately ripped (confidence 6) [D94EBCCB] (AR v1)
Track 6 accurately ripped (confidence 6) [BF1F141B] (AR v1)
Track 7 accurately ripped (confidence 6) [6773CB69] (AR v1)

All tracks accurately ripped

End of status report

–– CUETools DB Plugin V2.1.3

[CTDB TOCID: GtQXpqvL4SCpis8zYpWbGN_OpTw-] found, Submit result: GtQXpqvL4SCpis8zYpWbGN_OpTw- has been confirmed
[9f8dad3e] (5/5) Accurately ripped


==== Log checksum D94F4D16B719D662BC620DD4DA5FBF95486433D92866390761BE09794CBA3AC7 ====

[CUETools log; Date: 27.10.2016 20:07:54; Version: 2.1.4]
[CTDB TOCID: GtQXpqvL4SCpis8zYpWbGN_OpTw-] found.
Track | CTDB Status
1 | (23/23) Accurately ripped
2 | (23/23) Accurately ripped
3 | (23/23) Accurately ripped
4 | (23/23) Accurately ripped
5 | (23/23) Accurately ripped
6 | (23/23) Accurately ripped
7 | (23/23) Accurately ripped
[AccurateRip ID: 0010358a-00601802-650c8107] found.
Track [ CRC | V2 ] Status
01 [cef73016|d36a027f] (06+14/20) Accurately ripped
02 [68ec3f17|5bbe6503] (06+14/20) Accurately ripped
03 [635bea2a|95792230] (06+14/20) Accurately ripped
04 [0612b5bb|100118b4] (06+14/20) Accurately ripped
05 [d94ebccb|0fc6786f] (06+14/20) Accurately ripped
06 [bf1f141b|f2472258] (06+14/20) Accurately ripped
07 [6773cb69|1705f2b2] (06+14/20) Accurately ripped
Offsetted by -694:
01 [eed766fe] (00/20) No match (V2 was not tested)
02 [f5b98631] (00/20) No match (V2 was not tested)
03 [a997b202] (00/20) No match (V2 was not tested)
04 [dd0a5c6b] (00/20) No match (V2 was not tested)
05 [2e3eef9b] (00/20) No match (V2 was not tested)
06 [ad920e49] (00/20) No match (V2 was not tested)
07 [bb87ecd1] (00/20) No match (V2 was not tested)

Track Peak [ CRC32 ] [W/O NULL] [ LOG ]
– 99,4 [890919F5] [371C444C] CRC32
01 99,4 [26513332] [2BEB6645]
02 99,4 [22AE1C7C] [6591F5FF]
03 99,4 [225163FB] [95FCF650]
04 99,4 [094E3934] [7991B5A5]
05 99,4 [F0BDD17E] [26796AA2]
06 36,7 [CA05D8AB] [EF7F09C8]
07 99,4 [476AC2FA] [54F5305D]

Thanks to arizonadream