Subcategories

Ozzy Osbourne - Under Cover (2005) [Dual Disc, CD-Side] [PROPER]

Posted By: Necromandus
Ozzy Osbourne - Under Cover (2005) [Dual Disc, CD-Side] [PROPER]

Ozzy Osbourne - Under Cover (Dual Disc, 2005) CD Side
EAC Rip | APE+CUE+LOG | 400 MB | Complete HQ Scans | 40 MB
Label: Epic (Sony Music/BMG) | Catalog Number: EN 93470 A | RAR 3% Rec. | RS.com
… Limited Edition Dual Disc, CD-side only …

Ozzy Osbourne - Under Cover (2005) [Dual Disc, CD-Side] [PROPER]

A DualDisc is a two-sided disc made up of a CD on one side and a DVD on the other, DualDisc’s breakthrough technology allows one disc to have it all. A full album on the CD side. All sorts of special material on the DVD side, including the full album in a 5.1 Surround Sound, exclusive video content and lyrics.

Ozzy Osbourne - Under Cover (2005) [Dual Disc, CD-Side] [PROPER]

Essentially an amped-up karaoke night in the Osbournes' basement lair, Under Cover is impeccably engineered and effortlessly played – ex-Alice in Chains axe slinger Jerry Cantrell provides impressive guitar work throughout, making a strong case as to whether this is his baby or Ozzy's. All of the tracks here, with the exception of "Rocky Mountain Way," "Sunshine of Your Love," "Woman," and "Go Now," appeared on 2005's Prince of Darkness box set. Guest appearances abound, with Mott the Hoople's Ian Hunter choking out his original refrain on "All the Young Dudes" in a style that can only be described as "endearingly awkward homeless man," Mountain's Leslie West turning the amps up to 11 on "Mississippi Queen," and blues-rock wunderkind Robert Randolph laying down some serious pedal steel on "Sympathy for the Devil." The Ozz himself is in good form, but as is the case with much of his later work, he sounds more like the tool than the fist. It's good to give a nod to your inspirations, but when it's a performer like Osbourne, who has made the uncomfortable shift from artist to product, the sentiment – however genuine – gets lost in the marketing.

~ James Christopher Monger, All Music Guide
Tracklist:

1. Rocky Mountain Way - 4:33
2. In My Life - 3:30
3. Mississippi Queen - 4:11
4. Go Now - 3:42
5. Woman - 3:46
6. 21st Century Schizoid Man - 3:53
7. All The Young Dudes - 4:35
8. For What It's Worth - 3:21
9. Good Times - 3:46
10. Sunshine Of Your Love - 5:11
11. Fire - 4:09
12. Working Class Hero - 3:22
13. Sympathy For The Devil - 7:11

Exact Audio Copy V0.99 prebeta 4 from 23. January 2008

EAC extraction logfile from 19. September 2009, 10:52

Ozzy Osbourne / Under Cover

Used drive : Optiarc DVD RW AD-7191A Adapter: 1 ID: 0

Read mode : Secure
Utilize accurate stream : Yes
Defeat audio cache : Yes
Make use of C2 pointers : No

Read offset correction : 6
Overread into Lead-In and Lead-Out : No
Fill up missing offset samples with silence : Yes
Delete leading and trailing silent blocks : No
Null samples used in CRC calculations : Yes
Used interface : Installed external ASPI interface

Used output format : Internal WAV Routines
Sample format : 44.100 Hz; 16 Bit; Stereo


TOC of the extracted CD

Track | Start | Length | Start sector | End sector
––––––––––––––––––––––––––––-
1 | 0:00.00 | 4:32.41 | 0 | 20440
2 | 4:32.41 | 3:30.29 | 20441 | 36219
3 | 8:02.70 | 4:11.30 | 36220 | 55074
4 | 12:14.25 | 3:42.21 | 55075 | 71745
5 | 15:56.46 | 3:45.66 | 71746 | 88686
6 | 19:42.37 | 3:53.29 | 88687 | 106190
7 | 23:35.66 | 4:34.57 | 106191 | 126797
8 | 28:10.48 | 3:20.74 | 126798 | 141871
9 | 31:31.47 | 3:45.57 | 141872 | 158803
10 | 35:17.29 | 5:10.61 | 158804 | 182114
11 | 40:28.15 | 4:08.73 | 182115 | 200787
12 | 44:37.13 | 3:22.11 | 200788 | 215948
13 | 47:59.24 | 7:11.19 | 215949 | 248292


Range status and errors

Selected range

Filename G:\-= lossless work =-\Ozzy Osbourne - Under Cover.wav

Peak level 99.9 %
Range quality 100.0 %
Copy CRC EBEFEBC4
Copy OK

No errors occurred


AccurateRip summary

Track 1 accurately ripped (confidence 23) [81E00CF0]
Track 2 accurately ripped (confidence 24) [4C264C84]
Track 3 accurately ripped (confidence 23) [287117E0]
Track 4 accurately ripped (confidence 23) [40F572E9]
Track 5 accurately ripped (confidence 24) [2A6B671B]
Track 6 accurately ripped (confidence 22) [2272B6A9]
Track 7 accurately ripped (confidence 22) [2A3E54F6]
Track 8 accurately ripped (confidence 22) [EDD616F6]
Track 9 accurately ripped (confidence 22) [D8BD56D6]
Track 10 accurately ripped (confidence 22) [BDEBEB05]
Track 11 accurately ripped (confidence 21) [842C9AE2]
Track 12 accurately ripped (confidence 22) [F510C3F3]
Track 13 accurately ripped (confidence 21) [FB34A546]

All tracks accurately ripped

End of status report

Ozzy Osbourne - vocals
Jerry Cantrell - guitar
Chris Wyse - bass
Mike Bordin - drums

Produced by Mark Hudson. Arrangements by Steve Dudas.
Engineered and Mixed by Bruce Sugar.
Additional Engineering: Kevin Churko and David Frangiom.

GUEST MUSICIANS:
Ian Hunter - vocals on 'All the Young Dudes'
Leslie West - guitar solo on 'Mississippi Queen'
Robert Randolph - pedal steel on 'Sympathy for the Devil', guitar solo on '21st Century Schizoid Man'

ADDITIONAL MUSICIANS:
Gregg Bissonette, Joe Bonamassa, Bogie Bowles, Tabby Callaghan, Louis Conte,
Jim Cox, Madison Derek, Steve Dudas, Molly Foote, Mark Hudson, Sarah Hudson,
Michael Landau, James Mastro, Paul Santo and Bruce Segar.


DVD-side you can find here

lossless* (wv, 400Mb):
part1.rar
part2.rar
part3.rar
part4.rar

covers (600pdi, 40Mb):
UC2005OOSCOV.rar

password: www.avaxhome.ru
* - EAC Image, standard LOG, embedded cuesheet, Foobar2000 ready