Subcategories

Neil Young - Storytone (2014) {Deluxe Edition}

Posted By: popsakov
Neil Young - Storytone (2014) {Deluxe Edition}

Neil Young - Storytone (2014) {Deluxe Edition}
2CD | EAC Rip | FLAC (Img) + Cue + Log ~ 460 Mb | MP3 CBR320 ~ 249 Mb
Full Scans | 00:37:14 + 00:41:37 | RAR 5% Recovery
Folk Rock, Country, Swing, Blues | Reprise Records #9362-49324-0

Storytone arrived at the end of a year that already saw another new Neil Young album – that would be A Letter Home, a collection of folk covers recorded at Jack White's Voice-O-Graph direct-to-vinyl recording booth at Third Man Records – which itself was only the tip of the iceberg that was Neil's 2014. That spring, Young launched a high-end digital audio system called Pono, which was followed by the summer news that he was divorcing Pegi, his wife of 36 years, an event that led to a fresh feud with David Crosby that then led to Young saying he would never play with CSN again and, if that weren't enough, Young also published his second book, Special Deluxe: A Memoir of Life & Cars, just prior to the release of Storytone. That'd be enough to sustain a few years for most artists but we all know perfectly well that Neil Young isn't like most artists. He thrives on this kind of chaos and, appropriately enough, Storytone is fairly messy – which is quite an achievement for an album recorded in large part live in front of a full orchestra. Young does indeed croon over those strings, often rhapsodizing about the powers of new love or pleading to save the Earth, although he sometimes gets restless and rolls out a swinging big band. This means Storytone sometimes plays like a hybrid of Harvest at its most florid and the bloozy swagger of This Note's for You – a curious combination that doesn't seem quite as extreme on the album's second disc, which houses nothing but solo renditions of the record's ten tunes, but the very fact that there's a reverse image of the album strengthens the impression that Young isn't much in the mood to keep things simple. Which is odd, because all the original songs here are relatively simple, built to withstand simple arrangements – they sound fine when Young supports himself with no more than a guitar, piano, or ukulele – and they don't buckle underneath the weight of an orchestra. Versatile they may be, but they're united by Young's aching sincerity. He's earnest whether he's taking a stance against fracking, romanticizing his old car, or singing about new love with the dewiness of a teenager. The open-heartedness is sweet if somewhat adolescent, a feeling not helped by the preponderance of 2014 headlines about Young's love life, but even without that tabloid gunk, songs like "Glimmer" have an optimism that sounds just a shade disarming coming from a former cynic facing 70. But that's one of the glorious things about Neil Young: he surprises and by delivering this big, sloppy valentine to everything he is and everything he loves, he's not being neat but he is true to himself. A Deluxe LP Edition added a second album of solo versions of all the tracks.

~ Stephen Thomas Erlewine, All Music
Neil Young - Storytone (2014) {Deluxe Edition}


***************

Neil Young - Storytone (2014) {Deluxe Edition}

Neil Young - Storytone (2014) {Deluxe Edition}

Track List CD1 - Solo Storytone:

01. Plastic Flowers (solo) [4:05]
02. Who’s Gonna Stand Up (solo) [3:49]
03. I Want to Drive My Car (solo) [2:23]
04. Glimmer (solo) [3:11]
05. Say Hello to Chicago (solo) [4:54]
06. Tumbleweed (solo) [3:22]
07. Like You Used to Do (solo) [2:39]
08. I’m Glad I Found You (solo) [3:22]
09. When I Watch You Sleeping (solo) [5:37]
10. All Those Dreams (solo) [3:53]

Exact Audio Copy V1.3 from 2. September 2016

EAC extraction logfile from 6. February 2017, 20:40

NEIL YOUNG / Storytone (DeLuxe) [CD 1]

Used drive : TSSTcorpCDDVDW SH-224DB Adapter: 1 ID: 1

Read mode : Secure
Utilize accurate stream : Yes
Defeat audio cache : Yes
Make use of C2 pointers : No

Read offset correction : 6
Overread into Lead-In and Lead-Out : No
Fill up missing offset samples with silence : Yes
Delete leading and trailing silent blocks : No
Null samples used in CRC calculations : Yes
Used interface : Installed external ASPI interface

Used output format : Internal WAV Routines
Sample format : 44.100 Hz; 16 Bit; Stereo


TOC of the extracted CD

Track | Start | Length | Start sector | End sector
––––––––––––––––––––––––––––-
1 | 0:00.00 | 4:04.42 | 0 | 18341
2 | 4:04.42 | 3:49.03 | 18342 | 35519
3 | 7:53.45 | 2:22.50 | 35520 | 46219
4 | 10:16.20 | 3:10.41 | 46220 | 60510
5 | 13:26.61 | 4:54.03 | 60511 | 82563
6 | 18:20.64 | 3:22.16 | 82564 | 97729
7 | 21:43.05 | 2:39.08 | 97730 | 109662
8 | 24:22.13 | 3:22.26 | 109663 | 124838
9 | 27:44.39 | 5:36.42 | 124839 | 150080
10 | 33:21.06 | 3:52.42 | 150081 | 167522


Range status and errors

Selected range

Filename C:\Downloads\NEIL YOUNG\2014 - Storytone (DeLuxe)\CD 1 Solo Storytone\NEIL YOUNG - Storytone (DeLuxe) [CD 1].wav

Peak level 100.0 %
Extraction speed 2.8 X
Range quality 100.0 %
Test CRC 86E27573
Copy CRC 86E27573
Copy OK

No errors occurred


AccurateRip summary

Track 1 accurately ripped (confidence 150) [0B24FA75] (AR v2)
Track 2 accurately ripped (confidence 149) [23320777] (AR v2)
Track 3 accurately ripped (confidence 150) [F123A432] (AR v2)
Track 4 accurately ripped (confidence 150) [36A19FC4] (AR v2)
Track 5 accurately ripped (confidence 149) [9C27DFFF] (AR v2)
Track 6 accurately ripped (confidence 148) [3AA1060E] (AR v2)
Track 7 accurately ripped (confidence 149) [15A8354F] (AR v2)
Track 8 accurately ripped (confidence 148) [DE76CDF2] (AR v2)
Track 9 accurately ripped (confidence 149) [75C1BEB5] (AR v2)
Track 10 accurately ripped (confidence 149) [914B1A8A] (AR v2)

All tracks accurately ripped

End of status report

–– CUETools DB Plugin V2.1.6

[CTDB TOCID: 3pIJCquML9vFyitKlCoeAEfWgNg-] found
Submit result: 3pIJCquML9vFyitKlCoeAEfWgNg- has been confirmed
Track | CTDB Status
1 | (253/255) Accurately ripped
2 | (254/255) Accurately ripped
3 | (254/255) Accurately ripped
4 | (253/255) Accurately ripped
5 | (253/255) Accurately ripped
6 | (252/255) Accurately ripped
7 | (254/255) Accurately ripped
8 | (253/255) Accurately ripped
9 | (254/255) Accurately ripped
10 | (254/255) Accurately ripped


==== Log checksum 274BB89E81101F53BB959833359AE4C00585BF9F2C5DD4559A11F86C0499B9A0 ====

[CUETools log; Date: 27.02.2017 3:46:55; Version: 2.1.5]
[CTDB TOCID: 3pIJCquML9vFyitKlCoeAEfWgNg-] found.
Track | CTDB Status
1 | (256/258) Accurately ripped
2 | (257/258) Accurately ripped
3 | (257/258) Accurately ripped
4 | (256/258) Accurately ripped
5 | (256/258) Accurately ripped
6 | (255/258) Accurately ripped
7 | (257/258) Accurately ripped
8 | (256/258) Accurately ripped
9 | (257/258) Accurately ripped
10 | (257/258) Accurately ripped
[AccurateRip ID: 000da041-006d2ba0-7108b90a] found.
Track [ CRC | V2 ] Status
01 [42fbd5de|0b24fa75] (008+150/168) Accurately ripped
02 [0266b63d|23320777] (008+149/167) Accurately ripped
03 [06ef1edb|f123a432] (008+150/168) Accurately ripped
04 [90f0c0eb|36a19fc4] (008+150/168) Accurately ripped
05 [b9ab40d0|9c27dfff] (008+149/167) Accurately ripped
06 [3d134f69|3aa1060e] (008+148/166) Accurately ripped
07 [34cabe43|15a8354f] (008+149/167) Accurately ripped
08 [74fca07e|de76cdf2] (008+148/166) Accurately ripped
09 [08668350|75c1beb5] (008+149/167) Accurately ripped
10 [dac8482c|914b1a8a] (008+149/168) Accurately ripped
Offsetted by -12:
01 [fbeb6af2] (000/168) No match (V2 was not tested)
02 [86ca07d5] (000/167) No match (V2 was not tested)
03 [66956aeb] (000/168) No match (V2 was not tested)
04 [4088f6d1] (000/168) No match (V2 was not tested)
05 [6db10b0e] (000/167) No match (V2 was not tested)
06 [32429c4c] (000/166) No match (V2 was not tested)
07 [f73ad240] (000/167) No match (V2 was not tested)
08 [6b8645e5] (000/166) No match (V2 was not tested)
09 [0d8d5711] (000/167) No match (V2 was not tested)
10 [0541e658] (000/168) No match (V2 was not tested)
Offsetted by 6:
01 [66840b54] (000/168) No match (V2 was not tested)
02 [40350d71] (000/167) No match (V2 was not tested)
03 [571bf8d3] (000/168) No match (V2 was not tested)
04 [1bceb4e0] (000/168) No match (V2 was not tested)
05 [5fe1db81] (000/167) No match (V2 was not tested)
06 [9cff2861] (000/166) No match (V2 was not tested)
07 [540934db] (000/167) No match (V2 was not tested)
08 [225b249f] (000/166) No match (V2 was not tested)
09 [8607993b] (000/167) No match (V2 was not tested)
10 [458b7916] (000/168) No match (V2 was not tested)

Track Peak [ CRC32 ] [W/O NULL] [ LOG ]
– 100,0 [86E27573] [CAB58A8F] CRC32
01 74,7 [15BDE533] [A8F80816]
02 100,0 [7522C170] [5C6083C4]
03 83,6 [DDD63978] [28EBEFC8]
04 86,4 [D9BE6BAD] [6B3CC07A]
05 92,7 [4E2398E8] [0283FAC6]
06 100,0 [4EB1107C] [5547B48B]
07 95,4 [5789427D] [A5A9C886]
08 95,7 [19CEA3D3] [623B5BC9]
09 100,0 [441A89F4] [11B577A2]
10 94,2 [7A0DA87C] [D4CE18DE]

Neil Young - Storytone (2014) {Deluxe Edition}

Neil Young - Storytone (2014) {Deluxe Edition}

Track List CD2 - Storytone:

01. Plastic Flowers (orchestral) [4:06]
02. Who’s Gonna Stand Up (orchestral) [4:24]
03. I Want to Drive My Car (big band) [3:11]
04. Glimmer (orchestral) [5:01]
05. Say Hello to Chicago (big band) [4:58]
06. Tumbleweed (orchestral) [3:38]
07. Like You Used to Do (big band) [2:41]
08. I’m Glad I Found You (orchestral) [3:43]
09. When I Watch You Sleeping (orchestral) [5:31]
10. All Those Dreams (orchestral) [4:25]

Exact Audio Copy V1.3 from 2. September 2016

EAC extraction logfile from 6. February 2017, 21:20

NEIL YOUNG / Storytone (DeLuxe) [CD 2]

Used drive : TSSTcorpCDDVDW SH-224DB Adapter: 1 ID: 1

Read mode : Secure
Utilize accurate stream : Yes
Defeat audio cache : Yes
Make use of C2 pointers : No

Read offset correction : 6
Overread into Lead-In and Lead-Out : No
Fill up missing offset samples with silence : Yes
Delete leading and trailing silent blocks : No
Null samples used in CRC calculations : Yes
Used interface : Installed external ASPI interface

Used output format : Internal WAV Routines
Sample format : 44.100 Hz; 16 Bit; Stereo


TOC of the extracted CD

Track | Start | Length | Start sector | End sector
––––––––––––––––––––––––––––-
1 | 0:00.00 | 4:06.28 | 0 | 18477
2 | 4:06.28 | 4:23.39 | 18478 | 38241
3 | 8:29.67 | 3:10.68 | 38242 | 52559
4 | 11:40.60 | 5:01.04 | 52560 | 75138
5 | 16:41.64 | 4:57.42 | 75139 | 97455
6 | 21:39.31 | 3:38.07 | 97456 | 113812
7 | 25:17.38 | 2:40.67 | 113813 | 125879
8 | 27:58.30 | 3:42.46 | 125880 | 142575
9 | 31:41.01 | 5:30.63 | 142576 | 167388
10 | 37:11.64 | 4:25.31 | 167389 | 187294


Range status and errors

Selected range

Filename C:\Downloads\NEIL YOUNG\2014 - Storytone (DeLuxe)\CD 2 Storytone\NEIL YOUNG - Storytone (DeLuxe) [CD 2].wav

Peak level 100.0 %
Extraction speed 2.8 X
Range quality 99.9 %
Test CRC 3504AAF0
Copy CRC 3504AAF0
Copy OK

No errors occurred


AccurateRip summary

Track 1 accurately ripped (confidence 200) [3C44CA07] (AR v2)
Track 2 accurately ripped (confidence 200) [A32D0581] (AR v2)
Track 3 accurately ripped (confidence 200) [F8650431] (AR v2)
Track 4 accurately ripped (confidence 200) [84CB10A4] (AR v2)
Track 5 accurately ripped (confidence 200) [13C9300B] (AR v2)
Track 6 accurately ripped (confidence 200) [8AB07387] (AR v2)
Track 7 accurately ripped (confidence 200) [98F7C75E] (AR v2)
Track 8 accurately ripped (confidence 200) [4BC4E603] (AR v2)
Track 9 accurately ripped (confidence 200) [A76AF136] (AR v2)
Track 10 accurately ripped (confidence 200) [E2C06763] (AR v2)

All tracks accurately ripped

End of status report

–– CUETools DB Plugin V2.1.6

[CTDB TOCID: S3Hs6TAXGHW5oSybBmWRXVHbbu0-] found
Submit result: S3Hs6TAXGHW5oSybBmWRXVHbbu0- has been confirmed
Track | CTDB Status
1 | (405/406) Accurately ripped
2 | (404/406) Accurately ripped
3 | (404/406) Accurately ripped
4 | (405/406) Accurately ripped
5 | (403/406) Accurately ripped
6 | (405/406) Accurately ripped
7 | (405/406) Accurately ripped
8 | (405/406) Accurately ripped
9 | (405/406) Accurately ripped
10 | (402/406) Accurately ripped


==== Log checksum CF72EA65C7E597843536E5409E22AB9D70D3E0F2F1ADBED0467042281515E6AC ====

[CUETools log; Date: 27.02.2017 3:49:46; Version: 2.1.5]
[CTDB TOCID: S3Hs6TAXGHW5oSybBmWRXVHbbu0-] found.
Track | CTDB Status
1 | (414/415) Accurately ripped
2 | (413/415) Accurately ripped
3 | (413/415) Accurately ripped
4 | (414/415) Accurately ripped
5 | (412/415) Accurately ripped
6 | (414/415) Accurately ripped
7 | (414/415) Accurately ripped
8 | (414/415) Accurately ripped
9 | (414/415) Accurately ripped
10 | (411/415) Accurately ripped
[AccurateRip ID: 000f8bcc-007c422c-5f09c10a] found.
Track [ CRC | V2 ] Status
01 [dd65d622|3c44ca07] (008+200/218) Accurately ripped
02 [c190a21c|a32d0581] (008+200/218) Accurately ripped
03 [ecb9a5ca|f8650431] (008+200/218) Accurately ripped
04 [6b06b118|84cb10a4] (008+200/218) Accurately ripped
05 [20405b1a|13c9300b] (008+200/218) Accurately ripped
06 [709e0cde|8ab07387] (008+200/218) Accurately ripped
07 [531b460d|98f7c75e] (008+200/218) Accurately ripped
08 [bc3a93b5|4bc4e603] (008+200/218) Accurately ripped
09 [86b6b248|a76af136] (008+200/218) Accurately ripped
10 [d957306d|e2c06763] (008+200/218) Accurately ripped
Offsetted by -12:
01 [38ba7b35] (000/218) No match (V2 was not tested)
02 [8c895451] (000/218) No match (V2 was not tested)
03 [90730cca] (000/218) No match (V2 was not tested)
04 [59dcde38] (000/218) No match (V2 was not tested)
05 [6e021868] (000/218) No match (V2 was not tested)
06 [b3e844f9] (000/218) No match (V2 was not tested)
07 [141da36e] (000/218) No match (V2 was not tested)
08 [995232df] (000/218) No match (V2 was not tested)
09 [f0cb6d4c] (000/218) No match (V2 was not tested)
10 [caab708d] (000/218) No match (V2 was not tested)
Offsetted by 6:
01 [4b88a76c] (000/218) No match (V2 was not tested)
02 [dd4fc836] (000/218) No match (V2 was not tested)
03 [9adcf24a] (000/218) No match (V2 was not tested)
04 [f3659a88] (000/218) No match (V2 was not tested)
05 [f9297ca9] (000/218) No match (V2 was not tested)
06 [344d51c7] (000/218) No match (V2 was not tested)
07 [ae9c5bc5] (000/218) No match (V2 was not tested)
08 [cdd5c3ed] (000/218) No match (V2 was not tested)
09 [607c545a] (000/218) No match (V2 was not tested)
10 [615310c9] (000/218) No match (V2 was not tested)

Track Peak [ CRC32 ] [W/O NULL] [ LOG ]
– 100,0 [3504AAF0] [9C3D9435] CRC32
01 100,0 [521F50ED] [6EB1FEDD]
02 100,0 [4886BBE1] [A2B45AB6]
03 100,0 [77328EEE] [2E485C58]
04 86,4 [8027151E] [22C667AB]
05 100,0 [13A47170] [AC681E3E]
06 71,1 [67A713D6] [4BF9C462]
07 100,0 [C4D5E955] [75FC9F42]
08 100,0 [2331BCFE] [1AF522AF]
09 100,0 [3664F23A] [067EC38E]
10 100,0 [2DF3B541] [9D2FDE44]

Neil Young - Storytone (2014) {Deluxe Edition}


All thanks go to the original ripper(s) …

>>> Neil Young in my Blog <<<

DOWNLOAD: