Subcategories

Nekromantix - 3 Decades of Darkle (2019) [CD + Blu-ray 1080i]

Posted By: v3122
Nekromantix - 3 Decades of Darkle (2019) [CD + Blu-ray 1080i]

Nekromantix - 3 Decades of Darkle (2019)
EAC | Flac(Image) + Cue + Log & MP3 CBR 320Kbps
Cleopatra, CLO1480BR | ~ 575 or 184 Mb | Artwork(png) -> 123 Mb
Blu-ray: MPEG-2 24766 kbps, 1080i, 29.970 fps | DD 2.0, 48 kHz, 384 kbps
Rockabilly, Psychobilly

Danish-American Psychobilly heroes NEKROMANTIX celebrate their 30th Anniversary by storming thru a 19-song live set at the Observatory Theater in Santa Ana, California. Captured in all its glory by famed director Vicente Cordero (3TEETH, ROOM 37: The Mysterious Death of Johnny Thunders), the once-in-a-lifetime concert features band founder/bassist/vocalist Kim Nekroman, guitarist Franciso Mesa and recently-crowned drummer Rene De La Muerte ripping thru the band's glorious nine-album catalog, much to the delight of their enduring, adoring fans! The limited-edition Blu Ray package includes exclusive interviews with the band, rare photos and as an added bonus: a Standard DVD and Audio CD companion!

~ amazon
Nekromantix - 3 Decades of Darkle (2019):

Nekromantix - 3 Decades of Darkle (2019) [CD + Blu-ray 1080i]

Tracklist CD:

Struck by a Wrecking Ball (Gaarde/Sandorff/Sandorff)
Nightnurse (Gaarde/Kristensen/Petersen)
Alice In Psycholand (Gaarde/Sandorff)
Brain Error (Gaarde/Sandorff)
Demons Are A Girl's Best Friend (Gaarde/Kristensen/Petersen)
Driller Killer (Gaarde/Daggry/Kristensen)
Nekrotastic Extacy (Gaarde/Mesa)
See The Devil Smile (Gaarde/Sandorff)
Nekrofelia (Gaarde/Daggry/Kristensen)
Gargoyles Over Copenhagen (Gaarde/Sandorff/Sandorff)
Subcultural Girl (Gaarde/Sandorff/Sandorff)
Sea Of Red (Gaarde/Kristensen/Petersen)
Glow in the Dark (Gaarde/Mesa)
Brought Back To Life (Gaarde/Daggry/Kristensen)
Horny In A Hearse (Gaarde/Russel/Martinez)
Alive (Gaarde/Kristensen/Petersen)
Nice Day For A Resurrection (Gaarde/Sandorff/Sandorff)
Haunted Cathouse (Gaarde/Sandorff/Sandorff)
Who Killed The Cheerleader (Gaarde/Sandorff/Sandorff)

Kim Nekroman (Kim Gaarde): Coffinbass & Lead Vocals
Francisco Mesa: Guitar & Backing Vocals
Rene De La Muerte: Drums & Backing Vocals


Exact Audio Copy V1.3 from 2. September 2016

EAC extraction logfile from 13. November 2019, 8:33

Nekromantix / 3 Decades of Darkle

Used drive : HL-DT-STBD-RE WH16NS40 Adapter: 1 ID: 0

Read mode : Secure
Utilize accurate stream : Yes
Defeat audio cache : Yes
Make use of C2 pointers : No

Read offset correction : 6
Overread into Lead-In and Lead-Out : No
Fill up missing offset samples with silence : Yes
Delete leading and trailing silent blocks : No
Null samples used in CRC calculations : Yes
Used interface : Native Win32 interface for Win NT & 2000

Used output format : User Defined Encoder
Selected bitrate : 768 kBit/s
Quality : High
Add ID3 tag : No
Command line compressor : C:\Program Files (x86)\Exact Audio Copy\Wavpack\wavpack.exe
Additional command line options : -hm %source% %dest%


TOC of the extracted CD

Track | Start | Length | Start sector | End sector
––––––––––––––––––––––––––––-
1 | 0:00.00 | 5:06.67 | 0 | 23016
2 | 5:06.67 | 3:08.21 | 23017 | 37137
3 | 8:15.13 | 3:03.30 | 37138 | 50892
4 | 11:18.43 | 3:57.18 | 50893 | 68685
5 | 15:15.61 | 3:46.46 | 68686 | 85681
6 | 19:02.32 | 3:05.57 | 85682 | 99613
7 | 22:08.14 | 3:38.57 | 99614 | 116020
8 | 25:46.71 | 4:33.72 | 116021 | 136567
9 | 30:20.68 | 2:57.18 | 136568 | 149860
10 | 33:18.11 | 4:20.60 | 149861 | 169420
11 | 37:38.71 | 4:54.22 | 169421 | 191492
12 | 42:33.18 | 4:31.52 | 191493 | 211869
13 | 47:04.70 | 2:54.31 | 211870 | 224950
14 | 49:59.26 | 4:01.01 | 224951 | 243026
15 | 54:00.27 | 4:06.18 | 243027 | 261494
16 | 58:06.45 | 5:17.12 | 261495 | 285281
17 | 63:23.57 | 3:36.13 | 285282 | 301494
18 | 66:59.70 | 5:35.49 | 301495 | 326668
19 | 72:35.44 | 5:02.61 | 326669 | 349379


Range status and errors

Selected range

Filename E:\_NL+_\_CD\Nekromantix - 3 Decades of Darkle.wav

Peak level 100.0 %
Extraction speed 5.3 X
Range quality 100.0 %
Test CRC CCBFFF11
Copy CRC CCBFFF11
Copy OK

No errors occurred


AccurateRip summary

Track 1 not present in database
Track 2 not present in database
Track 3 not present in database
Track 4 not present in database
Track 5 not present in database
Track 6 not present in database
Track 7 not present in database
Track 8 not present in database
Track 9 not present in database
Track 10 not present in database
Track 11 not present in database
Track 12 not present in database
Track 13 not present in database
Track 14 not present in database
Track 15 not present in database
Track 16 not present in database
Track 17 not present in database
Track 18 not present in database
Track 19 not present in database

None of the tracks are present in the AccurateRip database

End of status report

–– CUETools DB Plugin V2.1.6

[CTDB TOCID: uGaDMDtknM4jtGlMB9Vltop6Y5Y-] found
Submit result: uGaDMDtknM4jtGlMB9Vltop6Y5Y- has been confirmed
Track | CTDB Status
1 | (2/2) Accurately ripped
2 | (2/2) Accurately ripped
3 | (2/2) Accurately ripped
4 | (2/2) Accurately ripped
5 | (2/2) Accurately ripped
6 | (2/2) Accurately ripped
7 | (2/2) Accurately ripped
8 | (2/2) Accurately ripped
9 | (2/2) Accurately ripped
10 | (2/2) Accurately ripped
11 | (2/2) Accurately ripped
12 | (2/2) Accurately ripped
13 | (2/2) Accurately ripped
14 | (2/2) Accurately ripped
15 | (2/2) Accurately ripped
16 | (2/2) Accurately ripped
17 | (2/2) Accurately ripped
18 | (1/2) Accurately ripped
19 | (2/2) Accurately ripped


==== Log checksum 6597444D7B4D97C12509C493FE68BDF55D7DE01318A166C9ED03D02BD4B9DACA ====


[CUETools log; Date: 16.11.2019 4:21:55; Version: 2.1.4]
[AccurateRip ID: 0032d9d3-02cc349a-ef123213] disk not present in database.

Track Peak [ CRC32 ] [W/O NULL] [ LOG ]
– 100,0 [CCBFFF11] [E4695A63] CRC32
01 100,0 [15AB498D] [6A31A8F9]
02 100,0 [F7425E75] [0803F65E]
03 100,0 [D05B7A0E] [B0CAC220]
04 100,0 [5639D0C5] [DE26C0B7]
05 100,0 [697052C2] [A65B9CDD]
06 100,0 [3D73BFF6] [792C0018]
07 100,0 [40C58784] [3793057A]
08 100,0 [C7E49235] [846F7D7C]
09 100,0 [4F1F73E3] [52151E6C]
10 100,0 [26499D3F] [80950A56]
11 100,0 [06D4A2B9] [0ADABAD2]
12 100,0 [39F93EA6] [01BDD6D9]
13 100,0 [0A9A4AA5] [263C812E]
14 100,0 [305B3D41] [C38FBAB7]
15 100,0 [11ED77F7] [3D89C0EA]
16 100,0 [D577C602] [52CB8095]
17 100,0 [59A9C2F1] [7AEA24AA]
18 100,0 [E76A33A8] [CE698892]
19 100,0 [64F52E33] [BE2043A7]


Nekromantix - 3 Decades of Darkle (2019) [CD + Blu-ray 1080i]

Tracklist BD:

Struck by a Wrecking Ball (Gaarde/Sandorff/Sandorff)
Nightnurse (Gaarde/Kristensen/Petersen)
Alice In Psycholand (Gaarde/Sandorff)
Brain Error (Gaarde/Sandorff)
Demons Are A Girl's Best Friend (Gaarde/Kristensen/Petersen)
Driller Killer (Gaarde/Daggry/Kristensen)
Nekrotastic Extacy (Gaarde/Mesa)
See The Devil Smile (Gaarde/Sandorff)
Nekrofelia (Gaarde/Daggry/Kristensen)
Gargoyles Over Copenhagen (Gaarde/Sandorff/Sandorff)
Subcultural Girl (Gaarde/Sandorff/Sandorff)
Sea Of Red (Gaarde/Kristensen/Petersen)
Glow in the Dark (Gaarde/Mesa)
Brought Back To Life (Gaarde/Daggry/Kristensen)
Horny In A Hearse (Gaarde/Russel/Martinez)
Alive (Gaarde/Kristensen/Petersen)
Nice Day For A Resurrection (Gaarde/Sandorff/Sandorff)
Haunted Cathouse (Gaarde/Sandorff/Sandorff)
Who Killed The Cheerleader (Gaarde/Sandorff/Sandorff)

Bonus Features:
Interview
Trailer
From Cleopatra Entertainment

Disc Title: Nekromantix 2019 - 3 Decades of Darkle - BD
Disc Size: 22 552 897 438 bytes
Protection: AACS
BD-Java: No
BDInfo: 0.7.3.3

Notes:

BDINFO HOME:
Cinema Squid
http://www.cinemasquid.com/blu-ray/tools/bdinfo

INCLUDES FORUMS REPORT FOR:
AVS Forum Blu-ray Audio and Video Specifications Thread
http://www.avsforum.com/avs-vb/showthread.php?t=1155731

WARNING: Report is incomplete because: Scan has not been run.

********************
PLAYLIST: 00003.MPLS
********************

<–- BEGIN FORUMS PASTE –->
                                                                                                                Total   Video                                             
Title                                                           Codec   Length  Movie Size      Disc Size       Bitrate Bitrate Main Audio Track                          Secondary Audio Track
-----                                                           ------  ------- --------------  --------------  ------- ------- ------------------                        ---------------------
00003.MPLS                                                      MPEG-2  1:17:30 0               22 552 897 438  0,00    0,00    DD AC3 2.0 384Kbps                        

DISC INFO:

Disc Title:     Nekromantix 2019 - 3 Decades of Darkle - BD
Disc Size:      22 552 897 438 bytes
Protection:     AACS
BD-Java:        No
BDInfo:         0.7.3.3

PLAYLIST REPORT:

Name:                   00003.MPLS
Length:                 1:17:30.912 (h:m:s.ms)
Size:                   0 bytes
Total Bitrate:          0,00 Mbps

VIDEO:

Codec                   Bitrate             Description     
-----                   -------             -----------     
MPEG-2 Video            0 kbps              1080i / 29,970 fps

AUDIO:

Codec                           Language        Bitrate         Description     
-----                           --------        -------         -----------     
Dolby Digital Audio             English         384 kbps        2.0 / 48 kHz / 384 kbps

FILES:

Name            Time In         Length          Size            Total Bitrate   
----            -------         ------          ----            -------------   
00003.M2TS      0:00:00.000     1:17:30.912     0               0               

CHAPTERS:

Number          Time In         Length          Avg Video Rate  Max 1-Sec Rate  Max 1-Sec Time  Max 5-Sec Rate  Max 5-Sec Time  Max 10Sec Rate  Max 10Sec Time  Avg Frame Size  Max Frame Size  Max Frame Time  
------          -------         ------          --------------  --------------  --------------  --------------  --------------  --------------  --------------  --------------  --------------  --------------  
1               0:00:00.000     0:05:06.706     0 kbps          0 kbps          00:00:00.000    0 kbps          00:00:00.000    0 kbps          00:00:00.000    0 bytes         0 bytes         00:00:00.000    
2               0:05:06.706     0:03:06.986     0 kbps          0 kbps          00:00:00.000    0 kbps          00:00:00.000    0 kbps          00:00:00.000    0 bytes         0 bytes         00:00:00.000    
3               0:08:13.693     0:03:25.405     0 kbps          0 kbps          00:00:00.000    0 kbps          00:00:00.000    0 kbps          00:00:00.000    0 bytes         0 bytes         00:00:00.000    
4               0:11:39.098     0:03:35.815     0 kbps          0 kbps          00:00:00.000    0 kbps          00:00:00.000    0 kbps          00:00:00.000    0 bytes         0 bytes         00:00:00.000    
5               0:15:14.914     0:03:46.626     0 kbps          0 kbps          00:00:00.000    0 kbps          00:00:00.000    0 kbps          00:00:00.000    0 bytes         0 bytes         00:00:00.000    
6               0:19:01.540     0:03:03.383     0 kbps          0 kbps          00:00:00.000    0 kbps          00:00:00.000    0 kbps          00:00:00.000    0 bytes         0 bytes         00:00:00.000    
7               0:22:04.923     0:03:39.419     0 kbps          0 kbps          00:00:00.000    0 kbps          00:00:00.000    0 kbps          00:00:00.000    0 bytes         0 bytes         00:00:00.000    
8               0:25:44.342     0:04:31.871     0 kbps          0 kbps          00:00:00.000    0 kbps          00:00:00.000    0 kbps          00:00:00.000    0 bytes         0 bytes         00:00:00.000    
9               0:30:16.214     0:02:52.172     0 kbps          0 kbps          00:00:00.000    0 kbps          00:00:00.000    0 kbps          00:00:00.000    0 bytes         0 bytes         00:00:00.000    
10              0:33:08.386     0:04:23.062     0 kbps          0 kbps          00:00:00.000    0 kbps          00:00:00.000    0 kbps          00:00:00.000    0 bytes         0 bytes         00:00:00.000    
11              0:37:31.449     0:04:53.893     0 kbps          0 kbps          00:00:00.000    0 kbps          00:00:00.000    0 kbps          00:00:00.000    0 bytes         0 bytes         00:00:00.000    
12              0:42:25.342     0:04:30.270     0 kbps          0 kbps          00:00:00.000    0 kbps          00:00:00.000    0 kbps          00:00:00.000    0 bytes         0 bytes         00:00:00.000    
13              0:46:55.612     0:02:54.574     0 kbps          0 kbps          00:00:00.000    0 kbps          00:00:00.000    0 kbps          00:00:00.000    0 bytes         0 bytes         00:00:00.000    
14              0:49:50.187     0:04:03.443     0 kbps          0 kbps          00:00:00.000    0 kbps          00:00:00.000    0 kbps          00:00:00.000    0 bytes         0 bytes         00:00:00.000    
15              0:53:53.630     0:04:06.246     0 kbps          0 kbps          00:00:00.000    0 kbps          00:00:00.000    0 kbps          00:00:00.000    0 bytes         0 bytes         00:00:00.000    
16              0:57:59.876     0:05:17.517     0 kbps          0 kbps          00:00:00.000    0 kbps          00:00:00.000    0 kbps          00:00:00.000    0 bytes         0 bytes         00:00:00.000    
17              1:03:17.393     0:03:34.213     0 kbps          0 kbps          00:00:00.000    0 kbps          00:00:00.000    0 kbps          00:00:00.000    0 bytes         0 bytes         00:00:00.000    
18              1:06:51.607     0:05:50.750     0 kbps          0 kbps          00:00:00.000    0 kbps          00:00:00.000    0 kbps          00:00:00.000    0 bytes         0 bytes         00:00:00.000    
19              1:12:42.358     0:04:48.554     0 kbps          0 kbps          00:00:00.000    0 kbps          00:00:00.000    0 kbps          00:00:00.000    0 bytes         0 bytes         00:00:00.000    

STREAM DIAGNOSTICS:

File            PID             Type            Codec           Language                Seconds                 Bitrate                 Bytes           Packets         
----            ---             ----            -----           --------                --------------          --------------          -------------   -----           
00003.M2TS      4113 (0x1011)   0x02            MPEG-2                                  0                       0                       0               0               
00003.M2TS      4352 (0x1100)   0x81            AC3             eng (English)           0                       0                       0               0               

<–– END FORUMS PASTE ––>

QUICK SUMMARY:

Disc Title: Nekromantix 2019 - 3 Decades of Darkle - BD
Disc Size: 22 552 897 438 bytes
Protection: AACS
BD-Java: No
Playlist: 00003.MPLS
Size: 0 bytes
Length: 1:17:30.912
Total Bitrate: 0,00 Mbps
Video: MPEG-2 Video / 0 kbps / 1080i / 29,970 fps
Audio: English / Dolby Digital Audio / 2.0 / 48 kHz / 384 kbps


********************
PLAYLIST: 00012.MPLS
********************

<–- BEGIN FORUMS PASTE –->
                                                                                                                Total   Video                                             
Title                                                           Codec   Length  Movie Size      Disc Size       Bitrate Bitrate Main Audio Track                          Secondary Audio Track
-----                                                           ------  ------- --------------  --------------  ------- ------- ------------------                        ---------------------
00012.MPLS                                                      MPEG-2  0:21:05 0               22 552 897 438  0,00    0,00    DD AC3 2.0 320Kbps                        

DISC INFO:

Disc Title:     Nekromantix 2019 - 3 Decades of Darkle - BD
Disc Size:      22 552 897 438 bytes
Protection:     AACS
BD-Java:        No
BDInfo:         0.7.3.3

PLAYLIST REPORT:

Name:                   00012.MPLS
Length:                 0:21:05.555 (h:m:s.ms)
Size:                   0 bytes
Total Bitrate:          0,00 Mbps

VIDEO:

Codec                   Bitrate             Description     
-----                   -------             -----------     
MPEG-2 Video            0 kbps              1080p / 23,976 fps

AUDIO:

Codec                           Language        Bitrate         Description     
-----                           --------        -------         -----------     
Dolby Digital Audio             English         320 kbps        2.0 / 48 kHz / 320 kbps

FILES:

Name            Time In         Length          Size            Total Bitrate   
----            -------         ------          ----            -------------   
00012.M2TS      0:00:00.000     0:21:05.555     0               0               

CHAPTERS:

Number          Time In         Length          Avg Video Rate  Max 1-Sec Rate  Max 1-Sec Time  Max 5-Sec Rate  Max 5-Sec Time  Max 10Sec Rate  Max 10Sec Time  Avg Frame Size  Max Frame Size  Max Frame Time  
------          -------         ------          --------------  --------------  --------------  --------------  --------------  --------------  --------------  --------------  --------------  --------------  
1               0:00:00.000     0:21:05.555     0 kbps          0 kbps          00:00:00.000    0 kbps          00:00:00.000    0 kbps          00:00:00.000    0 bytes         0 bytes         00:00:00.000    

STREAM DIAGNOSTICS:

File            PID             Type            Codec           Language                Seconds                 Bitrate                 Bytes           Packets         
----            ---             ----            -----           --------                --------------          --------------          -------------   -----           
00012.M2TS      4113 (0x1011)   0x02            MPEG-2                                  0                       0                       0               0               
00012.M2TS      4352 (0x1100)   0x81            AC3             eng (English)           0                       0                       0               0               

<–– END FORUMS PASTE ––>

QUICK SUMMARY:

Disc Title: Nekromantix 2019 - 3 Decades of Darkle - BD
Disc Size: 22 552 897 438 bytes
Protection: AACS
BD-Java: No
Playlist: 00012.MPLS
Size: 0 bytes
Length: 0:21:05.555
Total Bitrate: 0,00 Mbps
Video: MPEG-2 Video / 0 kbps / 1080p / 23,976 fps
Audio: English / Dolby Digital Audio / 2.0 / 48 kHz / 320 kbps


********************
PLAYLIST: 00009.MPLS
********************

<–- BEGIN FORUMS PASTE –->
                                                                                                                Total   Video                                             
Title                                                           Codec   Length  Movie Size      Disc Size       Bitrate Bitrate Main Audio Track                          Secondary Audio Track
-----                                                           ------  ------- --------------  --------------  ------- ------- ------------------                        ---------------------
00009.MPLS                                                      MPEG-2  0:04:02 0               22 552 897 438  0,00    0,00    DD AC3 2.0 256Kbps                        

DISC INFO:

Disc Title:     Nekromantix 2019 - 3 Decades of Darkle - BD
Disc Size:      22 552 897 438 bytes
Protection:     AACS
BD-Java:        No
BDInfo:         0.7.3.3

PLAYLIST REPORT:

Name:                   00009.MPLS
Length:                 0:04:02.909 (h:m:s.ms)
Size:                   0 bytes
Total Bitrate:          0,00 Mbps

VIDEO:

Codec                   Bitrate             Description     
-----                   -------             -----------     
MPEG-2 Video            0 kbps              1080p / 23,976 fps

AUDIO:

Codec                           Language        Bitrate         Description     
-----                           --------        -------         -----------     
Dolby Digital Audio             English         256 kbps        2.0 / 48 kHz / 256 kbps

FILES:

Name            Time In         Length          Size            Total Bitrate   
----            -------         ------          ----            -------------   
00009.M2TS      0:00:00.000     0:04:02.909     0               0               

CHAPTERS:

Number          Time In         Length          Avg Video Rate  Max 1-Sec Rate  Max 1-Sec Time  Max 5-Sec Rate  Max 5-Sec Time  Max 10Sec Rate  Max 10Sec Time  Avg Frame Size  Max Frame Size  Max Frame Time  
------          -------         ------          --------------  --------------  --------------  --------------  --------------  --------------  --------------  --------------  --------------  --------------  
1               0:00:00.000     0:04:02.909     0 kbps          0 kbps          00:00:00.000    0 kbps          00:00:00.000    0 kbps          00:00:00.000    0 bytes         0 bytes         00:00:00.000    

STREAM DIAGNOSTICS:

File            PID             Type            Codec           Language                Seconds                 Bitrate                 Bytes           Packets         
----            ---             ----            -----           --------                --------------          --------------          -------------   -----           
00009.M2TS      4113 (0x1011)   0x02            MPEG-2                                  0                       0                       0               0               
00009.M2TS      4352 (0x1100)   0x81            AC3             eng (English)           0                       0                       0               0               

<–– END FORUMS PASTE ––>

QUICK SUMMARY:

Disc Title: Nekromantix 2019 - 3 Decades of Darkle - BD
Disc Size: 22 552 897 438 bytes
Protection: AACS
BD-Java: No
Playlist: 00009.MPLS
Size: 0 bytes
Length: 0:04:02.909
Total Bitrate: 0,00 Mbps
Video: MPEG-2 Video / 0 kbps / 1080p / 23,976 fps
Audio: English / Dolby Digital Audio / 2.0 / 48 kHz / 256 kbps


********************
PLAYLIST: 00007.MPLS
********************

<–- BEGIN FORUMS PASTE –->
                                                                                                                Total   Video                                             
Title                                                           Codec   Length  Movie Size      Disc Size       Bitrate Bitrate Main Audio Track                          Secondary Audio Track
-----                                                           ------  ------- --------------  --------------  ------- ------- ------------------                        ---------------------
00007.MPLS                                                      MPEG-2  0:02:35 0               22 552 897 438  0,00    0,00    DD AC3 2.0 256Kbps                        

DISC INFO:

Disc Title:     Nekromantix 2019 - 3 Decades of Darkle - BD
Disc Size:      22 552 897 438 bytes
Protection:     AACS
BD-Java:        No
BDInfo:         0.7.3.3

PLAYLIST REPORT:

Name:                   00007.MPLS
Length:                 0:02:35.196 (h:m:s.ms)
Size:                   0 bytes
Total Bitrate:          0,00 Mbps

VIDEO:

Codec                   Bitrate             Description     
-----                   -------             -----------     
MPEG-2 Video            0 kbps              1080p / 23,976 fps

AUDIO:

Codec                           Language        Bitrate         Description     
-----                           --------        -------         -----------     
Dolby Digital Audio             English         256 kbps        2.0 / 48 kHz / 256 kbps

FILES:

Name            Time In         Length          Size            Total Bitrate   
----            -------         ------          ----            -------------   
00007.M2TS      0:00:00.000     0:02:35.196     0               0               

CHAPTERS:

Number          Time In         Length          Avg Video Rate  Max 1-Sec Rate  Max 1-Sec Time  Max 5-Sec Rate  Max 5-Sec Time  Max 10Sec Rate  Max 10Sec Time  Avg Frame Size  Max Frame Size  Max Frame Time  
------          -------         ------          --------------  --------------  --------------  --------------  --------------  --------------  --------------  --------------  --------------  --------------  
1               0:00:00.000     0:02:35.196     0 kbps          0 kbps          00:00:00.000    0 kbps          00:00:00.000    0 kbps          00:00:00.000    0 bytes         0 bytes         00:00:00.000    

STREAM DIAGNOSTICS:

File            PID             Type            Codec           Language                Seconds                 Bitrate                 Bytes           Packets         
----            ---             ----            -----           --------                --------------          --------------          -------------   -----           
00007.M2TS      4113 (0x1011)   0x02            MPEG-2                                  0                       0                       0               0               
00007.M2TS      4352 (0x1100)   0x81            AC3             eng (English)           0                       0                       0               0               

<–– END FORUMS PASTE ––>

QUICK SUMMARY:

Disc Title: Nekromantix 2019 - 3 Decades of Darkle - BD
Disc Size: 22 552 897 438 bytes
Protection: AACS
BD-Java: No
Playlist: 00007.MPLS
Size: 0 bytes
Length: 0:02:35.196
Total Bitrate: 0,00 Mbps
Video: MPEG-2 Video / 0 kbps / 1080p / 23,976 fps
Audio: English / Dolby Digital Audio / 2.0 / 48 kHz / 256 kbps


********************
PLAYLIST: 00005.MPLS
********************

<–- BEGIN FORUMS PASTE –->
                                                                                                                Total   Video                                             
Title                                                           Codec   Length  Movie Size      Disc Size       Bitrate Bitrate Main Audio Track                          Secondary Audio Track
-----                                                           ------  ------- --------------  --------------  ------- ------- ------------------                        ---------------------
00005.MPLS                                                      MPEG-2  0:02:21 0               22 552 897 438  0,00    0,00    DD AC3 2.0 256Kbps                        

DISC INFO:

Disc Title:     Nekromantix 2019 - 3 Decades of Darkle - BD
Disc Size:      22 552 897 438 bytes
Protection:     AACS
BD-Java:        No
BDInfo:         0.7.3.3

PLAYLIST REPORT:

Name:                   00005.MPLS
Length:                 0:02:21.875 (h:m:s.ms)
Size:                   0 bytes
Total Bitrate:          0,00 Mbps

VIDEO:

Codec                   Bitrate             Description     
-----                   -------             -----------     
MPEG-2 Video            0 kbps              1080p / 24 fps  

AUDIO:

Codec                           Language        Bitrate         Description     
-----                           --------        -------         -----------     
Dolby Digital Audio             English         256 kbps        2.0 / 48 kHz / 256 kbps

FILES:

Name            Time In         Length          Size            Total Bitrate   
----            -------         ------          ----            -------------   
00005.M2TS      0:00:00.000     0:02:21.875     0               0               

CHAPTERS:

Number          Time In         Length          Avg Video Rate  Max 1-Sec Rate  Max 1-Sec Time  Max 5-Sec Rate  Max 5-Sec Time  Max 10Sec Rate  Max 10Sec Time  Avg Frame Size  Max Frame Size  Max Frame Time  
------          -------         ------          --------------  --------------  --------------  --------------  --------------  --------------  --------------  --------------  --------------  --------------  
1               0:00:00.000     0:02:21.875     0 kbps          0 kbps          00:00:00.000    0 kbps          00:00:00.000    0 kbps          00:00:00.000    0 bytes         0 bytes         00:00:00.000    

STREAM DIAGNOSTICS:

File            PID             Type            Codec           Language                Seconds                 Bitrate                 Bytes           Packets         
----            ---             ----            -----           --------                --------------          --------------          -------------   -----           
00005.M2TS      4113 (0x1011)   0x02            MPEG-2                                  0                       0                       0               0               
00005.M2TS      4352 (0x1100)   0x81            AC3             eng (English)           0                       0                       0               0               

<–– END FORUMS PASTE ––>

QUICK SUMMARY:

Disc Title: Nekromantix 2019 - 3 Decades of Darkle - BD
Disc Size: 22 552 897 438 bytes
Protection: AACS
BD-Java: No
Playlist: 00005.MPLS
Size: 0 bytes
Length: 0:02:21.875
Total Bitrate: 0,00 Mbps
Video: MPEG-2 Video / 0 kbps / 1080p / 24 fps
Audio: English / Dolby Digital Audio / 2.0 / 48 kHz / 256 kbps


********************
PLAYLIST: 00006.MPLS
********************

<–- BEGIN FORUMS PASTE –->
                                                                                                                Total   Video                                             
Title                                                           Codec   Length  Movie Size      Disc Size       Bitrate Bitrate Main Audio Track                          Secondary Audio Track
-----                                                           ------  ------- --------------  --------------  ------- ------- ------------------                        ---------------------
00006.MPLS                                                      MPEG-2  0:02:20 0               22 552 897 438  0,00    0,00    DD AC3 2.0 256Kbps                        

DISC INFO:

Disc Title:     Nekromantix 2019 - 3 Decades of Darkle - BD
Disc Size:      22 552 897 438 bytes
Protection:     AACS
BD-Java:        No
BDInfo:         0.7.3.3

PLAYLIST REPORT:

Name:                   00006.MPLS
Length:                 0:02:20.348 (h:m:s.ms)
Size:                   0 bytes
Total Bitrate:          0,00 Mbps

VIDEO:

Codec                   Bitrate             Description     
-----                   -------             -----------     
MPEG-2 Video            0 kbps              1080p / 23,976 fps

AUDIO:

Codec                           Language        Bitrate         Description     
-----                           --------        -------         -----------     
Dolby Digital Audio             English         256 kbps        2.0 / 48 kHz / 256 kbps

FILES:

Name            Time In         Length          Size            Total Bitrate   
----            -------         ------          ----            -------------   
00006.M2TS      0:00:00.000     0:02:20.348     0               0               

CHAPTERS:

Number          Time In         Length          Avg Video Rate  Max 1-Sec Rate  Max 1-Sec Time  Max 5-Sec Rate  Max 5-Sec Time  Max 10Sec Rate  Max 10Sec Time  Avg Frame Size  Max Frame Size  Max Frame Time  
------          -------         ------          --------------  --------------  --------------  --------------  --------------  --------------  --------------  --------------  --------------  --------------  
1               0:00:00.000     0:02:20.348     0 kbps          0 kbps          00:00:00.000    0 kbps          00:00:00.000    0 kbps          00:00:00.000    0 bytes         0 bytes         00:00:00.000    

STREAM DIAGNOSTICS:

File            PID             Type            Codec           Language                Seconds                 Bitrate                 Bytes           Packets         
----            ---             ----            -----           --------                --------------          --------------          -------------   -----           
00006.M2TS      4113 (0x1011)   0x02            MPEG-2                                  0                       0                       0               0               
00006.M2TS      4352 (0x1100)   0x81            AC3             eng (English)           0                       0                       0               0               

<–– END FORUMS PASTE ––>

QUICK SUMMARY:

Disc Title: Nekromantix 2019 - 3 Decades of Darkle - BD
Disc Size: 22 552 897 438 bytes
Protection: AACS
BD-Java: No
Playlist: 00006.MPLS
Size: 0 bytes
Length: 0:02:20.348
Total Bitrate: 0,00 Mbps
Video: MPEG-2 Video / 0 kbps / 1080p / 23,976 fps
Audio: English / Dolby Digital Audio / 2.0 / 48 kHz / 256 kbps


********************
PLAYLIST: 00011.MPLS
********************

<–- BEGIN FORUMS PASTE –->
                                                                                                                Total   Video                                             
Title                                                           Codec   Length  Movie Size      Disc Size       Bitrate Bitrate Main Audio Track                          Secondary Audio Track
-----                                                           ------  ------- --------------  --------------  ------- ------- ------------------                        ---------------------
00011.MPLS                                                      MPEG-2  0:02:15 0               22 552 897 438  0,00    0,00    DD AC3 2.0 256Kbps                        

DISC INFO:

Disc Title:     Nekromantix 2019 - 3 Decades of Darkle - BD
Disc Size:      22 552 897 438 bytes
Protection:     AACS
BD-Java:        No
BDInfo:         0.7.3.3

PLAYLIST REPORT:

Name:                   00011.MPLS
Length:                 0:02:15.135 (h:m:s.ms)
Size:                   0 bytes
Total Bitrate:          0,00 Mbps

VIDEO:

Codec                   Bitrate             Description     
-----                   -------             -----------     
MPEG-2 Video            0 kbps              1080p / 23,976 fps

AUDIO:

Codec                           Language        Bitrate         Description     
-----                           --------        -------         -----------     
Dolby Digital Audio             English         256 kbps        2.0 / 48 kHz / 256 kbps

FILES:

Name            Time In         Length          Size            Total Bitrate   
----            -------         ------          ----            -------------   
00011.M2TS      0:00:00.000     0:02:15.135     0               0               

CHAPTERS:

Number          Time In         Length          Avg Video Rate  Max 1-Sec Rate  Max 1-Sec Time  Max 5-Sec Rate  Max 5-Sec Time  Max 10Sec Rate  Max 10Sec Time  Avg Frame Size  Max Frame Size  Max Frame Time  
------          -------         ------          --------------  --------------  --------------  --------------  --------------  --------------  --------------  --------------  --------------  --------------  
1               0:00:00.000     0:02:15.135     0 kbps          0 kbps          00:00:00.000    0 kbps          00:00:00.000    0 kbps          00:00:00.000    0 bytes         0 bytes         00:00:00.000    

STREAM DIAGNOSTICS:

File            PID             Type            Codec           Language                Seconds                 Bitrate                 Bytes           Packets         
----            ---             ----            -----           --------                --------------          --------------          -------------   -----           
00011.M2TS      4113 (0x1011)   0x02            MPEG-2                                  0                       0                       0               0               
00011.M2TS      4352 (0x1100)   0x81            AC3             eng (English)           0                       0                       0               0               

<–– END FORUMS PASTE ––>

QUICK SUMMARY:

Disc Title: Nekromantix 2019 - 3 Decades of Darkle - BD
Disc Size: 22 552 897 438 bytes
Protection: AACS
BD-Java: No
Playlist: 00011.MPLS
Size: 0 bytes
Length: 0:02:15.135
Total Bitrate: 0,00 Mbps
Video: MPEG-2 Video / 0 kbps / 1080p / 23,976 fps
Audio: English / Dolby Digital Audio / 2.0 / 48 kHz / 256 kbps


********************
PLAYLIST: 00008.MPLS
********************

<–- BEGIN FORUMS PASTE –->
                                                                                                                Total   Video                                             
Title                                                           Codec   Length  Movie Size      Disc Size       Bitrate Bitrate Main Audio Track                          Secondary Audio Track
-----                                                           ------  ------- --------------  --------------  ------- ------- ------------------                        ---------------------
00008.MPLS                                                      MPEG-2  0:01:47 0               22 552 897 438  0,00    0,00    DD AC3 2.0 256Kbps                        

DISC INFO:

Disc Title:     Nekromantix 2019 - 3 Decades of Darkle - BD
Disc Size:      22 552 897 438 bytes
Protection:     AACS
BD-Java:        No
BDInfo:         0.7.3.3

PLAYLIST REPORT:

Name:                   00008.MPLS
Length:                 0:01:47.148 (h:m:s.ms)
Size:                   0 bytes
Total Bitrate:          0,00 Mbps

VIDEO:

Codec                   Bitrate             Description     
-----                   -------             -----------     
MPEG-2 Video            0 kbps              1080p / 23,976 fps

AUDIO:

Codec                           Language        Bitrate         Description     
-----                           --------        -------         -----------     
Dolby Digital Audio             English         256 kbps        2.0 / 48 kHz / 256 kbps

FILES:

Name            Time In         Length          Size            Total Bitrate   
----            -------         ------          ----            -------------   
00008.M2TS      0:00:00.000     0:01:47.148     0               0               

CHAPTERS:

Number          Time In         Length          Avg Video Rate  Max 1-Sec Rate  Max 1-Sec Time  Max 5-Sec Rate  Max 5-Sec Time  Max 10Sec Rate  Max 10Sec Time  Avg Frame Size  Max Frame Size  Max Frame Time  
------          -------         ------          --------------  --------------  --------------  --------------  --------------  --------------  --------------  --------------  --------------  --------------  
1               0:00:00.000     0:01:47.148     0 kbps          0 kbps          00:00:00.000    0 kbps          00:00:00.000    0 kbps          00:00:00.000    0 bytes         0 bytes         00:00:00.000    

STREAM DIAGNOSTICS:

File            PID             Type            Codec           Language                Seconds                 Bitrate                 Bytes           Packets         
----            ---             ----            -----           --------                --------------          --------------          -------------   -----           
00008.M2TS      4113 (0x1011)   0x02            MPEG-2                                  0                       0                       0               0               
00008.M2TS      4352 (0x1100)   0x81            AC3             eng (English)           0                       0                       0               0               

<–– END FORUMS PASTE ––>

QUICK SUMMARY:

Disc Title: Nekromantix 2019 - 3 Decades of Darkle - BD
Disc Size: 22 552 897 438 bytes
Protection: AACS
BD-Java: No
Playlist: 00008.MPLS
Size: 0 bytes
Length: 0:01:47.148
Total Bitrate: 0,00 Mbps
Video: MPEG-2 Video / 0 kbps / 1080p / 23,976 fps
Audio: English / Dolby Digital Audio / 2.0 / 48 kHz / 256 kbps


********************
PLAYLIST: 00010.MPLS
********************

<–- BEGIN FORUMS PASTE –->
                                                                                                                Total   Video                                             
Title                                                           Codec   Length  Movie Size      Disc Size       Bitrate Bitrate Main Audio Track                          Secondary Audio Track
-----                                                           ------  ------- --------------  --------------  ------- ------- ------------------                        ---------------------
00010.MPLS                                                      MPEG-2  0:01:38 0               22 552 897 438  0,00    0,00    DD AC3 2.0 256Kbps                        

DISC INFO:

Disc Title:     Nekromantix 2019 - 3 Decades of Darkle - BD
Disc Size:      22 552 897 438 bytes
Protection:     AACS
BD-Java:        No
BDInfo:         0.7.3.3

PLAYLIST REPORT:

Name:                   00010.MPLS
Length:                 0:01:38.531 (h:m:s.ms)
Size:                   0 bytes
Total Bitrate:          0,00 Mbps

VIDEO:

Codec                   Bitrate             Description     
-----                   -------             -----------     
MPEG-2 Video            0 kbps              1080i / 29,970 fps

AUDIO:

Codec                           Language        Bitrate         Description     
-----                           --------        -------         -----------     
Dolby Digital Audio             English         256 kbps        2.0 / 48 kHz / 256 kbps

FILES:

Name            Time In         Length          Size            Total Bitrate   
----            -------         ------          ----            -------------   
00010.M2TS      0:00:00.000     0:01:38.531     0               0               

CHAPTERS:

Number          Time In         Length          Avg Video Rate  Max 1-Sec Rate  Max 1-Sec Time  Max 5-Sec Rate  Max 5-Sec Time  Max 10Sec Rate  Max 10Sec Time  Avg Frame Size  Max Frame Size  Max Frame Time  
------          -------         ------          --------------  --------------  --------------  --------------  --------------  --------------  --------------  --------------  --------------  --------------  
1               0:00:00.000     0:01:38.531     0 kbps          0 kbps          00:00:00.000    0 kbps          00:00:00.000    0 kbps          00:00:00.000    0 bytes         0 bytes         00:00:00.000    

STREAM DIAGNOSTICS:

File            PID             Type            Codec           Language                Seconds                 Bitrate                 Bytes           Packets         
----            ---             ----            -----           --------                --------------          --------------          -------------   -----           
00010.M2TS      4113 (0x1011)   0x02            MPEG-2                                  0                       0                       0               0               
00010.M2TS      4352 (0x1100)   0x81            AC3             eng (English)           0                       0                       0               0               

<–– END FORUMS PASTE ––>

QUICK SUMMARY:

Disc Title: Nekromantix 2019 - 3 Decades of Darkle - BD
Disc Size: 22 552 897 438 bytes
Protection: AACS
BD-Java: No
Playlist: 00010.MPLS
Size: 0 bytes
Length: 0:01:38.531
Total Bitrate: 0,00 Mbps
Video: MPEG-2 Video / 0 kbps / 1080i / 29,970 fps
Audio: English / Dolby Digital Audio / 2.0 / 48 kHz / 256 kbps


********************
PLAYLIST: 00000.MPLS
********************

<–- BEGIN FORUMS PASTE –->
                                                                                                                Total   Video                                             
Title                           			  		  		  	 			   			  	  		 	    	 			   		   	  		  	   			  	  	 			   		  	   		   	  		   				                                 Codec   Length  Movie Size      Disc Size       Bitrate Bitrate Main Audio Track                          Secondary Audio Track
-----                                                           ------  ------- --------------  --------------  ------- ------- ------------------                        ---------------------
00000.MPLS                                                      AVC     0:00:44 0               22 552 897 438  0,00    0,00    DD AC3 2.0 320Kbps                        

DISC INFO:

Disc Title:     Nekromantix 2019 - 3 Decades of Darkle - BD
Disc Size:      22 552 897 438 bytes
Protection:     AACS
BD-Java:        No
BDInfo:         0.7.3.3

PLAYLIST REPORT:

Name:                   00000.MPLS
Length:                 0:00:44.836 (h:m:s.ms)
Size:                   0 bytes
Total Bitrate:          0,00 Mbps

VIDEO:

Codec                   Bitrate             Description     
-----                   -------             -----------     
MPEG-4 AVC Video        0 kbps              1080p / 23,976 fps / 16:9 / High Profile 4.1

AUDIO:

Codec                           Language        Bitrate         Description     
-----                           --------        -------         -----------     
Dolby Digital Audio             English         320 kbps        2.0 / 48 kHz / 320 kbps

SUBTITLES:

Codec                           Language        Bitrate         Description     
-----                           --------        -------         -----------     
Interactive Graphics            English         0,000 kbps                      

FILES:

Name            Time In         Length          Size            Total Bitrate   
----            -------         ------          ----            -------------   
00000.M2TS      0:00:00.000     0:00:44.836     0               0               

CHAPTERS:

Number          Time In         Length          Avg Video Rate  Max 1-Sec Rate  Max 1-Sec Time  Max 5-Sec Rate  Max 5-Sec Time  Max 10Sec Rate  Max 10Sec Time  Avg Frame Size  Max Frame Size  Max Frame Time  
------          -------         ------          --------------  --------------  --------------  --------------  --------------  --------------  --------------  --------------  --------------  --------------  
1               0:00:00.000     0:00:44.836     0 kbps          0 kbps          00:00:00.000    0 kbps          00:00:00.000    0 kbps          00:00:00.000    0 bytes         0 bytes         00:00:00.000    

STREAM DIAGNOSTICS:

File            PID             Type            Codec           Language                Seconds                 Bitrate                 Bytes           Packets         
----            ---             ----            -----           --------                --------------          --------------          -------------   -----           
00000.M2TS      4113 (0x1011)   0x1B            AVC                                     0                       0                       0               0               
00000.M2TS      4352 (0x1100)   0x81            AC3             eng (English)           0                       0                       0               0               
00000.M2TS      5120 (0x1400)   0x91            IGS             eng (English)           0                       0                       0               0               

<–– END FORUMS PASTE ––>

QUICK SUMMARY:

Disc Title: Nekromantix 2019 - 3 Decades of Darkle - BD
Disc Size: 22 552 897 438 bytes
Protection: AACS
BD-Java: No
Playlist: 00000.MPLS
Size: 0 bytes
Length: 0:00:44.836
Total Bitrate: 0,00 Mbps
Video: MPEG-4 AVC Video / 0 kbps / 1080p / 23,976 fps / 16:9 / High Profile 4.1
Audio: English / Dolby Digital Audio / 2.0 / 48 kHz / 320 kbps
Subtitle: English / 0,000 kbps


********************
PLAYLIST: 00001.MPLS
********************

<–- BEGIN FORUMS PASTE –->
                                                                                                                Total   Video                                             
Title                                                           Codec   Length  Movie Size      Disc Size       Bitrate Bitrate Main Audio Track                          Secondary Audio Track
-----                                                           ------  ------- --------------  --------------  ------- ------- ------------------                        ---------------------
00001.MPLS                                                      AVC     0:00:40 0               22 552 897 438  0,00    0,00    DD AC3 2.0 320Kbps                        

DISC INFO:

Disc Title:     Nekromantix 2019 - 3 Decades of Darkle - BD
Disc Size:      22 552 897 438 bytes
Protection:     AACS
BD-Java:        No
BDInfo:         0.7.3.3

PLAYLIST REPORT:

Name:                   00001.MPLS
Length:                 0:00:40.999 (h:m:s.ms)
Size:                   0 bytes
Total Bitrate:          0,00 Mbps

VIDEO:

Codec                   Bitrate             Description     
-----                   -------             -----------     
MPEG-4 AVC Video        0 kbps              1080p / 23,976 fps / 16:9 / High Profile 4.1

AUDIO:

Codec                           Language        Bitrate         Description     
-----                           --------        -------         -----------     
Dolby Digital Audio             English         320 kbps        2.0 / 48 kHz / 320 kbps

SUBTITLES:

Codec                           Language        Bitrate         Description     
-----                           --------        -------         -----------     
Interactive Graphics            English         0,000 kbps                      

FILES:

Name            Time In         Length          Size            Total Bitrate   
----            -------         ------          ----            -------------   
00001.M2TS      0:00:00.000     0:00:40.999     0               0               

CHAPTERS:

Number          Time In         Length          Avg Video Rate  Max 1-Sec Rate  Max 1-Sec Time  Max 5-Sec Rate  Max 5-Sec Time  Max 10Sec Rate  Max 10Sec Time  Avg Frame Size  Max Frame Size  Max Frame Time  
------          -------         ------          --------------  --------------  --------------  --------------  --------------  --------------  --------------  --------------  --------------  --------------  
1               0:00:00.000     0:00:40.999     0 kbps          0 kbps          00:00:00.000    0 kbps          00:00:00.000    0 kbps          00:00:00.000    0 bytes         0 bytes         00:00:00.000    

STREAM DIAGNOSTICS:

File            PID             Type            Codec           Language                Seconds                 Bitrate                 Bytes           Packets         
----            ---             ----            -----           --------                --------------          --------------          -------------   -----           
00001.M2TS      4113 (0x1011)   0x1B            AVC                                     0                       0                       0               0               
00001.M2TS      4352 (0x1100)   0x81            AC3             eng (English)           0                       0                       0               0               
00001.M2TS      5120 (0x1400)   0x91            IGS             eng (English)           0                       0                       0               0               

<–– END FORUMS PASTE ––>

QUICK SUMMARY:

Disc Title: Nekromantix 2019 - 3 Decades of Darkle - BD
Disc Size: 22 552 897 438 bytes
Protection: AACS
BD-Java: No
Playlist: 00001.MPLS
Size: 0 bytes
Length: 0:00:40.999
Total Bitrate: 0,00 Mbps
Video: MPEG-4 AVC Video / 0 kbps / 1080p / 23,976 fps / 16:9 / High Profile 4.1
Audio: English / Dolby Digital Audio / 2.0 / 48 kHz / 320 kbps
Subtitle: English / 0,000 kbps


********************
PLAYLIST: 00013.MPLS
********************

<–- BEGIN FORUMS PASTE –->
                                                                                                                Total   Video                                             
Title                                                           Codec   Length  Movie Size      Disc Size       Bitrate Bitrate Main Audio Track                          Secondary Audio Track
-----                                                           ------  ------- --------------  --------------  ------- ------- ------------------                        ---------------------
00013.MPLS                                                      AVC     0:00:37 0               22 552 897 438  0,00    0,00    DD AC3 2.0 256Kbps                        

DISC INFO:

Disc Title:     Nekromantix 2019 - 3 Decades of Darkle - BD
Disc Size:      22 552 897 438 bytes
Protection:     AACS
BD-Java:        No
BDInfo:         0.7.3.3

PLAYLIST REPORT:

Name:                   00013.MPLS
Length:                 0:00:37.871 (h:m:s.ms)
Size:                   0 bytes
Total Bitrate:          0,00 Mbps

VIDEO:

Codec                   Bitrate             Description     
-----                   -------             -----------     
MPEG-4 AVC Video        0 kbps              1080p / 23,976 fps / 16:9 / High Profile 4.1

AUDIO:

Codec                           Language        Bitrate         Description     
-----                           --------        -------         -----------     
Dolby Digital Audio             English         256 kbps        2.0 / 48 kHz / 256 kbps

SUBTITLES:

Codec                           Language        Bitrate         Description     
-----                           --------        -------         -----------     
Interactive Graphics            English         0,000 kbps                      

FILES:

Name            Time In         Length          Size            Total Bitrate   
----            -------         ------          ----            -------------   
00013.M2TS      0:00:00.000     0:00:37.871     0               0               

CHAPTERS:

Number          Time In         Length          Avg Video Rate  Max 1-Sec Rate  Max 1-Sec Time  Max 5-Sec Rate  Max 5-Sec Time  Max 10Sec Rate  Max 10Sec Time  Avg Frame Size  Max Frame Size  Max Frame Time  
------          -------         ------          --------------  --------------  --------------  --------------  --------------  --------------  --------------  --------------  --------------  --------------  
1               0:00:00.000     0:00:37.871     0 kbps          0 kbps          00:00:00.000    0 kbps          00:00:00.000    0 kbps          00:00:00.000    0 bytes         0 bytes         00:00:00.000    

STREAM DIAGNOSTICS:

File            PID             Type            Codec           Language                Seconds                 Bitrate                 Bytes           Packets         
----            ---             ----            -----           --------                --------------          --------------          -------------   -----           
00013.M2TS      4113 (0x1011)   0x1B            AVC                                     0                       0                       0               0               
00013.M2TS      4352 (0x1100)   0x81            AC3             eng (English)           0                       0                       0               0               
00013.M2TS      5120 (0x1400)   0x91            IGS             eng (English)           0                       0                       0               0               

<–– END FORUMS PASTE ––>

QUICK SUMMARY:

Disc Title: Nekromantix 2019 - 3 Decades of Darkle - BD
Disc Size: 22 552 897 438 bytes
Protection: AACS
BD-Java: No
Playlist: 00013.MPLS
Size: 0 bytes
Length: 0:00:37.871
Total Bitrate: 0,00 Mbps
Video: MPEG-4 AVC Video / 0 kbps / 1080p / 23,976 fps / 16:9 / High Profile 4.1
Audio: English / Dolby Digital Audio / 2.0 / 48 kHz / 256 kbps
Subtitle: English / 0,000 kbps


********************
PLAYLIST: 00002.MPLS
********************

<–- BEGIN FORUMS PASTE –->
                                                                                                                Total   Video                                             
Title                                                           Codec   Length  Movie Size      Disc Size       Bitrate Bitrate Main Audio Track                          Secondary Audio Track
-----                                                           ------  ------- --------------  --------------  ------- ------- ------------------                        ---------------------
00002.MPLS                                                      AVC     0:00:26 0               22 552 897 438  0,00    0,00    DD AC3 2.0 320Kbps                        

DISC INFO:

Disc Title:     Nekromantix 2019 - 3 Decades of Darkle - BD
Disc Size:      22 552 897 438 bytes
Protection:     AACS
BD-Java:        No
BDInfo:         0.7.3.3

PLAYLIST REPORT:

Name:                   00002.MPLS
Length:                 0:00:26.943 (h:m:s.ms)
Size:                   0 bytes
Total Bitrate:          0,00 Mbps

VIDEO:

Codec                   Bitrate             Description     
-----                   -------             -----------     
MPEG-4 AVC Video        0 kbps              1080p / 23,976 fps / 16:9 / High Profile 4.1

AUDIO:

Codec                           Language        Bitrate         Description     
-----                           --------        -------         -----------     
Dolby Digital Audio             English         320 kbps        2.0 / 48 kHz / 320 kbps

SUBTITLES:

Codec                           Language        Bitrate         Description     
-----                           --------        -------         -----------     
Interactive Graphics            English         0,000 kbps                      

FILES:

Name            Time In         Length          Size            Total Bitrate   
----            -------         ------          ----            -------------   
00002.M2TS      0:00:00.000     0:00:26.943     0               0               

CHAPTERS:

Number          Time In         Length          Avg Video Rate  Max 1-Sec Rate  Max 1-Sec Time  Max 5-Sec Rate  Max 5-Sec Time  Max 10Sec Rate  Max 10Sec Time  Avg Frame Size  Max Frame Size  Max Frame Time  
------          -------         ------          --------------  --------------  --------------  --------------  --------------  --------------  --------------  --------------  --------------  --------------  
1               0:00:00.000     0:00:26.943     0 kbps          0 kbps          00:00:00.000    0 kbps          00:00:00.000    0 kbps          00:00:00.000    0 bytes         0 bytes         00:00:00.000    

STREAM DIAGNOSTICS:

File            PID             Type            Codec           Language                Seconds                 Bitrate                 Bytes           Packets         
----            ---             ----            -----           --------                --------------          --------------          -------------   -----           
00002.M2TS      4113 (0x1011)   0x1B            AVC                                     0                       0                       0               0               
00002.M2TS      4352 (0x1100)   0x81            AC3             eng (English)           0                       0                       0               0               
00002.M2TS      5120 (0x1400)   0x91            IGS             eng (English)           0                       0                       0               0               

<–– END FORUMS PASTE ––>

QUICK SUMMARY:

Disc Title: Nekromantix 2019 - 3 Decades of Darkle - BD
Disc Size: 22 552 897 438 bytes
Protection: AACS
BD-Java: No
Playlist: 00002.MPLS
Size: 0 bytes
Length: 0:00:26.943
Total Bitrate: 0,00 Mbps
Video: MPEG-4 AVC Video / 0 kbps / 1080p / 23,976 fps / 16:9 / High Profile 4.1
Audio: English / Dolby Digital Audio / 2.0 / 48 kHz / 320 kbps
Subtitle: English / 0,000 kbps



Nekromantix - 3 Decades of Darkle (2019) [CD + Blu-ray 1080i]

Nekromantix - 3 Decades of Darkle (2019) [CD + Blu-ray 1080i]

Nekromantix - 3 Decades of Darkle (2019) [CD + Blu-ray 1080i]

All thanks go to tatuk

Download Nekromantix - 3 Decades of Darkle (2019):