Subcategories

Nellie McKay - Get Away From Me (2004) [Original U.S. 2 Disc Version]

Posted By: flac jacket
Nellie McKay - Get Away From Me (2004) [Original U.S. 2 Disc Version]

Nellie McKay - Get Away From Me (2004) [Original U.S. 2 Disc Version]
EAC Secure Rip | FLACx2 (Image + Cue + Log) - 389 MB | Complete Scans (Jpeg 600 dpi) - 202 MB | MP3 (CBR320 Kbps) - 153 MB
Rock, Pop, Jazz | Sony Music Entertainment | C2K 90664 | 61:11 minutes | 5% WinRar Recovery | Hosted on: Uploaded & FilePost

Get Away From Me is the two-disc debut album from singer-songwriter Nellie McKay. It was released on February 10, 2004 by Columbia Records. McKay insisted on the two-disc set even though all content could fit on a single-disc.

A striking mix of radical and traditional, raw emotion and literate expression, hip-hop and vocal pop, Nellie McKay's Get Away from Me is the kind of feverishly inventive, sprawling album that only comes from young artists. Though it could've easily fit onto a single CD, it's a double-disc set designed to reclaim the feeling of flipping over a record; the back cover proclaims that McKay "is a proud member of PETA." While McKay's age (21 at the time of the album's release) and sound make comparisons to Fiona Apple, Nelly Furtado, and Norah Jones easy – she even named her album Get Away from Me as a preemptive strike against it being lumped in with Jones' Come Away with Me – McKay is a more esoteric and hyperactively creative artist. She seems determined to prove how smart and wide-ranging she is on the album, and for the most part, she carries it off. Juxtaposing songs like the swoony torch song to New York, "Manhattan Avenue," and "Sari," a rap song about everything that gets on McKay's nerves (including McKay herself), certainly demonstrates the extremes of her music. However, these rapid-fire stylistic shifts and the sheer amount of information that McKay puts in her songs sometimes makes the album more dizzying than dazzling. But Get Away from Me succeeds, sometimes in spite of itself, as a musical document of all of the contradictions of a 19-year-old young woman with more than half a brain in her head. Some of McKay's songs deal with fairly typical themes like coming to terms with womanhood, sexuality, and relationships, but McKay attempts to cover as much lyrical ground as she does musical territory, with mixed results. On "Work Song," it sounds like McKay has heard how soul-sucking a nine-to-five can be, but it doesn't have the ring of truth that some of her other songs do. "Ding Dong," on the other hand, deals with depression in a surprisingly sprightly way, and the similarly witty "Clonie" turns human cloning into a story about self-obsession. The traditional feel of McKay's songwriting style and voice and her subversive lyrics often give Get Away from Me the feel of being the soundtrack to some long-lost feminist musical. "It's a Pose" and "Won't U Please B Nice" (sample lyric: "If we part I'll eat your heart") apply McKay's sharp wit to men and love; "I Wanna Get Married" casts a languidly scornful eye on traditional notions of marriage. These songs, along with the equally charming album opener, "David," and closer, "Really," have a lighter touch that avoids the clever-cleverness that drags down some of McKay's work, but is still miles away from the mild-mannered coffee-table jazz she loathes. Get Away from Me is an exciting debut that could become a cult favorite among pissed-off girl-women of McKay's age; if she can focus her creative energy without sacrificing any of the bite of her debut, she'll become an even more impressive talent. Reviewed by Heather Phares allmusic.com

Exact Audio Copy V1.0 beta 2 from 29. April 2011

EAC extraction logfile from 8. January 2013, 15:10

Nellie McKay / Get Away From Me

Used drive : HL-DT-STDVDRAM GH60N Adapter: 0 ID: 1

Read mode : Secure
Utilize accurate stream : Yes
Defeat audio cache : Yes
Make use of C2 pointers : No

Read offset correction : 667
Overread into Lead-In and Lead-Out : No
Fill up missing offset samples with silence : Yes
Delete leading and trailing silent blocks : No
Null samples used in CRC calculations : Yes
Used interface : Native Win32 interface for Win NT & 2000

Used output format : User Defined Encoder
Selected bitrate : 1024 kBit/s
Quality : High
Add ID3 tag : No
Command line compressor : C:\Program Files (x86)\Exact Audio Copy\Flac\flac.exe
Additional command line options : -V -5 -T "artist=%albumartist%" -T "title=%title%" -T "album=%albumtitle%" -T "date=%year%" -T "genre=%genre%" -T "tracknumber=%tracknr%" %source%


TOC of the extracted CD

Track | Start | Length | Start sector | End sector
––––––––––––––––––––––––––––-
1 | 0:00.00 | 2:47.02 | 0 | 12526
2 | 2:47.02 | 3:38.63 | 12527 | 28939
3 | 6:25.65 | 3:27.00 | 28940 | 44464
4 | 9:52.65 | 3:11.05 | 44465 | 58794
5 | 13:03.70 | 3:28.47 | 58795 | 74441
6 | 16:32.42 | 3:04.00 | 74442 | 88241
7 | 19:36.42 | 4:15.03 | 88242 | 107369
8 | 23:51.45 | 4:01.42 | 107370 | 125486
9 | 27:53.12 | 3:58.15 | 125487 | 143351


Range status and errors

Selected range

Filename C:\EAC\Nellie McKay - (2004) Get Away From Me\CD1\Nellie McKay - Get Away From Me.wav

Peak level 99.9 %
Extraction speed 1.7 X
Range quality 99.9 %
Test CRC E019AF7E
Copy CRC E019AF7E
Copy OK

No errors occurred


AccurateRip summary

Track 1 accurately ripped (confidence 2) [4C0845E9] (AR v2)
Track 2 accurately ripped (confidence 2) [88D34908] (AR v2)
Track 3 accurately ripped (confidence 2) [A8F75916] (AR v2)
Track 4 accurately ripped (confidence 2) [1DFA8F21] (AR v2)
Track 5 accurately ripped (confidence 2) [741110C9] (AR v2)
Track 6 accurately ripped (confidence 2) [F64B7213] (AR v2)
Track 7 accurately ripped (confidence 2) [D54B7FAD] (AR v2)
Track 8 accurately ripped (confidence 2) [8A25AB4D] (AR v2)
Track 9 accurately ripped (confidence 2) [92387376] (AR v2)

All tracks accurately ripped

End of status report

==== Log checksum 18CAF2F887C1659D186C6B25A4BDDCBF40D661555FF821382CA1D662F46E6BDD ====


Exact Audio Copy V1.0 beta 2 from 29. April 2011

EAC extraction logfile from 8. January 2013, 16:56

Nellie McKay / Get Away From Me (CD2)

Used drive : HL-DT-STDVDRAM GH60N Adapter: 0 ID: 1

Read mode : Secure
Utilize accurate stream : Yes
Defeat audio cache : Yes
Make use of C2 pointers : No

Read offset correction : 667
Overread into Lead-In and Lead-Out : No
Fill up missing offset samples with silence : Yes
Delete leading and trailing silent blocks : No
Null samples used in CRC calculations : Yes
Used interface : Native Win32 interface for Win NT & 2000

Used output format : User Defined Encoder
Selected bitrate : 1024 kBit/s
Quality : High
Add ID3 tag : No
Command line compressor : C:\Program Files (x86)\Exact Audio Copy\Flac\flac.exe
Additional command line options : -V -5 -T "artist=%albumartist%" -T "title=%title%" -T "album=%albumtitle%" -T "date=%year%" -T "genre=%genre%" -T "tracknumber=%tracknr%" %source%


TOC of the extracted CD

Track | Start | Length | Start sector | End sector
––––––––––––––––––––––––––––-
1 | 0:00.00 | 3:30.45 | 0 | 15794
2 | 3:30.45 | 4:02.62 | 15795 | 34006
3 | 7:33.32 | 2:09.43 | 34007 | 43724
4 | 9:43.00 | 2:53.17 | 43725 | 56716
5 | 12:36.17 | 2:33.48 | 56717 | 68239
6 | 15:09.65 | 4:08.37 | 68240 | 86876
7 | 19:18.27 | 1:56.10 | 86877 | 95586
8 | 21:14.37 | 4:07.43 | 95587 | 114154
9 | 25:22.05 | 3:56.30 | 114155 | 131884


Range status and errors

Selected range

Filename C:\EAC\Nellie McKay - (2004) Get Away From Me\CD2\Nellie McKay - Get Away From Me (CD2).wav

Peak level 99.8 %
Extraction speed 1.7 X
Range quality 100.0 %
Test CRC C14587CA
Copy CRC C14587CA
Copy OK

No errors occurred


AccurateRip summary

Track 1 accurately ripped (confidence 2) [A6EAF281] (AR v2)
Track 2 accurately ripped (confidence 2) [448FC344] (AR v2)
Track 3 accurately ripped (confidence 2) [334AFF0F] (AR v2)
Track 4 accurately ripped (confidence 2) [3635D456] (AR v2)
Track 5 accurately ripped (confidence 2) [A084F936] (AR v2)
Track 6 accurately ripped (confidence 2) [FF0F87E8] (AR v2)
Track 7 accurately ripped (confidence 2) [618196AB] (AR v2)
Track 8 accurately ripped (confidence 2) [8C5A549E] (AR v2)
Track 9 accurately ripped (confidence 2) [7124DC5A] (AR v2)

All tracks accurately ripped

End of status report

==== Log checksum 773BB0895B3753F1C7EA6DB1DD19E8320BB05330C49FCFA0E51BF4F410A9F990 ====


Track Listing:

01. David
02. Manhattan Avenue
03. Sari
04. Ding Dong
05. Baby Watch Your Back
06. The Dog Song
07. Waiter
08. I Wanna Get Married
09. Change The World

01. It's A Pose
02. Toto Dies
03. Won't U Please B Nice
04. Inner Peace
05. Suitcase Song
06. Work Song
07. Clonie
08. Respectable
09. Really


Album Released: February 10 ,2004


foobar2000 1.1.7 / Dynamic Range Meter 1.1.0
log date: 2013-02-13 00:39:47

––––––––––––––––––––––––––––––––––––––––
Analyzed: Nellie McKay / Get Away From Me
––––––––––––––––––––––––––––––––––––––––

DR Peak RMS Duration Track
––––––––––––––––––––––––––––––––––––––––
DR10 -0.01 dB -11.59 dB 2:47 01-David
DR13 -0.47 dB -16.43 dB 3:39 02-Manhattan Avenue
DR10 -0.01 dB -11.06 dB 3:27 03-Sari
DR10 -0.01 dB -13.04 dB 3:11 04-Ding Dong
DR9 -0.01 dB -11.13 dB 3:29 05-Baby Watch Your Back
DR10 -0.01 dB -11.49 dB 3:04 06-The Dog Song
DR8 -0.01 dB -10.52 dB 4:15 07-Waiter
DR12 -0.01 dB -14.85 dB 4:02 08-I Wanna Get Married
DR9 -0.01 dB -12.32 dB 3:58 09-Change The World
––––––––––––––––––––––––––––––––––––––––

Number of tracks: 9
Official DR value: DR10

Samplerate: 44100 Hz
Channels: 2
Bits per sample: 16
Bitrate: 840 kbps
Codec: FLAC
================================================================================



foobar2000 1.1.7 / Dynamic Range Meter 1.1.0
log date: 2013-02-13 00:40:32

––––––––––––––––––––––––––––––––––––––––
Analyzed: Nellie McKay / Get Away From Me (CD2)
––––––––––––––––––––––––––––––––––––––––

DR Peak RMS Duration Track
––––––––––––––––––––––––––––––––––––––––
DR9 -0.01 dB -10.88 dB 3:31 01-It's A Pose
DR9 -0.01 dB -11.40 dB 4:03 02-Toto Dies
DR12 -0.01 dB -13.70 dB 2:10 03-Won't U Please B Nice
DR9 -0.01 dB -10.36 dB 2:53 04-Inner Peace
DR11 -0.01 dB -13.32 dB 2:34 05-Suitcase Song
DR8 -0.01 dB -10.92 dB 4:08 06-Work Song
DR10 -0.01 dB -11.80 dB 1:56 07-Clonie
DR8 -0.01 dB -10.21 dB 4:08 08-Respectable
DR13 -0.01 dB -15.62 dB 3:56 09-Really
––––––––––––––––––––––––––––––––––––––––

Number of tracks: 9
Official DR value: DR10

Samplerate: 44100 Hz
Channels: 2
Bits per sample: 16
Bitrate: 856 kbps
Codec: FLAC
================================================================================

Nellie McKay - Get Away From Me (2004) [Original U.S. 2 Disc Version]

Ripped and Scanned from the Stadium Studios Library January 2013
5% WinRar Recovery