Tags
Language
Tags
June 2024
Su Mo Tu We Th Fr Sa
26 27 28 29 30 31 1
2 3 4 5 6 7 8
9 10 11 12 13 14 15
16 17 18 19 20 21 22
23 24 25 26 27 28 29
30 1 2 3 4 5 6

Neuschwanstein - 2 Albums (1978-2008)

Posted By: gribovar
Neuschwanstein - 2 Albums (1978-2008)

Neuschwanstein - 2 Albums (1978-2008)
EAC Rip | WavPack, FLAC (image+.cue+log) - 590 MB | MP3 CBR 320 kbps (LAME 3.93) - 208 MB | Covers - 106 MB
Genre: Progressive Rock | RAR 3% Rec. | Label: Musea, Rock Symphony

"Battlement" (1978) is a legendary record featuring unfamous German musicians, working and playing with a sense of perfection in the wake of Genesis. The vocals, sung by Frenchman Frédéric Joos turn out to be (Very) close to Peter Gabriel's. Neuschwanstein creates music with the same complexity, intensity and power as their famous elders used to do. The songs are totally original and innovative though, with some King Crimson-esque skid. A pure jewel! The Musea reissue has been fully remixed so as to offer a sound quality as good as possible. Note that the first track features ex-Scorpions drummer Hermann Rarebell, while the last track is a magnificent 8 minute song, with one of the musicians on vocals.
"Alice In Wonderland" (Recorded 1976) is a 40 minutes-long piece of work, obviously based on the famous book by Lewis Carroll. It confirms Neuschwanstein's significant importance in German rock history: the band succeeded, from the beginning, in creating a fluid and refined music, intense and suggestive, typical of the creative enthusiasm of the early Seventies. Usually structured around the keyboards parts, the music often underlines vivid and very refined piano pieces. With its strong melodies, its airy and dynamic flute soli, its dreamlike atmospheres, and the subtlety of the guitar effects, influenced by Steve Hackett's style, "Alice In Wonderland" easily takes its place among the best contemporary works of Camel or Focus.

Neuschwanstein - 2 Albums (1978-2008)

Neuschwanstein - Battlement (1978) [Reissue 1992]
EAC Rip | WavPack (image+.cue+log) - 314 MB | MP3 CBR 320 kbps (LAME 3.93) - 112 MB | Covers - 44 MB
Genre: Progressive Rock | RAR 3% Rec. | Label: Musea (FGBG 4063.AR)

Tracklist:
01. Loafer Jack
02. Ice with Dwale
03. Intruders and the Punishment
04. Beyond the Bugle
05. Battlement
06. Midsummer Day
07. Zärtlicher Abschied

Total time: 47:47

Exact Audio Copy V0.99 prebeta 3 from 28. July 2007

EAC extraction logfile from 26. October 2007, 13:51

Neuschwanstein / Battlement

Used drive : PLEXTOR CD-R PX-W5224A Adapter: 1 ID: 1

Read mode : Secure
Utilize accurate stream : Yes
Defeat audio cache : Yes
Make use of C2 pointers : No

Read offset correction : 30
Overread into Lead-In and Lead-Out : Yes
Fill up missing offset samples with silence : Yes
Delete leading and trailing silent blocks : No
Null samples used in CRC calculations : Yes
Used interface : Installed external ASPI interface

Used output format : Internal WAV Routines
Sample format : 44.100 Hz; 16 Bit; Stereo


TOC of the extracted CD

Track | Start | Length | Start sector | End sector
––––––––––––––––––––––––––––-
1 | 0:00.32 | 4:48.50 | 32 | 21681
2 | 4:49.07 | 6:26.40 | 21682 | 50671
3 | 11:15.47 | 7:39.50 | 50672 | 85146
4 | 18:55.22 | 7:36.53 | 85147 | 119399
5 | 26:32.00 | 7:12.65 | 119400 | 151864
6 | 33:44.65 | 7:45.57 | 151865 | 186796
7 | 41:30.47 | 6:16.33 | 186797 | 215029


Range status and errors

Selected range

Filename C:\DAE\Neuschwanstein - Battlement\Neuschwanstein - Battlement.wav

Peak level 99.0 %
Range quality 100.0 %
Test CRC 1D47FAFB
Copy CRC 1D47FAFB
Copy OK

No errors occurred

End of status report

[CUETools log; Date: 09.10.2020 15:33:03; Version: 2.1.4]
Pregap length 00:00:32.
[CTDB TOCID: zm1wiL7ATfpfqSvVvzwCgyj7WMQ-] found.
Track | CTDB Status
1 | (44/45) Accurately ripped
2 | (45/45) Accurately ripped
3 | (45/45) Accurately ripped
4 | (45/45) Accurately ripped
5 | (45/45) Accurately ripped
6 | (45/45) Accurately ripped
7 | (44/45) Accurately ripped
[AccurateRip ID: 000caca1-004d6489-5c0b3307] found.
Track [ CRC | V2 ] Status
01 [966ed51c|99b451c4] (08+16/30) Accurately ripped
02 [5b3a5f3c|8cd4a42a] (08+16/30) Accurately ripped
03 [4175515f|26666e62] (08+15/29) Accurately ripped
04 [c83b9f9b|21a11e23] (08+15/29) Accurately ripped
05 [ce137d14|43d25117] (08+16/30) Accurately ripped
06 [714fb18f|b33bfeb4] (07+14/27) Accurately ripped
07 [1c0b333b|e1a2acf1] (08+15/29) Accurately ripped
Offsetted by -664:
01 [5dcd5f3c] (03/30) Accurately ripped
02 [023cc71c] (03/30) Accurately ripped
03 [212a96df] (03/29) Accurately ripped
04 [ffd1fc2b] (03/29) Accurately ripped
05 [c73d1794] (03/30) Accurately ripped
06 [2a7d3817] (03/27) Accurately ripped
07 [66b6dc6b] (03/29) Accurately ripped

Track Peak [ CRC32 ] [W/O NULL] [ LOG ]
– 99,0 [1D47FAFB] [8EB3DE4F] CRC32
01 98,9 [FD8FBDB9] [55428683]
02 99,0 [032792E2] [A832E7A4]
03 98,3 [99F73245] [5137EF66]
04 99,0 [507CC1E5] [B9EC6D87]
05 99,0 [3395C9B6] [5981618F]
06 99,0 [2FDADDF8] [2215D459]
07 97,9 [33D06CD6] [FE8DD42D]

Neuschwanstein - 2 Albums (1978-2008)

Neuschwanstein - Alice In Wonderland [Recorded 1976] (2008)
EAC Rip | FLAC (image+.cue+log) - 276 MB | MP3 CBR 320 kbps (LAME 3.93) - 96 MB | Covers - 62 MB
Genre: Progressive Rock | RAR 3% Rec. | Label: Rock Symphony (RSLN 126)

Tracklist:
01. White Rabbit
02. The Gate to Wonderland
03. Pond of Tears
04. Old Father's Song
05. Five-O'Clock-Tea
06. Palace of Wonderland
07. The Court of the Animals
08. Alice's Return

Total time: 40:48

Exact Audio Copy V0.99 prebeta 4 from 23. January 2008

EAC extraction logfile from 20. July 2009, 13:11

Neuschwanstein / Alice in Wonderland

Used drive : HP DVD Writer 1040r Adapter: 2 ID: 3

Read mode : Secure
Utilize accurate stream : Yes
Defeat audio cache : Yes
Make use of C2 pointers : No

Read offset correction : 6
Overread into Lead-In and Lead-Out : No
Fill up missing offset samples with silence : Yes
Delete leading and trailing silent blocks : No
Null samples used in CRC calculations : Yes
Used interface : Installed external ASPI interface

Used output format : Internal WAV Routines
Sample format : 44.100 Hz; 16 Bit; Stereo


TOC of the extracted CD

Track | Start | Length | Start sector | End sector
––––––––––––––––––––––––––––-
1 | 0:00.00 | 1:17.33 | 0 | 5807
2 | 1:17.33 | 2:13.25 | 5808 | 15807
3 | 3:30.58 | 2:45.03 | 15808 | 28185
4 | 6:15.61 | 8:31.13 | 28186 | 66523
5 | 14:46.74 | 6:49.17 | 66524 | 97215
6 | 21:36.16 | 12:05.00 | 97216 | 151590
7 | 33:41.16 | 5:01.33 | 151591 | 174198
8 | 38:42.49 | 2:05.25 | 174199 | 183598


Range status and errors

Selected range

Filename C:\Documents and Settings\GarColga\Desktop\Neuschwanstein - Alice in Wonderland.wav

Peak level 96.6 %
Range quality 99.9 %
Copy CRC 8FC81485
Copy OK

No errors occurred

End of status report

[CUETools log; Date: 22.08.2021 18:35:35; Version: 2.1.4]
[CTDB TOCID: DHMwH1qgfLS_1syd_fNTHW.42no-] found.
Track | CTDB Status
1 | (15/15) Accurately ripped
2 | (15/15) Accurately ripped
3 | (15/15) Accurately ripped
4 | (15/15) Accurately ripped
5 | (15/15) Accurately ripped
6 | (15/15) Accurately ripped
7 | (15/15) Accurately ripped
8 | (15/15) Accurately ripped
[AccurateRip ID: 000b07f3-004f4445-66098f08] found.
Track [ CRC | V2 ] Status
01 [2500486d|0ed03348] (0+8/8) Accurately ripped
02 [91850ba1|911f841b] (0+8/8) Accurately ripped
03 [c30b5c59|df5ecf02] (0+8/8) Accurately ripped
04 [25f8d84a|d16b2332] (0+8/8) Accurately ripped
05 [4bd8aa36|6efee215] (0+8/8) Accurately ripped
06 [d03ae5e4|9b0f8f0f] (0+8/8) Accurately ripped
07 [1d28962f|efa68471] (0+8/8) Accurately ripped
08 [7766300c|4654e8be] (0+8/8) Accurately ripped

Track Peak [ CRC32 ] [W/O NULL] [ LOG ]
– 96,6 [8FC81485] [A9FB3E2F] CRC32
01 96,6 [3217C17A] [358C08D5]
02 96,6 [7CBA02F3] [96B2FFCA]
03 96,6 [7806D403] [0B425D5D]
04 96,6 [E0331D9C] [5BE33C5F]
05 96,6 [1465AFFE] [1DB68B0F]
06 96,6 [0C289A3C] [002C8B34]
07 96,6 [902AB613] [AB2BB52C]
08 96,6 [1ED669A3] [242B67FB]

Thanks to supang & GarColga