Subcategories

New Budapest Quartet - Vincent D'Indy: Chamber Music (1995)

Posted By: tirexiss
New Budapest Quartet - Vincent D'Indy: Chamber Music (1995)

New Budapest Quartet - Vincent D'Indy: Chamber Music (1995)
EAC | FLAC (image+.cue, log) | Covers Included | 01:14:12 | 331 MB
Genre: Classical | Label: Marco Polo | Catalog: 223691

Vincent d’Indy was born in Paris in 1851 and became a pupil and leading disciple of César Franck, whose music he did much to propagate. He distinguished himself as a teacher, founder of the influential and rigorous Schola Cantorum, and writer on musical subjects, and was an important figure in the musical life of Paris in his time, although by the time of his death a new era in music was well under way.
Although generally associated with larger orchestral forms, d’Indy also composed a certain amount of chamber music. His fourth string quartet was left incomplete, but he contributed to a varied chamber-music repertoire from early in his career until the end of his life.

New Budapest Quartet - Vincent D'Indy: Chamber Music (1995)

Track List:

01. Piano Trio no.2 in G major op.98 - I. Allegro giusto [0:08:09.25]
02. Piano Trio no.2 in G major op.98 - II. Andante sostenuto [0:06:47.10]
03. Piano Trio no.2 in G major op.98 - III. Allegro moderato [0:05:44.65]
04. String Quartet no.3 in D flat major op.96 - I. Entrée en sonate: Lentement [0:08:33.00]
05. String Quartet no.3 in D flat major op.96 - II. Intermède: Assez joyeux [0:04:05.00]
06. String Quartet no.3 in D flat major op.96 - III. Thème varié: Assez lent [0:10:55.00]
07. String Quartet no.3 in D flat major op.96 - IV. Finale en rondeau: Lentement - Animé [0:08:10.00]
08. Piano Quintet in G minor op.81 - I. Assez animé [0:06:28.00]
09. Piano Quintet in G minor op.81 - II. Assez animé [0:03:24.00]
10. Piano Quintet in G minor op.81 - III. Lent et expressif [0:06:33.10]
11. Piano Quintet in G minor op.81 - IV. Modérément animé [0:04:54.65]

Performers:
New Budapest Quartet

Exact Audio Copy V1.0 beta 3 from 29. August 2011

EAC extraction logfile from 3. April 2014, 20:23

New Budapest Quartet / Vincent d'Indy - Chamber Music - New Budapest Quartet

Used drive : TSSTcorpCDDVDW SH-222BB Adapter: 2 ID: 1

Read mode : Secure
Utilize accurate stream : Yes
Defeat audio cache : Yes
Make use of C2 pointers : No

Read offset correction : 6
Overread into Lead-In and Lead-Out : No
Fill up missing offset samples with silence : Yes
Delete leading and trailing silent blocks : No
Null samples used in CRC calculations : Yes
Used interface : Native Win32 interface for Win NT & 2000

Used output format : User Defined Encoder
Selected bitrate : 896 kBit/s
Quality : High
Add ID3 tag : No
Command line compressor : C:\Program Files\Exact Audio Copy\FLAC\FLAC.EXE
Additional command line options : -8 -V -T "TITLE=%title%" -T "ARTIST=%artist%" -T "ALBUMARTIST=%albumartist%" -T "ALBUM=%albumtitle%" -T "DATE=%year%" -T "TRACKNUMBER=%tracknr%" -T "TRACKTOTAL=%numtracks%" -T "GENRE=%genre%" -T "COMMENT=%comment%" -T "PERFORMER=%albuminterpret%" -T "COMPOSER=%composer%" %source% -o %dest%


TOC of the extracted CD

Track | Start | Length | Start sector | End sector
––––––––––––––––––––––––––––-
1 | 0:00.00 | 8:09.25 | 0 | 36699
2 | 8:09.25 | 6:47.10 | 36700 | 67234
3 | 14:56.35 | 5:44.65 | 67235 | 93099
4 | 20:41.25 | 8:33.00 | 93100 | 131574
5 | 29:14.25 | 4:05.00 | 131575 | 149949
6 | 33:19.25 | 10:55.00 | 149950 | 199074
7 | 44:14.25 | 8:10.00 | 199075 | 235824
8 | 52:24.25 | 6:28.00 | 235825 | 264924
9 | 58:52.25 | 3:24.00 | 264925 | 280224
10 | 62:16.25 | 6:33.10 | 280225 | 309709
11 | 68:49.35 | 4:54.65 | 309710 | 331824


Range status and errors

Selected range

Filename E:\3000\[3653] Vincent d'Indy – Chamber Music – New Budapest Quartet\Vincent d'Indy - Chamber Music - New Budapest Quartet.wav

Peak level 97.4 %
Extraction speed 7.4 X
Range quality 100.0 %
Test CRC 4980D9CB
Copy CRC 4980D9CB
Copy OK

No errors occurred


AccurateRip summary

Track 1 cannot be verified as accurate (confidence 1) [D82741E0], AccurateRip returned [D8C5CE53] (AR v2)
Track 2 cannot be verified as accurate (confidence 1) [0D46D134], AccurateRip returned [49028AA5] (AR v2)
Track 3 cannot be verified as accurate (confidence 1) [DE31E3F8], AccurateRip returned [AF8FB320] (AR v2)
Track 4 cannot be verified as accurate (confidence 1) [D90FA4E9], AccurateRip returned [B48F8ACD] (AR v2)
Track 5 cannot be verified as accurate (confidence 1) [F5B6F2BD], AccurateRip returned [675F6643] (AR v2)
Track 6 cannot be verified as accurate (confidence 1) [D5708652], AccurateRip returned [3DEBE4BC] (AR v2)
Track 7 cannot be verified as accurate (confidence 1) [52B3CC1F], AccurateRip returned [A77B0611] (AR v2)
Track 8 cannot be verified as accurate (confidence 1) [C7CFA95E], AccurateRip returned [1BF1E07B] (AR v2)
Track 9 cannot be verified as accurate (confidence 1) [F86684A0], AccurateRip returned [AD4C58A5] (AR v2)
Track 10 cannot be verified as accurate (confidence 1) [060D6AD1], AccurateRip returned [CBC7B25C] (AR v2)
Track 11 cannot be verified as accurate (confidence 1) [AFCB0848], AccurateRip returned [BB4C11E3] (AR v2)

No tracks could be verified as accurate
You may have a different pressing from the one(s) in the database

End of status report

==== Log checksum B0EF5F6417ED9AF7104F44F77CF4BC7E5438228DF7DF8B91A925FAB38C892D57 ====

Thanks to the Original ripper (unknown)!

Welcome to my blog!

Download: