Tags
Language
Tags

New Order - (the best of) New Order (1994) [Re-Up]

Posted By:
New Order - (the best of) New Order (1994) [Re-Up]

New Order - (the best of) New Order (1994)
EAC | FLAC | Image (Cue&Log) ~ 557 Mb | Mp3 (CBR320) ~ 200 Mb | Scans included
Label: London Records | # 8285802 | Time: 01:10:08
New Wave, Synthpop, Post-Punk, Alternative Dance-Rock

Manchester's pivotal post-punk quartet offer a 16-track opus that skips obscurities and early material in favor of their greatest singles. Highlights include "Blue Monday", "Thieves Like Us" and "The Perfect Kiss" and sparkling Stephen Hague remixes of "True Faith" and "Bizarre Love Triangle".

New Order's first compilation album, Substance (1987), finally broke the group through to commercial success in the U.S. Its second one, The Best of New Order, isn't exactly Substance II. The previous set was a singles collection, and Best Of does pick up that story, including a series of songs – "True Faith" (in a new remix), "Touched by the Hand of God," "Blue Monday 88," "Fine Time," "Round & Round" (in a new remix), "Run," and "World in Motion" – that were bigger hits in the U.K. than in the U.S. (Also included is the group's biggest U.S. hit, "Regret" as well as its charting follow-up, "World [The Price of Love].") But in addition, the compilers have included one song each from the group's albums, with the exception of Brotherhood – "Dreams Never End" from Movement, "Age of Consent" from Power, Corruption & Lies, "Love Vigilantes" from Low-Life, "Vanishing Point" from Technique, and "Ruined in a Day" from Republic. Add in some rarities, plus "Bizarre Love Triangle," repeated from Substance, and you have 17 tracks taking up 70 and a half minutes and providing a good survey of New Order, 1981-1993. Substance, with its concentration on the group's run of classic singles from the early '80s, is a more consistent effort, but The Best of New Order, even if it is misnamed, is an excellent sampler of one of the major British bands of the 1980s.

Review by William Ruhlmann, Allmusic.com

New Order - (the best of) New Order (1994) [Re-Up]



Tracklist:

01. True Faith - 94 (05:33)
02. Bizarre Love Triangle - 94 (03:54)
03. 1963 - 94 (03:46)
04. Regret (04:08)
05. Fine Time (03:08)
06. The Perfect Kiss (04:49)
07. Shell Shock (04:22)
08. Thieves Like Us (06:36)
09. Vanishing Point (05:14)
10. Run 2 (04:29)
11. Round & Round - 94 (04:01)
12. World (Price Of Love) (03:38)
13. Ruined In A Day (03:57)
14. Touched By The Hand Of God (03:42)
15. Blue Monday - 88 (04:07)
16. World In Motion (04:30)


Exact Audio Copy V1.0 beta 3 from 29. August 2011

EAC extraction logfile from 8. May 2013, 1:50

New Order / The Best Of

Used drive : PIONEER DVD-RW DVR-112D Adapter: 2 ID: 1

Read mode : Secure
Utilize accurate stream : Yes
Defeat audio cache : Yes
Make use of C2 pointers : No

Read offset correction : 48
Overread into Lead-In and Lead-Out : No
Fill up missing offset samples with silence : Yes
Delete leading and trailing silent blocks : No
Null samples used in CRC calculations : Yes
Used interface : Installed external ASPI interface

Used output format : User Defined Encoder
Selected bitrate : 1024 kBit/s
Quality : High
Add ID3 tag : No
Command line compressor : C:\Program Files (x86)\Exact Audio Copy\Flac\flac.exe
Additional command line options : -8 -V -T "Date=%year%" -T "Genre=%genre%" -T "COMMENT=ripped by bvstudio®" %source%


TOC of the extracted CD

Track | Start | Length | Start sector | End sector
––––––––––––––––––––––––––––-
1 | 0:00.00 | 5:35.40 | 0 | 25164
2 | 5:35.40 | 3:54.27 | 25165 | 42741
3 | 9:29.67 | 3:47.05 | 42742 | 59771
4 | 13:16.72 | 4:08.40 | 59772 | 78411
5 | 17:25.37 | 3:08.58 | 78412 | 92569
6 | 20:34.20 | 4:49.55 | 92570 | 114299
7 | 25:24.00 | 4:23.35 | 114300 | 134059
8 | 29:47.35 | 6:37.05 | 134060 | 163839
9 | 36:24.40 | 5:15.07 | 163840 | 187471
10 | 41:39.47 | 4:29.65 | 187472 | 207711
11 | 46:09.37 | 4:01.18 | 207712 | 225804
12 | 50:10.55 | 3:38.60 | 225805 | 242214
13 | 53:49.40 | 3:57.60 | 242215 | 260049
14 | 57:47.25 | 3:42.50 | 260050 | 276749
15 | 61:30.00 | 4:07.35 | 276750 | 295309
16 | 65:37.35 | 4:30.62 | 295310 | 315621


Range status and errors

Selected range

Filename F:\New Order - The Best Of - 1994\New Order - The Best Of.wav

Peak level 100.0 %
Extraction speed 7.8 X
Range quality 100.0 %
Test CRC 0DE1D199
Copy CRC 0DE1D199
Copy OK

No errors occurred


AccurateRip summary

Track 1 accurately ripped (confidence 8) [AEAF6E80] (AR v2)
Track 2 accurately ripped (confidence 8) [1341DEC8] (AR v2)
Track 3 accurately ripped (confidence 8) [CB95DDDC] (AR v2)
Track 4 accurately ripped (confidence 8) [6B8E18F2] (AR v2)
Track 5 accurately ripped (confidence 8) [8BE259A4] (AR v2)
Track 6 accurately ripped (confidence 8) [C6156293] (AR v2)
Track 7 accurately ripped (confidence 8) [1B16DBEF] (AR v2)
Track 8 accurately ripped (confidence 8) [6B631E33] (AR v2)
Track 9 accurately ripped (confidence 8) [3A233FAB] (AR v2)
Track 10 accurately ripped (confidence 8) [231562DF] (AR v2)
Track 11 accurately ripped (confidence 8) [9029DC69] (AR v2)
Track 12 accurately ripped (confidence 7) [99CC756F] (AR v2)
Track 13 accurately ripped (confidence 8) [0C30E520] (AR v2)
Track 14 accurately ripped (confidence 8) [7343458D] (AR v2)
Track 15 accurately ripped (confidence 7) [F74481BB] (AR v2)
Track 16 accurately ripped (confidence 8) [8131BEF6] (AR v2)

All tracks accurately ripped

End of status report

–– CUETools DB Plugin V2.1.5

[CTDB TOCID: fbApSZbY5zcmVKw7em7nCcGjdLs-] found
Submit result: fbApSZbY5zcmVKw7em7nCcGjdLs- has been confirmed
Track | CTDB Status
1 | (33/78) Accurately ripped
2 | (33/78) Accurately ripped
3 | (33/78) Accurately ripped
4 | (33/78) Accurately ripped
5 | (33/78) Accurately ripped
6 | (33/78) Accurately ripped
7 | (32/78) Accurately ripped
8 | (33/78) Accurately ripped
9 | (33/78) Accurately ripped
10 | (33/78) Accurately ripped
11 | (32/78) Accurately ripped
12 | (33/78) Accurately ripped
13 | (33/78) Accurately ripped
14 | (33/78) Accurately ripped
15 | (33/78) Accurately ripped
16 | (32/78) Accurately ripped


==== Log checksum 84A3628278E069D23822DE32FAC7DED5E9AD8D359745F168F320B4D19BEE3471 ====

foobar2000 1.2.6 / Dynamic Range Meter 1.1.1
log date: 2013-05-08 02:47:43

––––––––––––––––––––––––––––––––––––––––
Analyzed: New Order / The Best Of
––––––––––––––––––––––––––––––––––––––––

DR Peak RMS Duration Track
––––––––––––––––––––––––––––––––––––––––
DR6 0.00 dB -7.30 dB 5:36 01-True Faith-94
DR6 0.00 dB -7.50 dB 3:54 02-Bizarre Love Triangle-94
DR8 -0.01 dB -9.46 dB 3:47 03-1963-94
DR6 0.00 dB -7.07 dB 4:09 04-Regret
DR7 0.00 dB -8.32 dB 3:09 05-Fine Time
DR6 0.00 dB -7.34 dB 4:50 06-The Perfect Kiss
DR7 0.00 dB -8.23 dB 4:23 07-Shell Shock
DR6 0.00 dB -7.40 dB 6:37 08-Thieves Like Us
DR5 -0.02 dB -6.79 dB 5:15 09-Vanishing Point
DR6 0.00 dB -7.00 dB 4:30 10-Run 2
DR7 0.00 dB -8.66 dB 4:01 11-Round & Round-94
DR6 0.00 dB -7.93 dB 3:39 12-World (Price Of Love)
DR10 0.00 dB -11.65 dB 3:58 13-Ruined In A Day
DR8 0.00 dB -8.88 dB 3:43 14-Touched By The Hand Of God
DR8 0.00 dB -9.98 dB 4:07 15-Blue Monday-88
DR7 -0.01 dB -8.94 dB 4:31 16-World In Motion
––––––––––––––––––––––––––––––––––––––––

Number of tracks: 16
Official DR value: DR7

Samplerate: 44100 Hz
Channels: 2
Bits per sample: 16
Bitrate: 1030 kbps
Codec: FLAC
================================================================================

New Order - (the best of) New Order (1994) [Re-Up]

New Order - (the best of) New Order (1994) [Re-Up]

All thanks to original releaser - bvstudio

More interesting music in My Blog