Subcategories

Nicholas Gunn - Crossroads (1996)

Posted By: gribovar
Nicholas Gunn - Crossroads (1996)

Nicholas Gunn - Crossroads (1996)
EAC Rip | FLAC (tracks+.cue+log) - 328 MB | MP3 CBR 320 kbps (LAME 3.93) - 116 MB | Covers - 92 MB
Genre: New Age | RAR 3% Rec. | Label: Real Music (RM3673)

Many try, but few artists create music so rife with imagery that you are transported to an entirely fresh geographical plane. No one tours the Southwest like Nicholas Gunn, the flute/synth whiz whose The Music of the Grand Canyon was the most compelling tribute to the park in recent years. With this release, he finds himself at a new Crossroads, which for all intents and purposes is best described as the rocky but clear-skied region around the Four Corners. His spiritual excursion again draws on Native American history to build percussive red rock themes around crisp Southwestern architecture that can withstand both intense sunlight and heavy thunderstorms. Gunn's flute is always at the forefront, played either like a percussion instrument or a launching point for soaring orchestral ideas. Loping along the mountain roads and helping pay tribute to his always enthralling landscapes are the subtle energies of violinist Karen Briggs, cellist Sachi McHenry, and acoustic guitarists Zavier and Bill Shafton.
Tracklist:
01. Crossroads
02. Terra Nouveau
03. Universal Being
04. Quinta Essentia
05. The Calling
06. Journey's End
07. A New Dawn
08. Forever
09. Oasis
10. Soulful Eclipse
11. Return of the Butterfly

Total time: 49:30

Exact Audio Copy V1.0 beta 3 from 29. August 2011

EAC extraction logfile from 25. March 2016, 19:52

Nicholas Gunn / Crossroads

Used drive : ASUS DRW-24F1ST a Adapter: 2 ID: 0

Read mode : Secure
Utilize accurate stream : Yes
Defeat audio cache : Yes
Make use of C2 pointers : No

Read offset correction : 6
Overread into Lead-In and Lead-Out : No
Fill up missing offset samples with silence : Yes
Delete leading and trailing silent blocks : No
Null samples used in CRC calculations : Yes
Used interface : Native Win32 interface for Win NT & 2000
Gap handling : Appended to previous track

Used output format : User Defined Encoder
Selected bitrate : 1024 kBit/s
Quality : High
Add ID3 tag : No
Command line compressor : C:\Program Files (x86)\Exact Audio Copy\Flac\flac.exe
Additional command line options : -8 -V -T "COMMENT=ripped by DrStandBy special for new-team.org" -T "ARTIST=%artist%" -T "TITLE=%title%" -T "ALBUM=%albumtitle%" -T "DATE=%year%" -T "TRACKNUMBER=%tracknr%" -T "GENRE=%genre%" %source%


TOC of the extracted CD

Track | Start | Length | Start sector | End sector
––––––––––––––––––––––––––––-
1 | 0:00.00 | 4:28.10 | 0 | 20109
2 | 4:28.10 | 4:40.62 | 20110 | 41171
3 | 9:08.72 | 4:02.40 | 41172 | 59361
4 | 13:11.37 | 5:18.15 | 59362 | 83226
5 | 18:29.52 | 5:17.33 | 83227 | 107034
6 | 23:47.10 | 4:17.10 | 107035 | 126319
7 | 28:04.20 | 5:18.40 | 126320 | 150209
8 | 33:22.60 | 4:36.72 | 150210 | 170981
9 | 37:59.57 | 4:06.60 | 170982 | 189491
10 | 42:06.42 | 4:09.20 | 189492 | 208186
11 | 46:15.62 | 3:14.28 | 208187 | 222764


Track 1

Filename I:\Nicholas Gunn\1996 - Crossroads (Real Music #RM3673)\01. Nicholas Gunn - Crossroads.wav

Pre-gap length 0:00:02.00

Peak level 94.4 %
Extraction speed 4.6 X
Track quality 100.0 %
Test CRC E344BDB5
Copy CRC E344BDB5
Accurately ripped (confidence 11) [4F249CCF] (AR v2)
Copy OK

Track 2

Filename I:\Nicholas Gunn\1996 - Crossroads (Real Music #RM3673)\02. Nicholas Gunn - Terra Nouveau.wav

Peak level 100.0 %
Extraction speed 4.3 X
Track quality 99.9 %
Test CRC 22727876
Copy CRC 22727876
Accurately ripped (confidence 11) [9112C2B8] (AR v2)
Copy OK

Track 3

Filename I:\Nicholas Gunn\1996 - Crossroads (Real Music #RM3673)\03. Nicholas Gunn - Universal Being.wav

Peak level 100.0 %
Extraction speed 5.4 X
Track quality 100.0 %
Test CRC 52161BAE
Copy CRC 52161BAE
Accurately ripped (confidence 11) [F9500D68] (AR v2)
Copy OK

Track 4

Filename I:\Nicholas Gunn\1996 - Crossroads (Real Music #RM3673)\04. Nicholas Gunn - Quinta Essentia.wav

Pre-gap length 0:00:01.32

Peak level 97.7 %
Extraction speed 6.1 X
Track quality 100.0 %
Test CRC 852D1AD0
Copy CRC 852D1AD0
Accurately ripped (confidence 11) [FB8880FB] (AR v2)
Copy OK

Track 5

Filename I:\Nicholas Gunn\1996 - Crossroads (Real Music #RM3673)\05. Nicholas Gunn - The Calling.wav

Pre-gap length 0:00:01.05

Peak level 94.4 %
Extraction speed 6.6 X
Track quality 100.0 %
Test CRC B715E044
Copy CRC B715E044
Accurately ripped (confidence 11) [5D726AC6] (AR v2)
Copy OK

Track 6

Filename I:\Nicholas Gunn\1996 - Crossroads (Real Music #RM3673)\06. Nicholas Gunn - Journey's End.wav

Peak level 100.0 %
Extraction speed 6.8 X
Track quality 100.0 %
Test CRC AAAA37CB
Copy CRC AAAA37CB
Accurately ripped (confidence 11) [F56F9864] (AR v2)
Copy OK

Track 7

Filename I:\Nicholas Gunn\1996 - Crossroads (Real Music #RM3673)\07. Nicholas Gunn - A New Dawn.wav

Peak level 100.0 %
Extraction speed 7.3 X
Track quality 100.0 %
Test CRC C60922C8
Copy CRC C60922C8
Accurately ripped (confidence 11) [A5C6A8CE] (AR v2)
Copy OK

Track 8

Filename I:\Nicholas Gunn\1996 - Crossroads (Real Music #RM3673)\08. Nicholas Gunn - Forever.wav

Peak level 94.9 %
Extraction speed 7.5 X
Track quality 100.0 %
Test CRC 3B7FC8EE
Copy CRC 3B7FC8EE
Accurately ripped (confidence 11) [A92E70C2] (AR v2)
Copy OK

Track 9

Filename I:\Nicholas Gunn\1996 - Crossroads (Real Music #RM3673)\09. Nicholas Gunn - Oasis.wav

Pre-gap length 0:00:02.42

Peak level 98.9 %
Extraction speed 7.6 X
Track quality 100.0 %
Test CRC 1AC330FF
Copy CRC 1AC330FF
Accurately ripped (confidence 11) [8E1D5BA1] (AR v2)
Copy OK

Track 10

Filename I:\Nicholas Gunn\1996 - Crossroads (Real Music #RM3673)\10. Nicholas Gunn - Soulful Eclipse.wav

Peak level 100.0 %
Extraction speed 7.9 X
Track quality 100.0 %
Test CRC 149FB486
Copy CRC 149FB486
Accurately ripped (confidence 11) [398688F1] (AR v2)
Copy OK

Track 11

Filename I:\Nicholas Gunn\1996 - Crossroads (Real Music #RM3673)\11. Nicholas Gunn - Return of the Butterfly.wav

Pre-gap length 0:00:03.05

Peak level 84.1 %
Extraction speed 7.8 X
Track quality 100.0 %
Test CRC B0AFB96C
Copy CRC B0AFB96C
Accurately ripped (confidence 11) [844AD46F] (AR v2)
Copy OK


All tracks accurately ripped

No errors occurred

End of status report

–– CUETools DB Plugin V2.1.6

[CTDB TOCID: yNgny0p8vDxFoBXIVx6OQVOlZzM-] found
Submit result: yNgny0p8vDxFoBXIVx6OQVOlZzM- has been confirmed
Track | CTDB Status
1 | (15/15) Accurately ripped
2 | (15/15) Accurately ripped
3 | (15/15) Accurately ripped
4 | (15/15) Accurately ripped
5 | (15/15) Accurately ripped
6 | (15/15) Accurately ripped
7 | (15/15) Accurately ripped
8 | (15/15) Accurately ripped
9 | (15/15) Accurately ripped
10 | (14/15) Accurately ripped
11 | (15/15) Accurately ripped


==== Log checksum 7FA9B015E79494F2D58A56463DA27338093A4BC68A5364AD2868BCB2D804D9D4 ====

[CUETools log; Date: 27.03.2018 19:43:32; Version: 2.1.4]
[CTDB TOCID: yNgny0p8vDxFoBXIVx6OQVOlZzM-] found.
Track | CTDB Status
1 | (38/39) Accurately ripped
2 | (39/39) Accurately ripped
3 | (39/39) Accurately ripped
4 | (39/39) Accurately ripped
5 | (38/39) Accurately ripped
6 | (39/39) Accurately ripped
7 | (39/39) Accurately ripped
8 | (38/39) Accurately ripped
9 | (38/39) Accurately ripped
10 | (37/39) Accurately ripped
11 | (39/39) Accurately ripped
[AccurateRip ID: 00150a2e-00b63a2d-8c0b9a0b] found.
Track [ CRC | V2 ] Status
01 [c9bb8208|4f249ccf] (06+12/29) Accurately ripped
02 [80f977b7|9112c2b8] (06+12/29) Accurately ripped
03 [8f9f1dc9|f9500d68] (06+12/29) Accurately ripped
04 [52a2ca7f|fb8880fb] (06+12/29) Accurately ripped
05 [14740cfc|5d726ac6] (06+12/29) Accurately ripped
06 [6a552197|f56f9864] (06+12/29) Accurately ripped
07 [5d3ece67|a5c6a8ce] (06+12/29) Accurately ripped
08 [ce0cd2f5|a92e70c2] (06+12/29) Accurately ripped
09 [3b75ec60|8e1d5ba1] (06+12/29) Accurately ripped
10 [c16ae2b0|398688f1] (06+12/29) Accurately ripped
11 [e69950e8|844ad46f] (06+12/29) Accurately ripped
Offsetted by 1:
01 [1d4a9817] (07/29) Accurately ripped
02 [9ff044da] (07/29) Accurately ripped
03 [311e6ba1] (07/29) Accurately ripped
04 [5cef13cf] (07/29) Accurately ripped
05 [c97ab644] (07/29) Accurately ripped
06 [b26fba33] (07/29) Accurately ripped
07 [bda4ce1f] (07/29) Accurately ripped
08 [1bf41651] (07/29) Accurately ripped
09 [ce82a196] (07/29) Accurately ripped
10 [e68d4bca] (07/29) Accurately ripped
11 [e0fecbdb] (00/29) No match (V2 was not tested)

Track Peak [ CRC32 ] [W/O NULL] [ LOG ]
– 100,0 [158894B5] [3939468E]
01 94,4 [E344BDB5] [2A42C9F4] CRC32
02 100,0 [22727876] [3EAEAEA8] CRC32
03 100,0 [52161BAE] [D44FC579] CRC32
04 97,7 [852D1AD0] [7029760C] CRC32
05 94,4 [B715E044] [B7D0CDC6] CRC32
06 100,0 [AAAA37CB] [BCD92C7F] CRC32
07 100,0 [C60922C8] [5BDF9F7E] CRC32
08 94,9 [3B7FC8EE] [29233C6A] CRC32
09 98,9 [1AC330FF] [9E03740A] CRC32
10 100,0 [149FB486] [E7092538] CRC32
11 84,1 [B0AFB96C] [605703FF] CRC32

Thanks to DrStandBy

See also:
Nicholas Gunn - 5 Albums (1994-2004)
Nicholas Gunn - Return to Grand Canyon (1999)
Nicholas Gunn - Thirty-One Nights (2012)