Subcategories

Nicholas Gunn - Return to Grand Canyon (1999)

Posted By: gribovar
Nicholas Gunn - Return to Grand Canyon (1999)

Nicholas Gunn - Return to Grand Canyon (1999)
EAC Rip | FLAC (tracks+.cue+log) - 311 MB | MP3 CBR 320 kbps (LAME 3.93) - 118 MB | Covers - 162 MB
Genre: New Age | RAR 3% Rec. | Label: Earthtone Records (ETD-7914)

"Return to Grand Canyon" is the sequel to Nicholas Gunn's breakthrough 1995 hit "The Music of the Grand Canyon" which peaked at #10, spending 32 weeks on the Billboard New Age Chart. This recording is centered around Gunn's flute, keyboard and percussion and features guest performances by acoustic guitarist Govi, violinist Karen Briggs, cellist Sachi Patitucci with wife and fellow artist Cheryl Gunn.
Tracklist:
01. Return to Grand Canyon
02. Flight of the Condor
03. Kaibab Forest
04. Havasu Falls
05. Daybreak at Timp Point
06. Horseshoe Mesa
07. The Greatest Wonder
08. The Crossing
09. Navajo Story
10. Cottonwood Camp
11. Angel's Window

Total time: 50:04

Exact Audio Copy V1.0 beta 3 from 29. August 2011

EAC extraction logfile from 6. April 2014, 23:42

Nicholas Gunn / Return to Grand Canyon

Used drive : SlimtypeeTAU108 3 Adapter: 1 ID: 0

Read mode : Secure
Utilize accurate stream : Yes
Defeat audio cache : Yes
Make use of C2 pointers : No

Read offset correction : 6
Overread into Lead-In and Lead-Out : No
Fill up missing offset samples with silence : Yes
Delete leading and trailing silent blocks : No
Null samples used in CRC calculations : Yes
Used interface : Native Win32 interface for Win NT & 2000
Gap handling : Appended to previous track

Used output format : User Defined Encoder
Selected bitrate : 1024 kBit/s
Quality : High
Add ID3 tag : No
Command line compressor : C:\Program Files (x86)\Exact Audio Copy\Flac\flac.exe
Additional command line options : -8 -V -T "ARTIST=%artist%" -T "TITLE=%title%" -T "ALBUM=%albumtitle%" -T "DATE=%year%" -T "TRACKNUMBER=%tracknr%" -T "GENRE=%genre%" -T "COMMENT=ripped by DrStandBy" %source%


TOC of the extracted CD

Track | Start | Length | Start sector | End sector
––––––––––––––––––––––––––––-
1 | 0:00.00 | 5:02.65 | 0 | 22714
2 | 5:02.65 | 4:23.65 | 22715 | 42504
3 | 9:26.55 | 4:53.02 | 42505 | 64481
4 | 14:19.57 | 4:06.23 | 64482 | 82954
5 | 18:26.05 | 4:30.72 | 82955 | 103276
6 | 22:57.02 | 4:54.28 | 103277 | 125354
7 | 27:51.30 | 4:19.05 | 125355 | 144784
8 | 32:10.35 | 3:38.20 | 144785 | 161154
9 | 35:48.55 | 4:38.22 | 161155 | 182026
10 | 40:27.02 | 4:30.38 | 182027 | 202314
11 | 44:57.40 | 5:06.20 | 202315 | 225284


Track 1

Filename Z:\Lossless\New Age\Nicholas Gunn\1999 - Return to Grand Canyon (Earthtone #ETD-7914)\01. Nicholas Gunn - Return to Grand Canyon.wav

Pre-gap length 0:00:02.00

Peak level 99.9 %
Extraction speed 1.2 X
Track quality 100.0 %
Test CRC 6FC6754F
Copy CRC 6FC6754F
Accurately ripped (confidence 2) [9C1B1974] (AR v2)
Copy OK

Track 2

Filename Z:\Lossless\New Age\Nicholas Gunn\1999 - Return to Grand Canyon (Earthtone #ETD-7914)\02. Nicholas Gunn - Flight of the Condor.wav

Peak level 89.3 %
Extraction speed 1.3 X
Track quality 100.0 %
Test CRC 1A9EE225
Copy CRC 1A9EE225
Accurately ripped (confidence 2) [156AED4B] (AR v2)
Copy OK

Track 3

Filename Z:\Lossless\New Age\Nicholas Gunn\1999 - Return to Grand Canyon (Earthtone #ETD-7914)\03. Nicholas Gunn - Kaibab Forest.wav

Peak level 96.2 %
Extraction speed 1.5 X
Track quality 100.0 %
Test CRC 855F88FA
Copy CRC 855F88FA
Accurately ripped (confidence 2) [AE0CBA46] (AR v2)
Copy OK

Track 4

Filename Z:\Lossless\New Age\Nicholas Gunn\1999 - Return to Grand Canyon (Earthtone #ETD-7914)\04. Nicholas Gunn - Havasu Falls.wav

Peak level 89.6 %
Extraction speed 1.4 X
Track quality 99.9 %
Test CRC 2763CA13
Copy CRC 2763CA13
Accurately ripped (confidence 2) [CBA03EDB] (AR v2)
Copy OK

Track 5

Filename Z:\Lossless\New Age\Nicholas Gunn\1999 - Return to Grand Canyon (Earthtone #ETD-7914)\05. Nicholas Gunn - Daybreak at Timp Point.wav

Peak level 94.1 %
Extraction speed 1.7 X
Track quality 100.0 %
Test CRC 42BD7D76
Copy CRC 42BD7D76
Accurately ripped (confidence 2) [8ADED93D] (AR v2)
Copy OK

Track 6

Filename Z:\Lossless\New Age\Nicholas Gunn\1999 - Return to Grand Canyon (Earthtone #ETD-7914)\06. Nicholas Gunn - Horseshoe Mesa.wav

Peak level 94.5 %
Extraction speed 1.8 X
Track quality 100.0 %
Test CRC 1FE5C6B4
Copy CRC 1FE5C6B4
Accurately ripped (confidence 2) [7E8BEE83] (AR v2)
Copy OK

Track 7

Filename Z:\Lossless\New Age\Nicholas Gunn\1999 - Return to Grand Canyon (Earthtone #ETD-7914)\07. Nicholas Gunn - The Greatest Wonder.wav

Peak level 97.5 %
Extraction speed 1.9 X
Track quality 100.0 %
Test CRC BE355883
Copy CRC BE355883
Accurately ripped (confidence 2) [89BCCABF] (AR v2)
Copy OK

Track 8

Filename Z:\Lossless\New Age\Nicholas Gunn\1999 - Return to Grand Canyon (Earthtone #ETD-7914)\08. Nicholas Gunn - The Crossing.wav

Peak level 99.0 %
Extraction speed 1.9 X
Track quality 100.0 %
Test CRC 2A37CC56
Copy CRC 2A37CC56
Accurately ripped (confidence 2) [792A5DD6] (AR v2)
Copy OK

Track 9

Filename Z:\Lossless\New Age\Nicholas Gunn\1999 - Return to Grand Canyon (Earthtone #ETD-7914)\09. Nicholas Gunn - Navajo Story.wav

Peak level 94.1 %
Extraction speed 2.1 X
Track quality 100.0 %
Test CRC 14A34DA3
Copy CRC 14A34DA3
Accurately ripped (confidence 2) [DC12A536] (AR v2)
Copy OK

Track 10

Filename Z:\Lossless\New Age\Nicholas Gunn\1999 - Return to Grand Canyon (Earthtone #ETD-7914)\10. Nicholas Gunn - Cottonwood Camp.wav

Peak level 92.3 %
Extraction speed 2.1 X
Track quality 100.0 %
Test CRC 0658844F
Copy CRC 0658844F
Accurately ripped (confidence 2) [A7AB5156] (AR v2)
Copy OK

Track 11

Filename Z:\Lossless\New Age\Nicholas Gunn\1999 - Return to Grand Canyon (Earthtone #ETD-7914)\11. Nicholas Gunn - Angel's Window.wav

Peak level 99.9 %
Extraction speed 2.2 X
Track quality 100.0 %
Test CRC 90AD38D0
Copy CRC 90AD38D0
Accurately ripped (confidence 2) [C75F7E5B] (AR v2)
Copy OK


All tracks accurately ripped

No errors occurred

End of status report

–– CUETools DB Plugin V2.1.4

[CTDB TOCID: AuOD1j_9T5hHnMwHGT8OB4W_H20-] found
Submit result: AuOD1j_9T5hHnMwHGT8OB4W_H20- has been confirmed
Track | CTDB Status
1 | (3/5) Accurately ripped
2 | (3/5) Accurately ripped
3 | (3/5) Accurately ripped
4 | (3/5) Accurately ripped
5 | (3/5) Accurately ripped
6 | (3/5) Accurately ripped
7 | (3/5) Accurately ripped
8 | (3/5) Accurately ripped
9 | (3/5) Accurately ripped
10 | (3/5) Accurately ripped
11 | (3/5) Accurately ripped


==== Log checksum 6C3058083461ACF2600D9AFB51E7A0F87050D4BBFA66C756FEC5243B3D29C050 ====

[CUETools log; Date: 26.03.2018 21:03:43; Version: 2.1.4]
[CTDB TOCID: AuOD1j_9T5hHnMwHGT8OB4W_H20-] found.
Track | CTDB Status
1 | (40/44) Accurately ripped
2 | (40/44) Accurately ripped
3 | (40/44) Accurately ripped
4 | (40/44) Accurately ripped
5 | (40/44) Accurately ripped
6 | (40/44) Accurately ripped
7 | (40/44) Accurately ripped
8 | (40/44) Accurately ripped
9 | (40/44) Accurately ripped
10 | (39/44) Accurately ripped
11 | (40/44) Accurately ripped
[AccurateRip ID: 0014b438-00b28992-9c0bbb0b] found.
Track [ CRC | V2 ] Status
01 [ac5426b3|9c1b1974] (00+04/25) Accurately ripped
02 [266e4981|156aed4b] (00+04/24) Accurately ripped
03 [1330b35a|ae0cba46] (00+04/23) Accurately ripped
04 [cad669b1|cba03edb] (00+05/23) Accurately ripped
05 [ffce455a|8aded93d] (00+05/23) Accurately ripped
06 [4c596e45|7e8bee83] (00+05/23) Accurately ripped
07 [43df4662|89bccabf] (00+05/23) Accurately ripped
08 [4793ebbd|792a5dd6] (00+05/23) Accurately ripped
09 [123c3c12|dc12a536] (00+05/24) Accurately ripped
10 [b6ebcf8f|a7ab5156] (00+05/24) Accurately ripped
11 [a22da563|c75f7e5b] (00+05/22) Accurately ripped
Offsetted by 664:
01 [b7148322] (12/25) Accurately ripped
02 [5f1d975a] (11/24) Accurately ripped
03 [aa010136] (11/23) Accurately ripped
04 [8af00da8] (10/23) Accurately ripped
05 [d8d8dcdf] (10/23) Accurately ripped
06 [8ad4686d] (11/23) Accurately ripped
07 [0c827010] (11/23) Accurately ripped
08 [233f9374] (11/23) Accurately ripped
09 [4416ced3] (11/24) Accurately ripped
10 [18b908ea] (11/24) Accurately ripped
11 [77dc6602] (09/22) Accurately ripped

Track Peak [ CRC32 ] [W/O NULL] [ LOG ]
– 99,9 [F94EFAF9] [3E3A874D]
01 99,9 [6FC6754F] [080AF221] CRC32
02 89,3 [1A9EE225] [45B054DA] CRC32
03 96,2 [855F88FA] [FE8703CD] CRC32
04 89,6 [2763CA13] [7FF8CF99] CRC32
05 94,1 [42BD7D76] [22A1F27C] CRC32
06 94,5 [1FE5C6B4] [66002E2B] CRC32
07 97,5 [BE355883] [20DC1A92] CRC32
08 99,0 [2A37CC56] [99F27831] CRC32
09 94,1 [14A34DA3] [25034FFC] CRC32
10 92,3 [0658844F] [681658D8] CRC32
11 99,9 [90AD38D0] [12528922] CRC32

Thanks to DrStandBy

See also:
Nicholas Gunn - 5 Albums (1994-2004)
Nicholas Gunn - Thirty-One Nights (2012)