Subcategories

Nicholas Gunn - Season's Greetings from the Grand Canyon (2005)

Posted By: gribovar
Nicholas Gunn - Season's Greetings from the Grand Canyon (2005)

Nicholas Gunn - Season's Greetings from the Grand Canyon (2005)
EAC Rip | FLAC (tracks+.cue+log) - 240 MB | MP3 CBR 320 kbps (LAME 3.93) - 91 MB | Covers - 113 MB
Genre: New Age | RAR 3% Rec. | Label: Gemini Sun Records (GSR4070)

Celebrate the holiday season and spirit of the Grand Canyon with multi-platinum flautist Nicholas Gunn. These timeless holiday classics include favorites such as Auld Lang Syne, Silent Night, Joy to the World, and Ave Maria along with two original tracks by Nicholas Gunn, "Snowfall on South Rim" and "Memories of the Grand Canyon." Packaging highlights include the photography of renowned Southwestern photographer Michael Fatali.
Tracklist:
01. Auld Lang Syne
02. Snowfall on South Rim
03. Ave Maria
04. Joy to the World
05. God Rest Ye Marry Gentlemen
06. Deck the Halls
07. Hark! the Herald Angels Sing
08. We Three Kings of Orient Are
09. Memories of the Grand Canyon
10. Angels we Have Heard on High
11. Good King Wenceslas
12. Silent Night, Holy Night

Total time: 55:57

Exact Audio Copy V1.0 beta 3 from 29. August 2011

EAC extraction logfile from 1. February 2014, 20:52

Nicholas Gunn / Season's Greetings from the Grand Canyon

Used drive : SlimtypeeTAU108 3 Adapter: 1 ID: 0

Read mode : Secure
Utilize accurate stream : Yes
Defeat audio cache : Yes
Make use of C2 pointers : No

Read offset correction : 6
Overread into Lead-In and Lead-Out : No
Fill up missing offset samples with silence : Yes
Delete leading and trailing silent blocks : No
Null samples used in CRC calculations : Yes
Used interface : Native Win32 interface for Win NT & 2000
Gap handling : Appended to previous track

Used output format : User Defined Encoder
Selected bitrate : 1024 kBit/s
Quality : High
Add ID3 tag : No
Command line compressor : C:\Program Files (x86)\Exact Audio Copy\Flac\flac.exe
Additional command line options : -8 -V -T "ARTIST=%artist%" -T "TITLE=%title%" -T "ALBUM=%albumtitle%" -T "DATE=%year%" -T "TRACKNUMBER=%tracknr%" -T "GENRE=%genre%" -T "COMMENT=ripped by DrStandBy" %source%


TOC of the extracted CD

Track | Start | Length | Start sector | End sector
––––––––––––––––––––––––––––-
1 | 0:00.00 | 4:16.14 | 0 | 19213
2 | 4:16.14 | 4:50.37 | 19214 | 41000
3 | 9:06.51 | 2:45.03 | 41001 | 53378
4 | 11:51.54 | 2:35.64 | 53379 | 65067
5 | 14:27.43 | 2:46.70 | 65068 | 77587
6 | 17:14.38 | 2:03.51 | 77588 | 86863
7 | 19:18.14 | 3:58.24 | 86864 | 104737
8 | 23:16.38 | 3:37.61 | 104738 | 121073
9 | 26:54.24 | 4:05.25 | 121074 | 139473
10 | 30:59.49 | 3:01.33 | 139474 | 153081
11 | 34:01.07 | 1:56.41 | 153082 | 161822
12 | 35:57.48 | 2:47.67 | 161823 | 174414


Track 1

Filename E:\New Age\Nicholas Gunn\2005 - Season's Greetings from the Grand Canyon (Gemini Sun #GSR4070)\01. Nicholas Gunn - Auld Lang Syne.wav

Pre-gap length 0:00:02.00

Peak level 98.8 %
Extraction speed 1.2 X
Track quality 100.0 %
Test CRC C6AD83F1
Copy CRC C6AD83F1
Accurately ripped (confidence 1) [EE2648A2] (AR v1)
Copy OK

Track 2

Filename E:\New Age\Nicholas Gunn\2005 - Season's Greetings from the Grand Canyon (Gemini Sun #GSR4070)\02. Nicholas Gunn - Snowfall on South Rim.wav

Pre-gap length 0:00:00.58

Peak level 98.8 %
Extraction speed 1.2 X
Track quality 99.9 %
Test CRC E6730FCE
Copy CRC E6730FCE
Accurately ripped (confidence 1) [C39F4123] (AR v1)
Copy OK

Track 3

Filename E:\New Age\Nicholas Gunn\2005 - Season's Greetings from the Grand Canyon (Gemini Sun #GSR4070)\03. Nicholas Gunn - Ave Maria.wav

Pre-gap length 0:00:01.08

Peak level 98.8 %
Extraction speed 1.3 X
Track quality 100.0 %
Test CRC D1302076
Copy CRC D1302076
Accurately ripped (confidence 1) [508ECB92] (AR v1)
Copy OK

Track 4

Filename E:\New Age\Nicholas Gunn\2005 - Season's Greetings from the Grand Canyon (Gemini Sun #GSR4070)\04. Nicholas Gunn - Joy to the World.wav

Pre-gap length 0:00:01.45

Peak level 98.8 %
Extraction speed 1.4 X
Track quality 100.0 %
Test CRC EA566F86
Copy CRC EA566F86
Accurately ripped (confidence 1) [066B82A4] (AR v1)
Copy OK

Track 5

Filename E:\New Age\Nicholas Gunn\2005 - Season's Greetings from the Grand Canyon (Gemini Sun #GSR4070)\05. Nicholas Gunn - God Rest Ye Marry Gentlemen.wav

Pre-gap length 0:00:01.74

Peak level 98.8 %
Extraction speed 1.5 X
Track quality 100.0 %
Test CRC 41FECFB2
Copy CRC 41FECFB2
Accurately ripped (confidence 1) [228CA875] (AR v1)
Copy OK

Track 6

Filename E:\New Age\Nicholas Gunn\2005 - Season's Greetings from the Grand Canyon (Gemini Sun #GSR4070)\06. Nicholas Gunn - Deck the Halls.wav

Pre-gap length 0:00:01.41

Peak level 98.8 %
Extraction speed 1.4 X
Track quality 100.0 %
Test CRC 01E1FB94
Copy CRC 01E1FB94
Accurately ripped (confidence 1) [4B8F9426] (AR v1)
Copy OK

Track 7

Filename E:\New Age\Nicholas Gunn\2005 - Season's Greetings from the Grand Canyon (Gemini Sun #GSR4070)\07. Nicholas Gunn - Hark! the Herald Angels Sing.wav

Pre-gap length 0:00:01.50

Peak level 98.8 %
Extraction speed 1.7 X
Track quality 100.0 %
Test CRC 0EF71E87
Copy CRC 0EF71E87
Accurately ripped (confidence 1) [E2729448] (AR v1)
Copy OK

Track 8

Filename E:\New Age\Nicholas Gunn\2005 - Season's Greetings from the Grand Canyon (Gemini Sun #GSR4070)\08. Nicholas Gunn - We Three Kings of Orient Are.wav

Pre-gap length 0:00:02.00

Peak level 98.8 %
Extraction speed 1.5 X
Track quality 99.9 %
Test CRC 9916C164
Copy CRC 9916C164
Accurately ripped (confidence 1) [87603A0F] (AR v1)
Copy OK

Track 9

Filename E:\New Age\Nicholas Gunn\2005 - Season's Greetings from the Grand Canyon (Gemini Sun #GSR4070)\09. Nicholas Gunn - Memories of the Grand Canyon.wav

Pre-gap length 0:00:01.04

Peak level 98.8 %
Extraction speed 1.6 X
Track quality 99.9 %
Test CRC CF33800A
Copy CRC CF33800A
Accurately ripped (confidence 1) [3207DAF5] (AR v1)
Copy OK

Track 10

Filename E:\New Age\Nicholas Gunn\2005 - Season's Greetings from the Grand Canyon (Gemini Sun #GSR4070)\10. Nicholas Gunn - Angels we Have Heard on High.wav

Pre-gap length 0:00:00.46

Peak level 98.9 %
Extraction speed 1.8 X
Track quality 100.0 %
Test CRC 242AFC27
Copy CRC 242AFC27
Accurately ripped (confidence 1) [9C0DD10A] (AR v1)
Copy OK

Track 11

Filename E:\New Age\Nicholas Gunn\2005 - Season's Greetings from the Grand Canyon (Gemini Sun #GSR4070)\11. Nicholas Gunn - Good King Wenceslas.wav

Pre-gap length 0:00:01.53

Peak level 98.8 %
Extraction speed 1.4 X
Track quality 99.9 %
Test CRC 33BB6466
Copy CRC 33BB6466
Accurately ripped (confidence 1) [EC5BD608] (AR v1)
Copy OK

Track 12

Filename E:\New Age\Nicholas Gunn\2005 - Season's Greetings from the Grand Canyon (Gemini Sun #GSR4070)\12. Nicholas Gunn - Silent Night, Holy Night.wav

Pre-gap length 0:00:02.04

Peak level 98.8 %
Extraction speed 1.9 X
Track quality 100.0 %
Test CRC 37569498
Copy CRC 37569498
Accurately ripped (confidence 1) [8AE3743D] (AR v1)
Copy OK


All tracks accurately ripped

No errors occurred

End of status report

–– CUETools DB Plugin V2.1.4

[CTDB TOCID: w2UlIbwXIb5ejJdiku_3u4R9s8E-] disk not present in database
Submit result: w2UlIbwXIb5ejJdiku_3u4R9s8E- has been uploaded


==== Log checksum A23EB33ED958FB73FCA62A1A6AE35EC4CD1075BEB9F63D4C4D7E93108F8AC36A ====

[CUETools log; Date: 28.03.2018 19:52:24; Version: 2.1.4]
[CTDB TOCID: w2UlIbwXIb5ejJdiku_3u4R9s8E-] found.
Track | CTDB Status
1 | (2/2) Accurately ripped
2 | (2/2) Accurately ripped
3 | (2/2) Accurately ripped
4 | (2/2) Accurately ripped
5 | (2/2) Accurately ripped
6 | (2/2) Accurately ripped
7 | (2/2) Accurately ripped
8 | (2/2) Accurately ripped
9 | (2/2) Accurately ripped
10 | (2/2) Accurately ripped
11 | (2/2) Accurately ripped
12 | (2/2) Accurately ripped
[AccurateRip ID: 00124698-00a7af23-a309150c] found.
Track [ CRC | V2 ] Status
01 [ee2648a2|de45ea72] (1+1/2) Accurately ripped
02 [c39f4123|bcef0e10] (1+1/2) Accurately ripped
03 [508ecb92|e57a8f72] (1+1/2) Accurately ripped
04 [066b82a4|5396a955] (1+1/2) Accurately ripped
05 [228ca875|575686f0] (1+1/2) Accurately ripped
06 [4b8f9426|a4376678] (1+1/2) Accurately ripped
07 [e2729448|b740f1b4] (1+1/2) Accurately ripped
08 [87603a0f|89ce28f3] (1+1/2) Accurately ripped
09 [3207daf5|eea3c101] (1+1/2) Accurately ripped
10 [9c0dd10a|70a69cb6] (1+1/2) Accurately ripped
11 [ec5bd608|7411f07c] (1+1/2) Accurately ripped
12 [8ae3743d|e02b1fe7] (1+1/2) Accurately ripped

Track Peak [ CRC32 ] [W/O NULL] [ LOG ]
– 98,9 [7C61BA08] [1D861146]
01 98,8 [C6AD83F1] [12B25AF9] CRC32
02 98,8 [E6730FCE] [B5DEBE5D] CRC32
03 98,8 [D1302076] [2DF8251E] CRC32
04 98,8 [EA566F86] [E20A5A7F] CRC32
05 98,8 [41FECFB2] [C0A26C9E] CRC32
06 98,8 [01E1FB94] [DFE79DB6] CRC32
07 98,8 [0EF71E87] [26ED5951] CRC32
08 98,8 [9916C164] [D14981B2] CRC32
09 98,8 [CF33800A] [7980A72A] CRC32
10 98,9 [242AFC27] [34370E9C] CRC32
11 98,8 [33BB6466] [6BEA9BC4] CRC32
12 98,8 [37569498] [A6FDA11A] CRC32

Thanks to DrStandBy

See also:
Nicholas Gunn - 5 Albums (1994-2004)
Nicholas Gunn - Crossroads (1996)
Nicholas Gunn - Return to Grand Canyon (1999)
Nicholas Gunn - Thirty-One Nights (2012)