Subcategories

Nicholas Gunn - Thirty-One Nights (2012)

Posted By: gribovar
Nicholas Gunn - Thirty-One Nights (2012)

Nicholas Gunn - Thirty-One Nights (2012)
EAC Rip | FLAC (image+.cue+log) - 330 MB | MP3 CBR 320 kbps (LAME 3.93) - 131 MB | Covers - 59 MB
Genre: New Age | RAR 3% Rec. | Label: Spring Hill Music (SHM6061)

Nicholas Gunn spent 31 nights deep in the jungle and on the beautiful shores of Mexico s Yucatan Peninsula. He watched ancient Mayan ruins shimmer against aqua blue waters, witnessed a reverence for a simpler way of life, and emerged with a newfound passion for music. Thirty-One Nights expresses the story of his journey. The real time connection of a scenic, tropical atmosphere gives reflective depth and balance to the 13 songs of serenity that waltz hand in hand with songs rich in auditory intensity. Beautiful acoustic instrumentals and vocals paired with flute are key elements that have made this recollection one of true excitement.
Tracklist:
01. Remember Me Prelude
02. Fiesta Patria
03. Thirty-One Nights
04. The Swallows Of Na' Lu'um
05. Veracruz
06. Condesa
07. Candle Dance
08. Someday
09. Full Moon Over Calle 12
10. Road To Merida
11. On The Shores Of Tulum
12. From Water To Wind
13. Recuerdame

Total time: 55:57

Exact Audio Copy V1.0 beta 3 from 29. August 2011

EAC extraction logfile from 23. November 2012, 19:20

Nicholas Gunn / Thirty-one Nights

Used drive : Optiarc DVD RW AD-7200S Adapter: 1 ID: 0

Read mode : Secure
Utilize accurate stream : Yes
Defeat audio cache : Yes
Make use of C2 pointers : No

Read offset correction : 48
Overread into Lead-In and Lead-Out : No
Fill up missing offset samples with silence : Yes
Delete leading and trailing silent blocks : No
Null samples used in CRC calculations : Yes
Used interface : Native Win32 interface for Win NT & 2000

Used output format : Internal WAV Routines
Sample format : 44.100 Hz; 16 Bit; Stereo


TOC of the extracted CD

Track | Start | Length | Start sector | End sector
––––––––––––––––––––––––––––-
1 | 0:00.00 | 0:51.62 | 0 | 3886
2 | 0:51.62 | 3:14.11 | 3887 | 18447
3 | 4:05.73 | 3:59.73 | 18448 | 36445
4 | 8:05.71 | 5:29.68 | 36446 | 61188
5 | 13:35.64 | 4:28.08 | 61189 | 81296
6 | 18:03.72 | 3:52.54 | 81297 | 98750
7 | 21:56.51 | 4:39.70 | 98751 | 119745
8 | 26:36.46 | 4:00.30 | 119746 | 137775
9 | 30:37.01 | 4:29.14 | 137776 | 157964
10 | 35:06.15 | 5:38.21 | 157965 | 183335
11 | 40:44.36 | 4:36.16 | 183336 | 204051
12 | 45:20.52 | 5:08.17 | 204052 | 227168
13 | 50:28.69 | 5:27.66 | 227169 | 251759
14 | 58:28.60 | 0:49.44 | 263160 | 266878


Range status and errors

Selected range

Filename F:\ХРАНИЛИЩЕ\AUDIO\LOSSLESS\Nicholas Gunn - Thirty-one Nights\Nicholas Gunn - Thirty-one Nights.wav

Peak level 100.0 %
Extraction speed 3.8 X
Range quality 100.0 %
Test CRC 760C53BF
Copy CRC 760C53BF
Copy OK

No errors occurred


AccurateRip summary

Track 1 not present in database
Track 2 not present in database
Track 3 not present in database
Track 4 not present in database
Track 5 not present in database
Track 6 not present in database
Track 7 not present in database
Track 8 not present in database
Track 9 not present in database
Track 10 not present in database
Track 11 not present in database
Track 12 not present in database
Track 13 not present in database

None of the tracks are present in the AccurateRip database

End of status report

–– CUETools DB Plugin V2.1.3

[CTDB TOCID: SMLjqaMxOT72L_GMr85bNFTvp58-] found, Submit result: SMLjqaMxOT72L_GMr85bNFTvp58- has been confirmed
[8a474830] (1/1) Accurately ripped


==== Log checksum 585416B45103AF0ADC7D84A2EB116C43436D393B2997487049D7D9AAE80A47AA ====

[CUETools log; Date: 19.04.2015 7:53:34; Version: 2.1.4]
CD-Extra data track length 00:49:44.
[CTDB TOCID: SMLjqaMxOT72L_GMr85bNFTvp58-] found.
Track | CTDB Status
1 | (3/3) Accurately ripped
2 | (3/3) Accurately ripped
3 | (3/3) Accurately ripped
4 | (3/3) Accurately ripped
5 | (3/3) Accurately ripped
6 | (3/3) Accurately ripped
7 | (3/3) Accurately ripped
8 | (3/3) Accurately ripped
9 | (3/3) Accurately ripped
10 | (3/3) Accurately ripped
11 | (3/3) Accurately ripped
12 | (3/3) Accurately ripped
13 | (3/3) Accurately ripped
[AccurateRip ID: 00185e0d-00fdb288-b80de60e] found.
Track [ CRC | V2 ] Status
01 [b87e256b|8e5841ef] (0+4/4) Accurately ripped
02 [d3c7690d|723d3c26] (0+4/4) Accurately ripped
03 [6d797639|f2988230] (0+4/4) Accurately ripped
04 [5c3b93c3|8fd07ab2] (0+4/4) Accurately ripped
05 [fd71b8cb|c11671bd] (0+4/4) Accurately ripped
06 [90c455e8|3ec69137] (0+4/4) Accurately ripped
07 [f3f29730|9cab2294] (0+4/4) Accurately ripped
08 [c0ca550c|6fc9573f] (0+4/4) Accurately ripped
09 [1df45868|640ec57c] (0+4/4) Accurately ripped
10 [b31adb57|022cd9d9] (0+4/4) Accurately ripped
11 [27ccbe13|57eb1d37] (0+4/4) Accurately ripped
12 [bebd4fa4|f619948d] (0+4/4) Accurately ripped
13 [d2cb25ac|32e21551] (0+4/4) Accurately ripped

Track Peak [ CRC32 ] [W/O NULL] [ LOG ]
– 100,0 [760C53BF] [3070E78E] CRC32
01 60,1 [1A7C283C] [F7895B57]
02 100,0 [8F3D6046] [ED4B8FCD]
03 100,0 [2E0511FE] [7A5DBB06]
04 99,1 [61888B85] [6FB7182D]
05 88,8 [59C4419F] [E681701E]
06 98,6 [86012035] [2F08D3FF]
07 89,1 [91956C69] [1DDC0CF1]
08 99,9 [5C46702E] [F34C958E]
09 100,0 [8FDBA43D] [9030FEB8]
10 100,0 [BFAF1A24] [498358A1]
11 98,8 [632F0C4B] [71EA8F7C]
12 87,8 [3F48576B] [CBC5C334]
13 99,6 [144CF6D8] [A8C8EAB8]

Thanks to Smartyr