Nick Cave - 20,000 Days on Earth (2014)

Posted By: v3122
Nick Cave - 20,000 Days on Earth (2014)

Nick Cave - 20,000 Days on Earth (2014)
Blu-Ray: MPEG-4 AVC Video, 29986 kbps, 1080i, 25 fps, 16:9, High Profile 4.1
DTS-HD MA 5.1, 48 kHz, 4169 kbps, 24-bit (DTS Core: 5.1 / 48 kHz / 1509 kbps / 24-bit)
DTS-HD MA 2.0, 48 kHz, 1732 kbps, 24-bit (DTS Core: 2.0 / 48 kHz / 1509 kbps / 24-bit)
Documentary / Drama / Rock | Scans Included | 02:21:23 | ~ 37.46 Gb

20,000 Days on Earth is a 2014 British documentary musical drama film co-written and directed by Iain Forsyth and Jane Pollard. Nick Cave also co-wrote the script with Forsyth and Pollard. The film premiered in-competition in the World Cinema Documentary Competition at 2014 Sundance Film Festival on 20 January 2014. It won two Awards at the festival.

After its premiere at Sundance Film Festival, Drafthouse Films acquired distribution rights of the film. The film released on 17 September 2014 in United States…

~ wiki
Nick Cave - 20,000 Days on Earth (2014):

Nick Cave - 20,000 Days on Earth (2014)

Tracklist:

1. Film

Extras:
The Making of 20,000 Days on Earth
Theatrical Trailer
Demo Session: See that girl
The Interview: Spasmodic Tail
Studio: Backing vocals
The Interview: Blixa Bargeld
Studio: Jubilee street violin
The Interview: Other worlds
Ray Drive: Fish & chips
The Archive: Mother
Rehearsals: Your funeral… my trial
The Archive: Lists and words
Rehearsals: Stranger than kindness
The Archive: Bronze statue
Live at Koko: Where the wild roses grow - Nick Cave & The Bad Seeds with Kylie Minogue

Disc Title: 20000_DAYS_ON_EARTH
Disc Size: 38 081 280 326 bytes
Protection: AACS
BD-Java: No
Extras: 50Hz Content
BDInfo: 0.5.8

Notes:

BDINFO HOME:
Cinema Squid
http://www.cinemasquid.com/blu-ray/tools/bdinfo

INCLUDES FORUMS REPORT FOR:
AVS Forum Blu-ray Audio and Video Specifications Thread
http://www.avsforum.com/avs-vb/showthread.php?t=1155731

WARNING: Report is incomplete because: Scan has not been run.

********************
PLAYLIST: 00001.MPLS
********************

<–- BEGIN FORUMS PASTE –->
                                                                                                                Total   Video                                             
Title                                                           Codec   Length  Movie Size      Disc Size       Bitrate Bitrate Main Audio Track                          Secondary Audio Track
-----                                                           ------  ------- --------------  --------------  ------- ------- ------------------                        ---------------------
00001.MPLS                                                      AVC     1:33:21 0               38 081 280 326  0,00    0,00    DTS-HD Master 5.1 (48kHz/24-bit)          


DISC INFO:

Disc Title:     20000_DAYS_ON_EARTH
Disc Size:      38 081 280 326 bytes
Protection:     AACS
BD-Java:        No
Extras:         50Hz Content
BDInfo:         0.5.8

PLAYLIST REPORT:

Name:                   00001.MPLS
Length:                 1:33:21.040 (h:m:s.ms)
Size:                   0 bytes
Total Bitrate:          0,00 Mbps

VIDEO:

Codec                   Bitrate             Description     
-----                   -------             -----------     
MPEG-4 AVC Video        0 kbps              1080i / 25 fps / 16:9 / High Profile 4.1

AUDIO:

Codec                           Language        Bitrate         Description     
-----                           --------        -------         -----------     
DTS-HD Master Audio             English         0 kbps          5.1 / 48 kHz / 24-bit (DTS Core: 5.1 / 48 kHz / 1509 kbps / 24-bit)

SUBTITLES:

Codec                           Language        Bitrate         Description     
-----                           --------        -------         -----------     
Presentation Graphics           English         0,000 kbps                      
Presentation Graphics           Dutch           0,000 kbps                      

FILES:

Name            Time In         Length          Size            Total Bitrate   
----            -------         ------          ----            -------------   
00002.M2TS      0:00:00.000     1:33:21.040     0               0               

CHAPTERS:

Number          Time In         Length          Avg Video Rate  Max 1-Sec Rate  Max 1-Sec Time  Max 5-Sec Rate  Max 5-Sec Time  Max 10Sec Rate  Max 10Sec Time  Avg Frame Size  Max Frame Size  Max Frame Time  
------          -------         ------          --------------  --------------  --------------  --------------  --------------  --------------  --------------  --------------  --------------  --------------  
1               0:00:00.000     0:07:16.680     0 kbps          0 kbps          00:00:00.000    0 kbps          00:00:00.000    0 kbps          00:00:00.000    0 bytes         0 bytes         00:00:00.000    
2               0:07:16.680     0:03:35.440     0 kbps          0 kbps          00:00:00.000    0 kbps          00:00:00.000    0 kbps          00:00:00.000    0 bytes         0 bytes         00:00:00.000    
3               0:10:52.120     0:03:06.320     0 kbps          0 kbps          00:00:00.000    0 kbps          00:00:00.000    0 kbps          00:00:00.000    0 bytes         0 bytes         00:00:00.000    
4               0:13:58.440     0:02:07.159     0 kbps          0 kbps          00:00:00.000    0 kbps          00:00:00.000    0 kbps          00:00:00.000    0 bytes         0 bytes         00:00:00.000    
5               0:16:05.600     0:04:27.919     0 kbps          0 kbps          00:00:00.000    0 kbps          00:00:00.000    0 kbps          00:00:00.000    0 bytes         0 bytes         00:00:00.000    
6               0:20:33.520     0:08:27.920     0 kbps          0 kbps          00:00:00.000    0 kbps          00:00:00.000    0 kbps          00:00:00.000    0 bytes         0 bytes         00:00:00.000    
7               0:29:01.440     0:04:10.639     0 kbps          0 kbps          00:00:00.000    0 kbps          00:00:00.000    0 kbps          00:00:00.000    0 bytes         0 bytes         00:00:00.000    
8               0:33:12.080     0:07:24.079     0 kbps          0 kbps          00:00:00.000    0 kbps          00:00:00.000    0 kbps          00:00:00.000    0 bytes         0 bytes         00:00:00.000    
9               0:40:36.160     0:10:02.360     0 kbps          0 kbps          00:00:00.000    0 kbps          00:00:00.000    0 kbps          00:00:00.000    0 bytes         0 bytes         00:00:00.000    
10              0:50:38.520     0:09:44.439     0 kbps          0 kbps          00:00:00.000    0 kbps          00:00:00.000    0 kbps          00:00:00.000    0 bytes         0 bytes         00:00:00.000    
11              1:00:22.960     0:05:07.079     0 kbps          0 kbps          00:00:00.000    0 kbps          00:00:00.000    0 kbps          00:00:00.000    0 bytes         0 bytes         00:00:00.000    
12              1:05:30.040     0:05:51.560     0 kbps          0 kbps          00:00:00.000    0 kbps          00:00:00.000    0 kbps          00:00:00.000    0 bytes         0 bytes         00:00:00.000    
13              1:11:21.600     0:03:55.760     0 kbps          0 kbps          00:00:00.000    0 kbps          00:00:00.000    0 kbps          00:00:00.000    0 bytes         0 bytes         00:00:00.000    
14              1:15:17.360     0:01:46.719     0 kbps          0 kbps          00:00:00.000    0 kbps          00:00:00.000    0 kbps          00:00:00.000    0 bytes         0 bytes         00:00:00.000    
15              1:17:04.080     0:03:10.159     0 kbps          0 kbps          00:00:00.000    0 kbps          00:00:00.000    0 kbps          00:00:00.000    0 bytes         0 bytes         00:00:00.000    
16              1:20:14.240     0:06:49.080     0 kbps          0 kbps          00:00:00.000    0 kbps          00:00:00.000    0 kbps          00:00:00.000    0 bytes         0 bytes         00:00:00.000    
17              1:27:03.320     0:06:17.719     0 kbps          0 kbps          00:00:00.000    0 kbps          00:00:00.000    0 kbps          00:00:00.000    0 bytes         0 bytes         00:00:00.000    

STREAM DIAGNOSTICS:

File            PID             Type            Codec           Language                Seconds                 Bitrate                 Bytes           Packets         
----            ---             ----            -----           --------                --------------          --------------          -------------   -----           
00002.M2TS      4113 (0x1011)   0x1B            AVC                                     0                       0                       0               0               
00002.M2TS      4352 (0x1100)   0x86            DTS-HD MA       eng (English)           0                       0                       0               0               
00002.M2TS      4608 (0x1200)   0x90            PGS             eng (English)           0                       0                       0               0               
00002.M2TS      4609 (0x1201)   0x90            PGS             nld (Dutch)             0                       0                       0               0               

<–– END FORUMS PASTE ––>

QUICK SUMMARY:

Disc Title: 20000_DAYS_ON_EARTH
Disc Size: 38 081 280 326 bytes
Protection: AACS
BD-Java: No
Playlist: 00001.MPLS
Size: 0 bytes
Length: 1:33:21.040
Total Bitrate: 0,00 Mbps
Video: MPEG-4 AVC Video / 0 kbps / 1080i / 25 fps / 16:9 / High Profile 4.1
Audio: English / DTS-HD Master Audio / 5.1 / 48 kHz / 24-bit (DTS Core: 5.1 / 48 kHz / 1509 kbps / 24-bit)
Subtitle: English / 0,000 kbps
Subtitle: Dutch / 0,000 kbps


********************
PLAYLIST: 00022.MPLS
********************

<–- BEGIN FORUMS PASTE –->
                                                                                                                Total   Video                                             
Title                                                           Codec   Length  Movie Size      Disc Size       Bitrate Bitrate Main Audio Track                          Secondary Audio Track
-----                                                           ------  ------- --------------  --------------  ------- ------- ------------------                        ---------------------
00022.MPLS                                                      AVC     0:33:10 0               38 081 280 326  0,00    0,00    DTS-HD Master 2.0 (48kHz/24-bit)          


DISC INFO:

Disc Title:     20000_DAYS_ON_EARTH
Disc Size:      38 081 280 326 bytes
Protection:     AACS
BD-Java:        No
Extras:         50Hz Content
BDInfo:         0.5.8

PLAYLIST REPORT:

Name:                   00022.MPLS
Length:                 0:33:10.440 (h:m:s.ms)
Size:                   0 bytes
Total Bitrate:          0,00 Mbps

VIDEO:

Codec                   Bitrate             Description     
-----                   -------             -----------     
MPEG-4 AVC Video        0 kbps              1080i / 25 fps / 16:9 / High Profile 4.1

AUDIO:

Codec                           Language        Bitrate         Description     
-----                           --------        -------         -----------     
DTS-HD Master Audio             English         0 kbps          2.0 / 48 kHz / 24-bit (DTS Core: 2.0 / 48 kHz / 1509 kbps / 24-bit)

SUBTITLES:

Codec                           Language        Bitrate         Description     
-----                           --------        -------         -----------     
Presentation Graphics           English         0,000 kbps                      

FILES:

Name            Time In         Length          Size            Total Bitrate   
----            -------         ------          ----            -------------   
00006.M2TS      0:00:00.000     0:03:07.640     0               0               
00010.M2TS      0:03:07.640     0:03:23.000     0               0               
00004.M2TS      0:06:30.640     0:01:04.240     0               0               
00012.M2TS      0:07:34.880     0:03:04.919     0               0               
00003.M2TS      0:10:39.800     0:02:16.400     0               0               
00011.M2TS      0:12:56.199     0:02:28.600     0               0               
00008.M2TS      0:15:24.800     0:01:31.560     0               0               
00014.M2TS      0:16:56.359     0:00:53.320     0               0               
00007.M2TS      0:17:49.679     0:04:02.240     0               0               
00015.M2TS      0:21:51.919     0:01:30.200     0               0               
00005.M2TS      0:23:22.119     0:03:02.400     0               0               
00016.M2TS      0:26:24.520     0:01:51.680     0               0               
00009.M2TS      0:28:16.200     0:04:54.240     0               0               

CHAPTERS:

Number          Time In         Length          Avg Video Rate  Max 1-Sec Rate  Max 1-Sec Time  Max 5-Sec Rate  Max 5-Sec Time  Max 10Sec Rate  Max 10Sec Time  Avg Frame Size  Max Frame Size  Max Frame Time  
------          -------         ------          --------------  --------------  --------------  --------------  --------------  --------------  --------------  --------------  --------------  --------------  
1               0:00:00.000     0:03:07.640     0 kbps          0 kbps          00:00:00.000    0 kbps          00:00:00.000    0 kbps          00:00:00.000    0 bytes         0 bytes         00:00:00.000    
2               0:03:07.640     0:03:22.999     0 kbps          0 kbps          00:00:00.000    0 kbps          00:00:00.000    0 kbps          00:00:00.000    0 bytes         0 bytes         00:00:00.000    
3               0:06:30.640     0:01:04.240     0 kbps          0 kbps          00:00:00.000    0 kbps          00:00:00.000    0 kbps          00:00:00.000    0 bytes         0 bytes         00:00:00.000    
4               0:07:34.880     0:03:04.919     0 kbps          0 kbps          00:00:00.000    0 kbps          00:00:00.000    0 kbps          00:00:00.000    0 bytes         0 bytes         00:00:00.000    
5               0:10:39.800     0:02:16.399     0 kbps          0 kbps          00:00:00.000    0 kbps          00:00:00.000    0 kbps          00:00:00.000    0 bytes         0 bytes         00:00:00.000    
6               0:12:56.199     0:02:28.600     0 kbps          0 kbps          00:00:00.000    0 kbps          00:00:00.000    0 kbps          00:00:00.000    0 bytes         0 bytes         00:00:00.000    
7               0:15:24.800     0:01:31.559     0 kbps          0 kbps          00:00:00.000    0 kbps          00:00:00.000    0 kbps          00:00:00.000    0 bytes         0 bytes         00:00:00.000    
8               0:16:56.359     0:00:53.319     0 kbps          0 kbps          00:00:00.000    0 kbps          00:00:00.000    0 kbps          00:00:00.000    0 bytes         0 bytes         00:00:00.000    
9               0:17:49.679     0:04:02.240     0 kbps          0 kbps          00:00:00.000    0 kbps          00:00:00.000    0 kbps          00:00:00.000    0 bytes         0 bytes         00:00:00.000    
10              0:21:51.919     0:01:30.200     0 kbps          0 kbps          00:00:00.000    0 kbps          00:00:00.000    0 kbps          00:00:00.000    0 bytes         0 bytes         00:00:00.000    
11              0:23:22.119     0:03:02.400     0 kbps          0 kbps          00:00:00.000    0 kbps          00:00:00.000    0 kbps          00:00:00.000    0 bytes         0 bytes         00:00:00.000    
12              0:26:24.520     0:01:51.680     0 kbps          0 kbps          00:00:00.000    0 kbps          00:00:00.000    0 kbps          00:00:00.000    0 bytes         0 bytes         00:00:00.000    
13              0:28:16.200     0:04:54.240     0 kbps          0 kbps          00:00:00.000    0 kbps          00:00:00.000    0 kbps          00:00:00.000    0 bytes         0 bytes         00:00:00.000    

STREAM DIAGNOSTICS:

File            PID             Type            Codec           Language                Seconds                 Bitrate                 Bytes           Packets         
----            ---             ----            -----           --------                --------------          --------------          -------------   -----           
00006.M2TS      4113 (0x1011)   0x1B            AVC                                     0                       0                       0               0               
00006.M2TS      4352 (0x1100)   0x86            DTS-HD MA       eng (English)           0                       0                       0               0               
00006.M2TS      4608 (0x1200)   0x90            PGS             eng (English)           0                       0                       0               0               
00010.M2TS      4113 (0x1011)   0x1B            AVC                                     0,840                   0                       0               0               
00010.M2TS      4352 (0x1100)   0x86            DTS-HD MA       eng (English)           0,840                   0                       0               0               
00010.M2TS      4608 (0x1200)   0x90            PGS             eng (English)           0,840                   0                       0               0               
00004.M2TS      4113 (0x1011)   0x1B            AVC                                     0,840                   0                       0               0               
00004.M2TS      4352 (0x1100)   0x86            DTS-HD MA       eng (English)           0,840                   0                       0               0               
00004.M2TS      4608 (0x1200)   0x90            PGS             eng (English)           0,840                   0                       0               0               
00012.M2TS      4113 (0x1011)   0x1B            AVC                                     0,840                   0                       0               0               
00012.M2TS      4352 (0x1100)   0x86            DTS-HD MA       eng (English)           0,840                   0                       0               0               
00012.M2TS      4608 (0x1200)   0x90            PGS             eng (English)           0,840                   0                       0               0               
00003.M2TS      4113 (0x1011)   0x1B            AVC                                     0,840                   0                       0               0               
00003.M2TS      4352 (0x1100)   0x86            DTS-HD MA       eng (English)           0,840                   0                       0               0               
00003.M2TS      4608 (0x1200)   0x90            PGS             eng (English)           0,840                   0                       0               0               
00011.M2TS      4113 (0x1011)   0x1B            AVC                                     0,840                   0                       0               0               
00011.M2TS      4352 (0x1100)   0x86            DTS-HD MA       eng (English)           0,840                   0                       0               0               
00011.M2TS      4608 (0x1200)   0x90            PGS             eng (English)           0,840                   0                       0               0               
00008.M2TS      4113 (0x1011)   0x1B            AVC                                     0,840                   0                       0               0               
00008.M2TS      4352 (0x1100)   0x86            DTS-HD MA       eng (English)           0,840                   0                       0               0               
00008.M2TS      4608 (0x1200)   0x90            PGS             eng (English)           0,840                   0                       0               0               
00014.M2TS      4113 (0x1011)   0x1B            AVC                                     0,840                   0                       0               0               
00014.M2TS      4352 (0x1100)   0x86            DTS-HD MA       eng (English)           0,840                   0                       0               0               
00014.M2TS      4608 (0x1200)   0x90            PGS             eng (English)           0,840                   0                       0               0               
00007.M2TS      4113 (0x1011)   0x1B            AVC                                     0,840                   0                       0               0               
00007.M2TS      4352 (0x1100)   0x86            DTS-HD MA       eng (English)           0,840                   0                       0               0               
00007.M2TS      4608 (0x1200)   0x90            PGS             eng (English)           0,840                   0                       0               0               
00015.M2TS      4113 (0x1011)   0x1B            AVC                                     0,840                   0                       0               0               
00015.M2TS      4352 (0x1100)   0x86            DTS-HD MA       eng (English)           0,840                   0                       0               0               
00015.M2TS      4608 (0x1200)   0x90            PGS             eng (English)           0,840                   0                       0               0               
00005.M2TS      4113 (0x1011)   0x1B            AVC                                     0,840                   0                       0               0               
00005.M2TS      4352 (0x1100)   0x86            DTS-HD MA       eng (English)           0,840                   0                       0               0               
00005.M2TS      4608 (0x1200)   0x90            PGS             eng (English)           0,840                   0                       0               0               
00016.M2TS      4113 (0x1011)   0x1B            AVC                                     0,840                   0                       0               0               
00016.M2TS      4352 (0x1100)   0x86            DTS-HD MA       eng (English)           0,840                   0                       0               0               
00016.M2TS      4608 (0x1200)   0x90            PGS             eng (English)           0,840                   0                       0               0               
00009.M2TS      4113 (0x1011)   0x1B            AVC                                     0,840                   0                       0               0               
00009.M2TS      4352 (0x1100)   0x86            DTS-HD MA       eng (English)           0,840                   0                       0               0               
00009.M2TS      4608 (0x1200)   0x90            PGS             eng (English)           0,840                   0                       0               0               

<–– END FORUMS PASTE ––>

QUICK SUMMARY:

Disc Title: 20000_DAYS_ON_EARTH
Disc Size: 38 081 280 326 bytes
Protection: AACS
BD-Java: No
Playlist: 00022.MPLS
Size: 0 bytes
Length: 0:33:10.440
Total Bitrate: 0,00 Mbps
Video: MPEG-4 AVC Video / 0 kbps / 1080i / 25 fps / 16:9 / High Profile 4.1
Audio: English / DTS-HD Master Audio / 2.0 / 48 kHz / 24-bit (DTS Core: 2.0 / 48 kHz / 1509 kbps / 24-bit)
Subtitle: English / 0,000 kbps


********************
PLAYLIST: 00008.MPLS
********************

<–- BEGIN FORUMS PASTE –->
                                                                                                                Total   Video                                             
Title                                                           Codec   Length  Movie Size      Disc Size       Bitrate Bitrate Main Audio Track                          Secondary Audio Track
-----                                                           ------  ------- --------------  --------------  ------- ------- ------------------                        ---------------------
00008.MPLS                                                      AVC     0:04:54 0               38 081 280 326  0,00    0,00    DTS-HD Master 2.0 (48kHz/24-bit)          


DISC INFO:

Disc Title:     20000_DAYS_ON_EARTH
Disc Size:      38 081 280 326 bytes
Protection:     AACS
BD-Java:        No
Extras:         50Hz Content
BDInfo:         0.5.8

PLAYLIST REPORT:

Name:                   00008.MPLS
Length:                 0:04:54.240 (h:m:s.ms)
Size:                   0 bytes
Total Bitrate:          0,00 Mbps

VIDEO:

Codec                   Bitrate             Description     
-----                   -------             -----------     
MPEG-4 AVC Video        0 kbps              1080i / 25 fps / 16:9 / High Profile 4.1

AUDIO:

Codec                           Language        Bitrate         Description     
-----                           --------        -------         -----------     
DTS-HD Master Audio             English         0 kbps          2.0 / 48 kHz / 24-bit (DTS Core: 2.0 / 48 kHz / 1509 kbps / 24-bit)

SUBTITLES:

Codec                           Language        Bitrate         Description     
-----                           --------        -------         -----------     
Presentation Graphics           English         0,000 kbps                      

FILES:

Name            Time In         Length          Size            Total Bitrate   
----            -------         ------          ----            -------------   
00009.M2TS      0:00:00.000     0:04:54.240     0               0               

CHAPTERS:

Number          Time In         Length          Avg Video Rate  Max 1-Sec Rate  Max 1-Sec Time  Max 5-Sec Rate  Max 5-Sec Time  Max 10Sec Rate  Max 10Sec Time  Avg Frame Size  Max Frame Size  Max Frame Time  
------          -------         ------          --------------  --------------  --------------  --------------  --------------  --------------  --------------  --------------  --------------  --------------  
1               0:00:00.000     0:04:54.240     0 kbps          0 kbps          00:00:00.000    0 kbps          00:00:00.000    0 kbps          00:00:00.000    0 bytes         0 bytes         00:00:00.000    

STREAM DIAGNOSTICS:

File            PID             Type            Codec           Language                Seconds                 Bitrate                 Bytes           Packets         
----            ---             ----            -----           --------                --------------          --------------          -------------   -----           
00009.M2TS      4113 (0x1011)   0x1B            AVC                                     0,840                   0                       0               0               
00009.M2TS      4352 (0x1100)   0x86            DTS-HD MA       eng (English)           0,840                   0                       0               0               
00009.M2TS      4608 (0x1200)   0x90            PGS             eng (English)           0,840                   0                       0               0               

<–– END FORUMS PASTE ––>

QUICK SUMMARY:

Disc Title: 20000_DAYS_ON_EARTH
Disc Size: 38 081 280 326 bytes
Protection: AACS
BD-Java: No
Playlist: 00008.MPLS
Size: 0 bytes
Length: 0:04:54.240
Total Bitrate: 0,00 Mbps
Video: MPEG-4 AVC Video / 0 kbps / 1080i / 25 fps / 16:9 / High Profile 4.1
Audio: English / DTS-HD Master Audio / 2.0 / 48 kHz / 24-bit (DTS Core: 2.0 / 48 kHz / 1509 kbps / 24-bit)
Subtitle: English / 0,000 kbps


********************
PLAYLIST: 00006.MPLS
********************

<–- BEGIN FORUMS PASTE –->
                                                                                                                Total   Video                                             
Title                                                           Codec   Length  Movie Size      Disc Size       Bitrate Bitrate Main Audio Track                          Secondary Audio Track
-----                                                           ------  ------- --------------  --------------  ------- ------- ------------------                        ---------------------
00006.MPLS                                                      AVC     0:04:02 0               38 081 280 326  0,00    0,00    DTS-HD Master 2.0 (48kHz/24-bit)          


DISC INFO:

Disc Title:     20000_DAYS_ON_EARTH
Disc Size:      38 081 280 326 bytes
Protection:     AACS
BD-Java:        No
Extras:         50Hz Content
BDInfo:         0.5.8

PLAYLIST REPORT:

Name:                   00006.MPLS
Length:                 0:04:02.240 (h:m:s.ms)
Size:                   0 bytes
Total Bitrate:          0,00 Mbps

VIDEO:

Codec                   Bitrate             Description     
-----                   -------             -----------     
MPEG-4 AVC Video        0 kbps              1080i / 25 fps / 16:9 / High Profile 4.1

AUDIO:

Codec                           Language        Bitrate         Description     
-----                           --------        -------         -----------     
DTS-HD Master Audio             English         0 kbps          2.0 / 48 kHz / 24-bit (DTS Core: 2.0 / 48 kHz / 1509 kbps / 24-bit)

SUBTITLES:

Codec                           Language        Bitrate         Description     
-----                           --------        -------         -----------     
Presentation Graphics           English         0,000 kbps                      

FILES:

Name            Time In         Length          Size            Total Bitrate   
----            -------         ------          ----            -------------   
00007.M2TS      0:00:00.000     0:04:02.240     0               0               

CHAPTERS:

Number          Time In         Length          Avg Video Rate  Max 1-Sec Rate  Max 1-Sec Time  Max 5-Sec Rate  Max 5-Sec Time  Max 10Sec Rate  Max 10Sec Time  Avg Frame Size  Max Frame Size  Max Frame Time  
------          -------         ------          --------------  --------------  --------------  --------------  --------------  --------------  --------------  --------------  --------------  --------------  
1               0:00:00.000     0:04:02.240     0 kbps          0 kbps          00:00:00.000    0 kbps          00:00:00.000    0 kbps          00:00:00.000    0 bytes         0 bytes         00:00:00.000    

STREAM DIAGNOSTICS:

File            PID             Type            Codec           Language                Seconds                 Bitrate                 Bytes           Packets         
----            ---             ----            -----           --------                --------------          --------------          -------------   -----           
00007.M2TS      4113 (0x1011)   0x1B            AVC                                     0,840                   0                       0               0               
00007.M2TS      4352 (0x1100)   0x86            DTS-HD MA       eng (English)           0,840                   0                       0               0               
00007.M2TS      4608 (0x1200)   0x90            PGS             eng (English)           0,840                   0                       0               0               

<–– END FORUMS PASTE ––>

QUICK SUMMARY:

Disc Title: 20000_DAYS_ON_EARTH
Disc Size: 38 081 280 326 bytes
Protection: AACS
BD-Java: No
Playlist: 00006.MPLS
Size: 0 bytes
Length: 0:04:02.240
Total Bitrate: 0,00 Mbps
Video: MPEG-4 AVC Video / 0 kbps / 1080i / 25 fps / 16:9 / High Profile 4.1
Audio: English / DTS-HD Master Audio / 2.0 / 48 kHz / 24-bit (DTS Core: 2.0 / 48 kHz / 1509 kbps / 24-bit)
Subtitle: English / 0,000 kbps


********************
PLAYLIST: 00011.MPLS
********************

<–- BEGIN FORUMS PASTE –->
                                                                                                                Total   Video                                             
Title                                                           Codec   Length  Movie Size      Disc Size       Bitrate Bitrate Main Audio Track                          Secondary Audio Track
-----                                                           ------  ------- --------------  --------------  ------- ------- ------------------                        ---------------------
00011.MPLS                                                      AVC     0:03:23 0               38 081 280 326  0,00    0,00    DTS-HD Master 2.0 (48kHz/24-bit)          


DISC INFO:

Disc Title:     20000_DAYS_ON_EARTH
Disc Size:      38 081 280 326 bytes
Protection:     AACS
BD-Java:        No
Extras:         50Hz Content
BDInfo:         0.5.8

PLAYLIST REPORT:

Name:                   00011.MPLS
Length:                 0:03:23.000 (h:m:s.ms)
Size:                   0 bytes
Total Bitrate:          0,00 Mbps

VIDEO:

Codec                   Bitrate             Description     
-----                   -------             -----------     
MPEG-4 AVC Video        0 kbps              1080i / 25 fps / 16:9 / High Profile 4.1

AUDIO:

Codec                           Language        Bitrate         Description     
-----                           --------        -------         -----------     
DTS-HD Master Audio             English         0 kbps          2.0 / 48 kHz / 24-bit (DTS Core: 2.0 / 48 kHz / 1509 kbps / 24-bit)

SUBTITLES:

Codec                           Language        Bitrate         Description     
-----                           --------        -------         -----------     
Presentation Graphics           English         0,000 kbps                      

FILES:

Name            Time In         Length          Size            Total Bitrate   
----            -------         ------          ----            -------------   
00010.M2TS      0:00:00.000     0:03:23.000     0               0               

CHAPTERS:

Number          Time In         Length          Avg Video Rate  Max 1-Sec Rate  Max 1-Sec Time  Max 5-Sec Rate  Max 5-Sec Time  Max 10Sec Rate  Max 10Sec Time  Avg Frame Size  Max Frame Size  Max Frame Time  
------          -------         ------          --------------  --------------  --------------  --------------  --------------  --------------  --------------  --------------  --------------  --------------  
1               0:00:00.000     0:03:23.000     0 kbps          0 kbps          00:00:00.000    0 kbps          00:00:00.000    0 kbps          00:00:00.000    0 bytes         0 bytes         00:00:00.000    

STREAM DIAGNOSTICS:

File            PID             Type            Codec           Language                Seconds                 Bitrate                 Bytes           Packets         
----            ---             ----            -----           --------                --------------          --------------          -------------   -----           
00010.M2TS      4113 (0x1011)   0x1B            AVC                                     0,840                   0                       0               0               
00010.M2TS      4352 (0x1100)   0x86            DTS-HD MA       eng (English)           0,840                   0                       0               0               
00010.M2TS      4608 (0x1200)   0x90            PGS             eng (English)           0,840                   0                       0               0               

<–– END FORUMS PASTE ––>

QUICK SUMMARY:

Disc Title: 20000_DAYS_ON_EARTH
Disc Size: 38 081 280 326 bytes
Protection: AACS
BD-Java: No
Playlist: 00011.MPLS
Size: 0 bytes
Length: 0:03:23.000
Total Bitrate: 0,00 Mbps
Video: MPEG-4 AVC Video / 0 kbps / 1080i / 25 fps / 16:9 / High Profile 4.1
Audio: English / DTS-HD Master Audio / 2.0 / 48 kHz / 24-bit (DTS Core: 2.0 / 48 kHz / 1509 kbps / 24-bit)
Subtitle: English / 0,000 kbps


********************
PLAYLIST: 00005.MPLS
********************

<–- BEGIN FORUMS PASTE –->
                                                                                                                Total   Video                                             
Title                                                           Codec   Length  Movie Size      Disc Size       Bitrate Bitrate Main Audio Track                          Secondary Audio Track
-----                                                           ------  ------- --------------  --------------  ------- ------- ------------------                        ---------------------
00005.MPLS                                                      AVC     0:03:07 0               38 081 280 326  0,00    0,00    DTS-HD Master 2.0 (48kHz/24-bit)          


DISC INFO:

Disc Title:     20000_DAYS_ON_EARTH
Disc Size:      38 081 280 326 bytes
Protection:     AACS
BD-Java:        No
Extras:         50Hz Content
BDInfo:         0.5.8

PLAYLIST REPORT:

Name:                   00005.MPLS
Length:                 0:03:07.640 (h:m:s.ms)
Size:                   0 bytes
Total Bitrate:          0,00 Mbps

VIDEO:

Codec                   Bitrate             Description     
-----                   -------             -----------     
MPEG-4 AVC Video        0 kbps              1080i / 25 fps / 16:9 / High Profile 4.1

AUDIO:

Codec                           Language        Bitrate         Description     
-----                           --------        -------         -----------     
DTS-HD Master Audio             English         0 kbps          2.0 / 48 kHz / 24-bit (DTS Core: 2.0 / 48 kHz / 1509 kbps / 24-bit)

SUBTITLES:

Codec                           Language        Bitrate         Description     
-----                           --------        -------         -----------     
Presentation Graphics           English         0,000 kbps                      

FILES:

Name            Time In         Length          Size            Total Bitrate   
----            -------         ------          ----            -------------   
00006.M2TS      0:00:00.000     0:03:07.640     0               0               

CHAPTERS:

Number          Time In         Length          Avg Video Rate  Max 1-Sec Rate  Max 1-Sec Time  Max 5-Sec Rate  Max 5-Sec Time  Max 10Sec Rate  Max 10Sec Time  Avg Frame Size  Max Frame Size  Max Frame Time  
------          -------         ------          --------------  --------------  --------------  --------------  --------------  --------------  --------------  --------------  --------------  --------------  
1               0:00:00.000     0:03:07.640     0 kbps          0 kbps          00:00:00.000    0 kbps          00:00:00.000    0 kbps          00:00:00.000    0 bytes         0 bytes         00:00:00.000    

STREAM DIAGNOSTICS:

File            PID             Type            Codec           Language                Seconds                 Bitrate                 Bytes           Packets         
----            ---             ----            -----           --------                --------------          --------------          -------------   -----           
00006.M2TS      4113 (0x1011)   0x1B            AVC                                     0                       0                       0               0               
00006.M2TS      4352 (0x1100)   0x86            DTS-HD MA       eng (English)           0                       0                       0               0               
00006.M2TS      4608 (0x1200)   0x90            PGS             eng (English)           0                       0                       0               0               

<–– END FORUMS PASTE ––>

QUICK SUMMARY:

Disc Title: 20000_DAYS_ON_EARTH
Disc Size: 38 081 280 326 bytes
Protection: AACS
BD-Java: No
Playlist: 00005.MPLS
Size: 0 bytes
Length: 0:03:07.640
Total Bitrate: 0,00 Mbps
Video: MPEG-4 AVC Video / 0 kbps / 1080i / 25 fps / 16:9 / High Profile 4.1
Audio: English / DTS-HD Master Audio / 2.0 / 48 kHz / 24-bit (DTS Core: 2.0 / 48 kHz / 1509 kbps / 24-bit)
Subtitle: English / 0,000 kbps


********************
PLAYLIST: 00013.MPLS
********************

<–- BEGIN FORUMS PASTE –->
                                                                                                                Total   Video                                             
Title                                                           Codec   Length  Movie Size      Disc Size       Bitrate Bitrate Main Audio Track                          Secondary Audio Track
-----                                                           ------  ------- --------------  --------------  ------- ------- ------------------                        ---------------------
00013.MPLS                                                      AVC     0:03:04 0               38 081 280 326  0,00    0,00    DTS-HD Master 2.0 (48kHz/24-bit)          


DISC INFO:

Disc Title:     20000_DAYS_ON_EARTH
Disc Size:      38 081 280 326 bytes
Protection:     AACS
BD-Java:        No
Extras:         50Hz Content
BDInfo:         0.5.8

PLAYLIST REPORT:

Name:                   00013.MPLS
Length:                 0:03:04.919 (h:m:s.ms)
Size:                   0 bytes
Total Bitrate:          0,00 Mbps

VIDEO:

Codec                   Bitrate             Description     
-----                   -------             -----------     
MPEG-4 AVC Video        0 kbps              1080i / 25 fps / 16:9 / High Profile 4.1

AUDIO:

Codec                           Language        Bitrate         Description     
-----                           --------        -------         -----------     
DTS-HD Master Audio             English         0 kbps          2.0 / 48 kHz / 24-bit (DTS Core: 2.0 / 48 kHz / 1509 kbps / 24-bit)

SUBTITLES:

Codec                           Language        Bitrate         Description     
-----                           --------        -------         -----------     
Presentation Graphics           English         0,000 kbps                      

FILES:

Name            Time In         Length          Size            Total Bitrate   
----            -------         ------          ----            -------------   
00012.M2TS      0:00:00.000     0:03:04.919     0               0               

CHAPTERS:

Number          Time In         Length          Avg Video Rate  Max 1-Sec Rate  Max 1-Sec Time  Max 5-Sec Rate  Max 5-Sec Time  Max 10Sec Rate  Max 10Sec Time  Avg Frame Size  Max Frame Size  Max Frame Time  
------          -------         ------          --------------  --------------  --------------  --------------  --------------  --------------  --------------  --------------  --------------  --------------  
1               0:00:00.000     0:03:04.919     0 kbps          0 kbps          00:00:00.000    0 kbps          00:00:00.000    0 kbps          00:00:00.000    0 bytes         0 bytes         00:00:00.000    

STREAM DIAGNOSTICS:

File            PID             Type            Codec           Language                Seconds                 Bitrate                 Bytes           Packets         
----            ---             ----            -----           --------                --------------          --------------          -------------   -----           
00012.M2TS      4113 (0x1011)   0x1B            AVC                                     0,840                   0                       0               0               
00012.M2TS      4352 (0x1100)   0x86            DTS-HD MA       eng (English)           0,840                   0                       0               0               
00012.M2TS      4608 (0x1200)   0x90            PGS             eng (English)           0,840                   0                       0               0               

<–– END FORUMS PASTE ––>

QUICK SUMMARY:

Disc Title: 20000_DAYS_ON_EARTH
Disc Size: 38 081 280 326 bytes
Protection: AACS
BD-Java: No
Playlist: 00013.MPLS
Size: 0 bytes
Length: 0:03:04.919
Total Bitrate: 0,00 Mbps
Video: MPEG-4 AVC Video / 0 kbps / 1080i / 25 fps / 16:9 / High Profile 4.1
Audio: English / DTS-HD Master Audio / 2.0 / 48 kHz / 24-bit (DTS Core: 2.0 / 48 kHz / 1509 kbps / 24-bit)
Subtitle: English / 0,000 kbps


********************
PLAYLIST: 00004.MPLS
********************

<–- BEGIN FORUMS PASTE –->
                                                                                                                Total   Video                                             
Title                                                           Codec   Length  Movie Size      Disc Size       Bitrate Bitrate Main Audio Track                          Secondary Audio Track
-----                                                           ------  ------- --------------  --------------  ------- ------- ------------------                        ---------------------
00004.MPLS                                                      AVC     0:03:02 0               38 081 280 326  0,00    0,00    DTS-HD Master 2.0 (48kHz/24-bit)          


DISC INFO:

Disc Title:     20000_DAYS_ON_EARTH
Disc Size:      38 081 280 326 bytes
Protection:     AACS
BD-Java:        No
Extras:         50Hz Content
BDInfo:         0.5.8

PLAYLIST REPORT:

Name:                   00004.MPLS
Length:                 0:03:02.400 (h:m:s.ms)
Size:                   0 bytes
Total Bitrate:          0,00 Mbps

VIDEO:

Codec                   Bitrate             Description     
-----                   -------             -----------     
MPEG-4 AVC Video        0 kbps              1080i / 25 fps / 16:9 / High Profile 4.1

AUDIO:

Codec                           Language        Bitrate         Description     
-----                           --------        -------         -----------     
DTS-HD Master Audio             English         0 kbps          2.0 / 48 kHz / 24-bit (DTS Core: 2.0 / 48 kHz / 1509 kbps / 24-bit)

SUBTITLES:

Codec                           Language        Bitrate         Description     
-----                           --------        -------         -----------     
Presentation Graphics           English         0,000 kbps                      

FILES:

Name            Time In         Length          Size            Total Bitrate   
----            -------         ------          ----            -------------   
00005.M2TS      0:00:00.000     0:03:02.400     0               0               

CHAPTERS:

Number          Time In         Length          Avg Video Rate  Max 1-Sec Rate  Max 1-Sec Time  Max 5-Sec Rate  Max 5-Sec Time  Max 10Sec Rate  Max 10Sec Time  Avg Frame Size  Max Frame Size  Max Frame Time  
------          -------         ------          --------------  --------------  --------------  --------------  --------------  --------------  --------------  --------------  --------------  --------------  
1               0:00:00.000     0:03:02.400     0 kbps          0 kbps          00:00:00.000    0 kbps          00:00:00.000    0 kbps          00:00:00.000    0 bytes         0 bytes         00:00:00.000    

STREAM DIAGNOSTICS:

File            PID             Type            Codec           Language                Seconds                 Bitrate                 Bytes           Packets         
----            ---             ----            -----           --------                --------------          --------------          -------------   -----           
00005.M2TS      4113 (0x1011)   0x1B            AVC                                     0,840                   0                       0               0               
00005.M2TS      4352 (0x1100)   0x86            DTS-HD MA       eng (English)           0,840                   0                       0               0               
00005.M2TS      4608 (0x1200)   0x90            PGS             eng (English)           0,840                   0                       0               0               

<–– END FORUMS PASTE ––>

QUICK SUMMARY:

Disc Title: 20000_DAYS_ON_EARTH
Disc Size: 38 081 280 326 bytes
Protection: AACS
BD-Java: No
Playlist: 00004.MPLS
Size: 0 bytes
Length: 0:03:02.400
Total Bitrate: 0,00 Mbps
Video: MPEG-4 AVC Video / 0 kbps / 1080i / 25 fps / 16:9 / High Profile 4.1
Audio: English / DTS-HD Master Audio / 2.0 / 48 kHz / 24-bit (DTS Core: 2.0 / 48 kHz / 1509 kbps / 24-bit)
Subtitle: English / 0,000 kbps


********************
PLAYLIST: 00012.MPLS
********************

<–- BEGIN FORUMS PASTE –->
                                                                                                                Total   Video                                             
Title                                                           Codec   Length  Movie Size      Disc Size       Bitrate Bitrate Main Audio Track                          Secondary Audio Track
-----                                                           ------  ------- --------------  --------------  ------- ------- ------------------                        ---------------------
00012.MPLS                                                      AVC     0:02:28 0               38 081 280 326  0,00    0,00    DTS-HD Master 2.0 (48kHz/24-bit)          


DISC INFO:

Disc Title:     20000_DAYS_ON_EARTH
Disc Size:      38 081 280 326 bytes
Protection:     AACS
BD-Java:        No
Extras:         50Hz Content
BDInfo:         0.5.8

PLAYLIST REPORT:

Name:                   00012.MPLS
Length:                 0:02:28.600 (h:m:s.ms)
Size:                   0 bytes
Total Bitrate:          0,00 Mbps

VIDEO:

Codec                   Bitrate             Description     
-----                   -------             -----------     
MPEG-4 AVC Video        0 kbps              1080i / 25 fps / 16:9 / High Profile 4.1

AUDIO:

Codec                           Language        Bitrate         Description     
-----                           --------        -------         -----------     
DTS-HD Master Audio             English         0 kbps          2.0 / 48 kHz / 24-bit (DTS Core: 2.0 / 48 kHz / 1509 kbps / 24-bit)

SUBTITLES:

Codec                           Language        Bitrate         Description     
-----                           --------        -------         -----------     
Presentation Graphics           English         0,000 kbps                      

FILES:

Name            Time In         Length          Size            Total Bitrate   
----            -------         ------          ----            -------------   
00011.M2TS      0:00:00.000     0:02:28.600     0               0               

CHAPTERS:

Number          Time In         Length          Avg Video Rate  Max 1-Sec Rate  Max 1-Sec Time  Max 5-Sec Rate  Max 5-Sec Time  Max 10Sec Rate  Max 10Sec Time  Avg Frame Size  Max Frame Size  Max Frame Time  
------          -------         ------          --------------  --------------  --------------  --------------  --------------  --------------  --------------  --------------  --------------  --------------  
1               0:00:00.000     0:02:28.600     0 kbps          0 kbps          00:00:00.000    0 kbps          00:00:00.000    0 kbps          00:00:00.000    0 bytes         0 bytes         00:00:00.000    

STREAM DIAGNOSTICS:

File            PID             Type            Codec           Language                Seconds                 Bitrate                 Bytes           Packets         
----            ---             ----            -----           --------                --------------          --------------          -------------   -----           
00011.M2TS      4113 (0x1011)   0x1B            AVC                                     0,840                   0                       0               0               
00011.M2TS      4352 (0x1100)   0x86            DTS-HD MA       eng (English)           0,840                   0                       0               0               
00011.M2TS      4608 (0x1200)   0x90            PGS             eng (English)           0,840                   0                       0               0               

<–– END FORUMS PASTE ––>

QUICK SUMMARY:

Disc Title: 20000_DAYS_ON_EARTH
Disc Size: 38 081 280 326 bytes
Protection: AACS
BD-Java: No
Playlist: 00012.MPLS
Size: 0 bytes
Length: 0:02:28.600
Total Bitrate: 0,00 Mbps
Video: MPEG-4 AVC Video / 0 kbps / 1080i / 25 fps / 16:9 / High Profile 4.1
Audio: English / DTS-HD Master Audio / 2.0 / 48 kHz / 24-bit (DTS Core: 2.0 / 48 kHz / 1509 kbps / 24-bit)
Subtitle: English / 0,000 kbps


********************
PLAYLIST: 00002.MPLS
********************

<–- BEGIN FORUMS PASTE –->
                                                                                                                Total   Video                                             
Title                                                           Codec   Length  Movie Size      Disc Size       Bitrate Bitrate Main Audio Track                          Secondary Audio Track
-----                                                           ------  ------- --------------  --------------  ------- ------- ------------------                        ---------------------
00002.MPLS                                                      AVC     0:02:16 0               38 081 280 326  0,00    0,00    DTS-HD Master 2.0 (48kHz/24-bit)          


DISC INFO:

Disc Title:     20000_DAYS_ON_EARTH
Disc Size:      38 081 280 326 bytes
Protection:     AACS
BD-Java:        No
Extras:         50Hz Content
BDInfo:         0.5.8

PLAYLIST REPORT:

Name:                   00002.MPLS
Length:                 0:02:16.400 (h:m:s.ms)
Size:                   0 bytes
Total Bitrate:          0,00 Mbps

VIDEO:

Codec                   Bitrate             Description     
-----                   -------             -----------     
MPEG-4 AVC Video        0 kbps              1080i / 25 fps / 16:9 / High Profile 4.1

AUDIO:

Codec                           Language        Bitrate         Description     
-----                           --------        -------         -----------     
DTS-HD Master Audio             English         0 kbps          2.0 / 48 kHz / 24-bit (DTS Core: 2.0 / 48 kHz / 1509 kbps / 24-bit)

SUBTITLES:

Codec                           Language        Bitrate         Description     
-----                           --------        -------         -----------     
Presentation Graphics           English         0,000 kbps                      

FILES:

Name            Time In         Length          Size            Total Bitrate   
----            -------         ------          ----            -------------   
00003.M2TS      0:00:00.000     0:02:16.400     0               0               

CHAPTERS:

Number          Time In         Length          Avg Video Rate  Max 1-Sec Rate  Max 1-Sec Time  Max 5-Sec Rate  Max 5-Sec Time  Max 10Sec Rate  Max 10Sec Time  Avg Frame Size  Max Frame Size  Max Frame Time  
------          -------         ------          --------------  --------------  --------------  --------------  --------------  --------------  --------------  --------------  --------------  --------------  
1               0:00:00.000     0:02:16.400     0 kbps          0 kbps          00:00:00.000    0 kbps          00:00:00.000    0 kbps          00:00:00.000    0 bytes         0 bytes         00:00:00.000    

STREAM DIAGNOSTICS:

File            PID             Type            Codec           Language                Seconds                 Bitrate                 Bytes           Packets         
----            ---             ----            -----           --------                --------------          --------------          -------------   -----           
00003.M2TS      4113 (0x1011)   0x1B            AVC                                     0,840                   0                       0               0               
00003.M2TS      4352 (0x1100)   0x86            DTS-HD MA       eng (English)           0,840                   0                       0               0               
00003.M2TS      4608 (0x1200)   0x90            PGS             eng (English)           0,840                   0                       0               0               

<–– END FORUMS PASTE ––>

QUICK SUMMARY:

Disc Title: 20000_DAYS_ON_EARTH
Disc Size: 38 081 280 326 bytes
Protection: AACS
BD-Java: No
Playlist: 00002.MPLS
Size: 0 bytes
Length: 0:02:16.400
Total Bitrate: 0,00 Mbps
Video: MPEG-4 AVC Video / 0 kbps / 1080i / 25 fps / 16:9 / High Profile 4.1
Audio: English / DTS-HD Master Audio / 2.0 / 48 kHz / 24-bit (DTS Core: 2.0 / 48 kHz / 1509 kbps / 24-bit)
Subtitle: English / 0,000 kbps


********************
PLAYLIST: 00018.MPLS
********************

<–- BEGIN FORUMS PASTE –->
                                                                                                                Total   Video                                             
Title                                                           Codec   Length  Movie Size      Disc Size       Bitrate Bitrate Main Audio Track                          Secondary Audio Track
-----                                                           ------  ------- --------------  --------------  ------- ------- ------------------                        ---------------------
00018.MPLS                                                      AVC     0:01:51 0               38 081 280 326  0,00    0,00    DTS-HD Master 2.0 (48kHz/24-bit)          


DISC INFO:

Disc Title:     20000_DAYS_ON_EARTH
Disc Size:      38 081 280 326 bytes
Protection:     AACS
BD-Java:        No
Extras:         50Hz Content
BDInfo:         0.5.8

PLAYLIST REPORT:

Name:                   00018.MPLS
Length:                 0:01:51.680 (h:m:s.ms)
Size:                   0 bytes
Total Bitrate:          0,00 Mbps

VIDEO:

Codec                   Bitrate             Description     
-----                   -------             -----------     
MPEG-4 AVC Video        0 kbps              1080i / 25 fps / 16:9 / High Profile 4.1

AUDIO:

Codec                           Language        Bitrate         Description     
-----                           --------        -------         -----------     
DTS-HD Master Audio             English         0 kbps          2.0 / 48 kHz / 24-bit (DTS Core: 2.0 / 48 kHz / 1509 kbps / 24-bit)

SUBTITLES:

Codec                           Language        Bitrate         Description     
-----                           --------        -------         -----------     
Presentation Graphics           English         0,000 kbps                      

FILES:

Name            Time In         Length          Size            Total Bitrate   
----            -------         ------          ----            -------------   
00016.M2TS      0:00:00.000     0:01:51.680     0               0               

CHAPTERS:

Number          Time In         Length          Avg Video Rate  Max 1-Sec Rate  Max 1-Sec Time  Max 5-Sec Rate  Max 5-Sec Time  Max 10Sec Rate  Max 10Sec Time  Avg Frame Size  Max Frame Size  Max Frame Time  
------          -------         ------          --------------  --------------  --------------  --------------  --------------  --------------  --------------  --------------  --------------  --------------  
1               0:00:00.000     0:01:51.680     0 kbps          0 kbps          00:00:00.000    0 kbps          00:00:00.000    0 kbps          00:00:00.000    0 bytes         0 bytes         00:00:00.000    

STREAM DIAGNOSTICS:

File            PID             Type            Codec           Language                Seconds                 Bitrate                 Bytes           Packets         
----            ---             ----            -----           --------                --------------          --------------          -------------   -----           
00016.M2TS      4113 (0x1011)   0x1B            AVC                                     0,840                   0                       0               0               
00016.M2TS      4352 (0x1100)   0x86            DTS-HD MA       eng (English)           0,840                   0                       0               0               
00016.M2TS      4608 (0x1200)   0x90            PGS             eng (English)           0,840                   0                       0               0               

<–– END FORUMS PASTE ––>

QUICK SUMMARY:

Disc Title: 20000_DAYS_ON_EARTH
Disc Size: 38 081 280 326 bytes
Protection: AACS
BD-Java: No
Playlist: 00018.MPLS
Size: 0 bytes
Length: 0:01:51.680
Total Bitrate: 0,00 Mbps
Video: MPEG-4 AVC Video / 0 kbps / 1080i / 25 fps / 16:9 / High Profile 4.1
Audio: English / DTS-HD Master Audio / 2.0 / 48 kHz / 24-bit (DTS Core: 2.0 / 48 kHz / 1509 kbps / 24-bit)
Subtitle: English / 0,000 kbps


********************
PLAYLIST: 00007.MPLS
********************

<–- BEGIN FORUMS PASTE –->
                                                                                                                Total   Video                                             
Title                                                           Codec   Length  Movie Size      Disc Size       Bitrate Bitrate Main Audio Track                          Secondary Audio Track
-----                                                           ------  ------- --------------  --------------  ------- ------- ------------------                        ---------------------
00007.MPLS                                                      AVC     0:01:31 0               38 081 280 326  0,00    0,00    DTS-HD Master 2.0 (48kHz/24-bit)          


DISC INFO:

Disc Title:     20000_DAYS_ON_EARTH
Disc Size:      38 081 280 326 bytes
Protection:     AACS
BD-Java:        No
Extras:         50Hz Content
BDInfo:         0.5.8

PLAYLIST REPORT:

Name:                   00007.MPLS
Length:                 0:01:31.560 (h:m:s.ms)
Size:                   0 bytes
Total Bitrate:          0,00 Mbps

VIDEO:

Codec                   Bitrate             Description     
-----                   -------             -----------     
MPEG-4 AVC Video        0 kbps              1080i / 25 fps / 16:9 / High Profile 4.1

AUDIO:

Codec                           Language        Bitrate         Description     
-----                           --------        -------         -----------     
DTS-HD Master Audio             English         0 kbps          2.0 / 48 kHz / 24-bit (DTS Core: 2.0 / 48 kHz / 1509 kbps / 24-bit)

SUBTITLES:

Codec                           Language        Bitrate         Description     
-----                           --------        -------         -----------     
Presentation Graphics           English         0,000 kbps                      

FILES:

Name            Time In         Length          Size            Total Bitrate   
----            -------         ------          ----            -------------   
00008.M2TS      0:00:00.000     0:01:31.560     0               0               

CHAPTERS:

Number          Time In         Length          Avg Video Rate  Max 1-Sec Rate  Max 1-Sec Time  Max 5-Sec Rate  Max 5-Sec Time  Max 10Sec Rate  Max 10Sec Time  Avg Frame Size  Max Frame Size  Max Frame Time  
------          -------         ------          --------------  --------------  --------------  --------------  --------------  --------------  --------------  --------------  --------------  --------------  
1               0:00:00.000     0:01:31.560     0 kbps          0 kbps          00:00:00.000    0 kbps          00:00:00.000    0 kbps          00:00:00.000    0 bytes         0 bytes         00:00:00.000    

STREAM DIAGNOSTICS:

File            PID             Type            Codec           Language                Seconds                 Bitrate                 Bytes           Packets         
----            ---             ----            -----           --------                --------------          --------------          -------------   -----           
00008.M2TS      4113 (0x1011)   0x1B            AVC                                     0,840                   0                       0               0               
00008.M2TS      4352 (0x1100)   0x86            DTS-HD MA       eng (English)           0,840                   0                       0               0               
00008.M2TS      4608 (0x1200)   0x90            PGS             eng (English)           0,840                   0                       0               0               

<–– END FORUMS PASTE ––>

QUICK SUMMARY:

Disc Title: 20000_DAYS_ON_EARTH
Disc Size: 38 081 280 326 bytes
Protection: AACS
BD-Java: No
Playlist: 00007.MPLS
Size: 0 bytes
Length: 0:01:31.560
Total Bitrate: 0,00 Mbps
Video: MPEG-4 AVC Video / 0 kbps / 1080i / 25 fps / 16:9 / High Profile 4.1
Audio: English / DTS-HD Master Audio / 2.0 / 48 kHz / 24-bit (DTS Core: 2.0 / 48 kHz / 1509 kbps / 24-bit)
Subtitle: English / 0,000 kbps


********************
PLAYLIST: 00017.MPLS
********************

<–- BEGIN FORUMS PASTE –->
                                                                                                                Total   Video                                             
Title                                                           Codec   Length  Movie Size      Disc Size       Bitrate Bitrate Main Audio Track                          Secondary Audio Track
-----                                                           ------  ------- --------------  --------------  ------- ------- ------------------                        ---------------------
00017.MPLS                                                      AVC     0:01:30 0               38 081 280 326  0,00    0,00    DTS-HD Master 2.0 (48kHz/24-bit)          


DISC INFO:

Disc Title:     20000_DAYS_ON_EARTH
Disc Size:      38 081 280 326 bytes
Protection:     AACS
BD-Java:        No
Extras:         50Hz Content
BDInfo:         0.5.8

PLAYLIST REPORT:

Name:                   00017.MPLS
Length:                 0:01:30.200 (h:m:s.ms)
Size:                   0 bytes
Total Bitrate:          0,00 Mbps

VIDEO:

Codec                   Bitrate             Description     
-----                   -------             -----------     
MPEG-4 AVC Video        0 kbps              1080i / 25 fps / 16:9 / High Profile 4.1

AUDIO:

Codec                           Language        Bitrate         Description     
-----                           --------        -------         -----------     
DTS-HD Master Audio             English         0 kbps          2.0 / 48 kHz / 24-bit (DTS Core: 2.0 / 48 kHz / 1509 kbps / 24-bit)

SUBTITLES:

Codec                           Language        Bitrate         Description     
-----                           --------        -------         -----------     
Presentation Graphics           English         0,000 kbps                      

FILES:

Name            Time In         Length          Size            Total Bitrate   
----            -------         ------          ----            -------------   
00015.M2TS      0:00:00.000     0:01:30.200     0               0               

CHAPTERS:

Number          Time In         Length          Avg Video Rate  Max 1-Sec Rate  Max 1-Sec Time  Max 5-Sec Rate  Max 5-Sec Time  Max 10Sec Rate  Max 10Sec Time  Avg Frame Size  Max Frame Size  Max Frame Time  
------          -------         ------          --------------  --------------  --------------  --------------  --------------  --------------  --------------  --------------  --------------  --------------  
1               0:00:00.000     0:01:30.200     0 kbps          0 kbps          00:00:00.000    0 kbps          00:00:00.000    0 kbps          00:00:00.000    0 bytes         0 bytes         00:00:00.000    

STREAM DIAGNOSTICS:

File            PID             Type            Codec           Language                Seconds                 Bitrate                 Bytes           Packets         
----            ---             ----            -----           --------                --------------          --------------          -------------   -----           
00015.M2TS      4113 (0x1011)   0x1B            AVC                                     0,840                   0                       0               0               
00015.M2TS      4352 (0x1100)   0x86            DTS-HD MA       eng (English)           0,840                   0                       0               0               
00015.M2TS      4608 (0x1200)   0x90            PGS             eng (English)           0,840                   0                       0               0               

<–– END FORUMS PASTE ––>

QUICK SUMMARY:

Disc Title: 20000_DAYS_ON_EARTH
Disc Size: 38 081 280 326 bytes
Protection: AACS
BD-Java: No
Playlist: 00017.MPLS
Size: 0 bytes
Length: 0:01:30.200
Total Bitrate: 0,00 Mbps
Video: MPEG-4 AVC Video / 0 kbps / 1080i / 25 fps / 16:9 / High Profile 4.1
Audio: English / DTS-HD Master Audio / 2.0 / 48 kHz / 24-bit (DTS Core: 2.0 / 48 kHz / 1509 kbps / 24-bit)
Subtitle: English / 0,000 kbps


********************
PLAYLIST: 00003.MPLS
********************

<–- BEGIN FORUMS PASTE –->
                                                                                                                Total   Video                                             
Title                                                           Codec   Length  Movie Size      Disc Size       Bitrate Bitrate Main Audio Track                          Secondary Audio Track
-----                                                           ------  ------- --------------  --------------  ------- ------- ------------------                        ---------------------
00003.MPLS                                                      AVC     0:01:04 0               38 081 280 326  0,00    0,00    DTS-HD Master 2.0 (48kHz/24-bit)          


DISC INFO:

Disc Title:     20000_DAYS_ON_EARTH
Disc Size:      38 081 280 326 bytes
Protection:     AACS
BD-Java:        No
Extras:         50Hz Content
BDInfo:         0.5.8

PLAYLIST REPORT:

Name:                   00003.MPLS
Length:                 0:01:04.240 (h:m:s.ms)
Size:                   0 bytes
Total Bitrate:          0,00 Mbps

VIDEO:

Codec                   Bitrate             Description     
-----                   -------             -----------     
MPEG-4 AVC Video        0 kbps              1080i / 25 fps / 16:9 / High Profile 4.1

AUDIO:

Codec                           Language        Bitrate         Description     
-----                           --------        -------         -----------     
DTS-HD Master Audio             English         0 kbps          2.0 / 48 kHz / 24-bit (DTS Core: 2.0 / 48 kHz / 1509 kbps / 24-bit)

SUBTITLES:

Codec                           Language        Bitrate         Description     
-----                           --------        -------         -----------     
Presentation Graphics           English         0,000 kbps                      

FILES:

Name            Time In         Length          Size            Total Bitrate   
----            -------         ------          ----            -------------   
00004.M2TS      0:00:00.000     0:01:04.240     0               0               

CHAPTERS:

Number          Time In         Length          Avg Video Rate  Max 1-Sec Rate  Max 1-Sec Time  Max 5-Sec Rate  Max 5-Sec Time  Max 10Sec Rate  Max 10Sec Time  Avg Frame Size  Max Frame Size  Max Frame Time  
------          -------         ------          --------------  --------------  --------------  --------------  --------------  --------------  --------------  --------------  --------------  --------------  
1               0:00:00.000     0:01:04.240     0 kbps          0 kbps          00:00:00.000    0 kbps          00:00:00.000    0 kbps          00:00:00.000    0 bytes         0 bytes         00:00:00.000    

STREAM DIAGNOSTICS:

File            PID             Type            Codec           Language                Seconds                 Bitrate                 Bytes           Packets         
----            ---             ----            -----           --------                --------------          --------------          -------------   -----           
00004.M2TS      4113 (0x1011)   0x1B            AVC                                     0,840                   0                       0               0               
00004.M2TS      4352 (0x1100)   0x86            DTS-HD MA       eng (English)           0,840                   0                       0               0               
00004.M2TS      4608 (0x1200)   0x90            PGS             eng (English)           0,840                   0                       0               0               

<–– END FORUMS PASTE ––>

QUICK SUMMARY:

Disc Title: 20000_DAYS_ON_EARTH
Disc Size: 38 081 280 326 bytes
Protection: AACS
BD-Java: No
Playlist: 00003.MPLS
Size: 0 bytes
Length: 0:01:04.240
Total Bitrate: 0,00 Mbps
Video: MPEG-4 AVC Video / 0 kbps / 1080i / 25 fps / 16:9 / High Profile 4.1
Audio: English / DTS-HD Master Audio / 2.0 / 48 kHz / 24-bit (DTS Core: 2.0 / 48 kHz / 1509 kbps / 24-bit)
Subtitle: English / 0,000 kbps


********************
PLAYLIST: 00016.MPLS
********************

<–- BEGIN FORUMS PASTE –->
                                                                                                                Total   Video                                             
Title                                                           Codec   Length  Movie Size      Disc Size       Bitrate Bitrate Main Audio Track                          Secondary Audio Track
-----                                                           ------  ------- --------------  --------------  ------- ------- ------------------                        ---------------------
00016.MPLS                                                      AVC     0:00:53 0               38 081 280 326  0,00    0,00    DTS-HD Master 2.0 (48kHz/24-bit)          


DISC INFO:

Disc Title:     20000_DAYS_ON_EARTH
Disc Size:      38 081 280 326 bytes
Protection:     AACS
BD-Java:        No
Extras:         50Hz Content
BDInfo:         0.5.8

PLAYLIST REPORT:

Name:                   00016.MPLS
Length:                 0:00:53.320 (h:m:s.ms)
Size:                   0 bytes
Total Bitrate:          0,00 Mbps

VIDEO:

Codec                   Bitrate             Description     
-----                   -------             -----------     
MPEG-4 AVC Video        0 kbps              1080i / 25 fps / 16:9 / High Profile 4.1

AUDIO:

Codec                           Language        Bitrate         Description     
-----                           --------        -------         -----------     
DTS-HD Master Audio             English         0 kbps          2.0 / 48 kHz / 24-bit (DTS Core: 2.0 / 48 kHz / 1509 kbps / 24-bit)

SUBTITLES:

Codec                           Language        Bitrate         Description     
-----                           --------        -------         -----------     
Presentation Graphics           English         0,000 kbps                      

FILES:

Name            Time In         Length          Size            Total Bitrate   
----            -------         ------          ----            -------------   
00014.M2TS      0:00:00.000     0:00:53.320     0               0               

CHAPTERS:

Number          Time In         Length          Avg Video Rate  Max 1-Sec Rate  Max 1-Sec Time  Max 5-Sec Rate  Max 5-Sec Time  Max 10Sec Rate  Max 10Sec Time  Avg Frame Size  Max Frame Size  Max Frame Time  
------          -------         ------          --------------  --------------  --------------  --------------  --------------  --------------  --------------  --------------  --------------  --------------  
1               0:00:00.000     0:00:53.320     0 kbps          0 kbps          00:00:00.000    0 kbps          00:00:00.000    0 kbps          00:00:00.000    0 bytes         0 bytes         00:00:00.000    

STREAM DIAGNOSTICS:

File            PID             Type            Codec           Language                Seconds                 Bitrate                 Bytes           Packets         
----            ---             ----            -----           --------                --------------          --------------          -------------   -----           
00014.M2TS      4113 (0x1011)   0x1B            AVC                                     0,840                   0                       0               0               
00014.M2TS      4352 (0x1100)   0x86            DTS-HD MA       eng (English)           0,840                   0                       0               0               
00014.M2TS      4608 (0x1200)   0x90            PGS             eng (English)           0,840                   0                       0               0               

<–– END FORUMS PASTE ––>

QUICK SUMMARY:

Disc Title: 20000_DAYS_ON_EARTH
Disc Size: 38 081 280 326 bytes
Protection: AACS
BD-Java: No
Playlist: 00016.MPLS
Size: 0 bytes
Length: 0:00:53.320
Total Bitrate: 0,00 Mbps
Video: MPEG-4 AVC Video / 0 kbps / 1080i / 25 fps / 16:9 / High Profile 4.1
Audio: English / DTS-HD Master Audio / 2.0 / 48 kHz / 24-bit (DTS Core: 2.0 / 48 kHz / 1509 kbps / 24-bit)
Subtitle: English / 0,000 kbps


********************
PLAYLIST: 00014.MPLS
********************

<–- BEGIN FORUMS PASTE –->
                                                                                                                Total   Video                                             
Title                                                           Codec   Length  Movie Size      Disc Size       Bitrate Bitrate Main Audio Track                          Secondary Audio Track
-----                                                           ------  ------- --------------  --------------  ------- ------- ------------------                        ---------------------
00014.MPLS                                                      AVC     0:14:52 0               38 081 280 326  0,00    0,00    DTS-HD Master 2.0 (48kHz/24-bit)          


DISC INFO:

Disc Title:     20000_DAYS_ON_EARTH
Disc Size:      38 081 280 326 bytes
Protection:     AACS
BD-Java:        No
Extras:         50Hz Content
BDInfo:         0.5.8

PLAYLIST REPORT:

Name:                   00014.MPLS
Length:                 0:14:52.880 (h:m:s.ms)
Size:                   0 bytes
Total Bitrate:          0,00 Mbps

VIDEO:

Codec                   Bitrate             Description     
-----                   -------             -----------     
MPEG-4 AVC Video        0 kbps              1080i / 25 fps / 16:9 / High Profile 4.1

AUDIO:

Codec                           Language        Bitrate         Description     
-----                           --------        -------         -----------     
DTS-HD Master Audio             English         0 kbps          2.0 / 48 kHz / 24-bit (DTS Core: 2.0 / 48 kHz / 1509 kbps / 24-bit)

SUBTITLES:

Codec                           Language        Bitrate         Description     
-----                           --------        -------         -----------     
Presentation Graphics           English         0,000 kbps                      

FILES:

Name            Time In         Length          Size            Total Bitrate   
----            -------         ------          ----            -------------   
00013.M2TS      0:00:00.000     0:14:52.880     0               0               

CHAPTERS:

Number          Time In         Length          Avg Video Rate  Max 1-Sec Rate  Max 1-Sec Time  Max 5-Sec Rate  Max 5-Sec Time  Max 10Sec Rate  Max 10Sec Time  Avg Frame Size  Max Frame Size  Max Frame Time  
------          -------         ------          --------------  --------------  --------------  --------------  --------------  --------------  --------------  --------------  --------------  --------------  
1               0:00:00.000     0:14:52.880     0 kbps          0 kbps          00:00:00.000    0 kbps          00:00:00.000    0 kbps          00:00:00.000    0 bytes         0 bytes         00:00:00.000    

STREAM DIAGNOSTICS:

File            PID             Type            Codec           Language                Seconds                 Bitrate                 Bytes           Packets         
----            ---             ----            -----           --------                --------------          --------------          -------------   -----           
00013.M2TS      4113 (0x1011)   0x1B            AVC                                     0                       0                       0               0               
00013.M2TS      4352 (0x1100)   0x86            DTS-HD MA       eng (English)           0                       0                       0               0               
00013.M2TS      4608 (0x1200)   0x90            PGS             eng (English)           0                       0                       0               0               

<–– END FORUMS PASTE ––>

QUICK SUMMARY:

Disc Title: 20000_DAYS_ON_EARTH
Disc Size: 38 081 280 326 bytes
Protection: AACS
BD-Java: No
Playlist: 00014.MPLS
Size: 0 bytes
Length: 0:14:52.880
Total Bitrate: 0,00 Mbps
Video: MPEG-4 AVC Video / 0 kbps / 1080i / 25 fps / 16:9 / High Profile 4.1
Audio: English / DTS-HD Master Audio / 2.0 / 48 kHz / 24-bit (DTS Core: 2.0 / 48 kHz / 1509 kbps / 24-bit)
Subtitle: English / 0,000 kbps


********************
PLAYLIST: 00020.MPLS
********************

<–- BEGIN FORUMS PASTE –->
                                                                                                                Total   Video                                             
Title                                                           Codec   Length  Movie Size      Disc Size       Bitrate Bitrate Main Audio Track                          Secondary Audio Track
-----                                                           ------  ------- --------------  --------------  ------- ------- ------------------                        ---------------------
00020.MPLS                                                      AVC     0:02:12 0               38 081 280 326  0,00    0,00    DTS-HD Master 5.1 (48kHz/24-bit)          


DISC INFO:

Disc Title:     20000_DAYS_ON_EARTH
Disc Size:      38 081 280 326 bytes
Protection:     AACS
BD-Java:        No
Extras:         50Hz Content
BDInfo:         0.5.8

PLAYLIST REPORT:

Name:                   00020.MPLS
Length:                 0:02:12.120 (h:m:s.ms)
Size:                   0 bytes
Total Bitrate:          0,00 Mbps

VIDEO:

Codec                   Bitrate             Description     
-----                   -------             -----------     
MPEG-4 AVC Video        0 kbps              1080i / 25 fps / 16:9 / High Profile 4.1

AUDIO:

Codec                           Language        Bitrate         Description     
-----                           --------        -------         -----------     
DTS-HD Master Audio             English         0 kbps          5.1 / 48 kHz / 24-bit (DTS Core: 5.1 / 48 kHz / 1509 kbps / 24-bit)

FILES:

Name            Time In         Length          Size            Total Bitrate   
----            -------         ------          ----            -------------   
00020.M2TS      0:00:00.000     0:02:12.120     0               0               

CHAPTERS:

Number          Time In         Length          Avg Video Rate  Max 1-Sec Rate  Max 1-Sec Time  Max 5-Sec Rate  Max 5-Sec Time  Max 10Sec Rate  Max 10Sec Time  Avg Frame Size  Max Frame Size  Max Frame Time  
------          -------         ------          --------------  --------------  --------------  --------------  --------------  --------------  --------------  --------------  --------------  --------------  
1               0:00:00.000     0:02:12.120     0 kbps          0 kbps          00:00:00.000    0 kbps          00:00:00.000    0 kbps          00:00:00.000    0 bytes         0 bytes         00:00:00.000    

STREAM DIAGNOSTICS:

File            PID             Type            Codec           Language                Seconds                 Bitrate                 Bytes           Packets         
----            ---             ----            -----           --------                --------------          --------------          -------------   -----           
00020.M2TS      4113 (0x1011)   0x1B            AVC                                     0                       0                       0               0               
00020.M2TS      4352 (0x1100)   0x86            DTS-HD MA       eng (English)           0                       0                       0               0               

<–– END FORUMS PASTE ––>

QUICK SUMMARY:

Disc Title: 20000_DAYS_ON_EARTH
Disc Size: 38 081 280 326 bytes
Protection: AACS
BD-Java: No
Playlist: 00020.MPLS
Size: 0 bytes
Length: 0:02:12.120
Total Bitrate: 0,00 Mbps
Video: MPEG-4 AVC Video / 0 kbps / 1080i / 25 fps / 16:9 / High Profile 4.1
Audio: English / DTS-HD Master Audio / 5.1 / 48 kHz / 24-bit (DTS Core: 5.1 / 48 kHz / 1509 kbps / 24-bit)


Nick Cave - 20,000 Days on Earth (2014)

Nick Cave - 20,000 Days on Earth (2014)

Nick Cave - 20,000 Days on Earth (2014)

Nick Cave - 20,000 Days on Earth (2014)

All thanks go to tatuk

Download Nick Cave - 20,000 Days on Earth (2014):