Subcategories

Night Ranger - 24 Strings & A Drummer: Live & Acoustic (2012)

Posted By: v3122
Night Ranger - 24 Strings & A Drummer: Live & Acoustic (2012)

Night Ranger - 24 Strings & A Drummer: Live & Acoustic (2012)
EAC | Flac(Image) + Cue + Log & MP3 CBR 320Kbps
Frontiers, FR CDVD 573 | ~ 523 or 154 Mb | Scans(jpg) -> 37 Mb
DVD5: NTSC 16:9 (720x480) VBR, Auto Letterboxed, 3012-5364 kbps
Dolby AC3, 6 ch, 448 kbps / Dolby AC3, 2 ch, 192 kbps -> 4.09 Gb
Melodic Hard Rock / AOR

As a celebration of the 30th anniversary of their debut album, DAWN PATROL, and hot on the heels of their 10th studio album, SOMEWHERE IN CALIFORNIA, Night Ranger will release a very special newly-recorded live greatest hits CD/DVD package: 24 STRINGS & A DRUMMER LIVE & ACOUSTIC via Frontiers Records.

The album and DVD were recorded live in an intimate, all-acoustic setting with a select number of fans at TRI Studios in San Rafael, CA in May, 2012 and features some of their greatest hits such as (You Can Still) Rock In America and Sister Christian with refreshing new acoustic arrangements. The result is a testament to Night Ranger s stellar live show and the strength of their songwriting abilities. Please see below for the full track listings and click here to access cover art.

Night Ranger s profile has been particularly high of late, with the band recently appearing on an episode of ABC s Bachelor Pad during the final challenge and Night Ranger frontman Jack Blades performing live during the Republican National Convention. Night Ranger s legendary hits "Sister Christian," "(You Can Still) Rock in America," and "Don't Tell Me You Love Me" are songs that have each significantly impacted popular culture and expanded their ever-growing fanbase since the band s inception thirty years ago. Over the years, the band s music has made notable contributions to and been featured in many different areas of media and popular culture. Night Ranger s songs can be heard in the Rock Band and Guitar Hero video games; Rock of Ages hit Broadway musical and film; the Oscar-nominated film Boogie Nights; FOX s hit TV Show American Dad; JBL s Hear The Truth campaign; and many more! To date, Night Ranger has sold 17 million units worldwide and boasts several platinum- and gold-certified albums.

Night Ranger is Jack Blades (bass guitar, vocals), Kelly Keagy (drums, vocals), Brad Gillis (lead & rhythm guitars), Joel Hoekstra (lead & rhythm guitars) and Eric Levy (keyboards).

~ amazon
Night Ranger - 24 Strings & A Drummer: Live & Acoustic (2012)


Night Ranger - 24 Strings & A Drummer: Live & Acoustic (2012):

Night Ranger - 24 Strings & A Drummer: Live & Acoustic (2012)

Tracklist CD:

1. This Boy Needs To Rock
2. When You Close Your Eyes
3. Sing Me Away
4. Growin' Up In California
5. The Secret Of My Success
6. Sentimental Street
7. Four In The Morning
8. Let Him Run / Goodbye
9. Forever All Over Again
10. Don't Tell Me You Love Me
11. Sister Christian
12. (You Can Still) Rock In America
13. Boys Of Summer (Bonus track)

Exact Audio Copy V1.1 from 23. June 2015

EAC extraction logfile from 3. July 2017, 20:18

Night Ranger / 24 Strings & A Drummer - Live & Acoustic

Used drive : ASUS DRW-24B1ST Adapter: 1 ID: 1

Read mode : Secure
Utilize accurate stream : Yes
Defeat audio cache : Yes
Make use of C2 pointers : No

Read offset correction : 6
Overread into Lead-In and Lead-Out : No
Fill up missing offset samples with silence : Yes
Delete leading and trailing silent blocks : No
Null samples used in CRC calculations : Yes
Used interface : Native Win32 interface for Win NT & 2000

Used output format : User Defined Encoder
Selected bitrate : 128 kBit/s
Quality : High
Add ID3 tag : No
Command line compressor : C:\Program Files (x86)\Exact Audio Copy\Flac\flac.exe
Additional command line options : -V -8 -T "Genre=%genre%" -T "Artist=%artist%" -T "Title=%title%" -T "Album=%albumtitle%" -T "Date=%year%" -T "Tracknumber=%tracknr%" -T "Comment=%comment%" %source%


TOC of the extracted CD

Track | Start | Length | Start sector | End sector
––––––––––––––––––––––––––––-
1 | 0:00.00 | 3:56.00 | 0 | 17699
2 | 3:56.00 | 4:22.64 | 17700 | 37413
3 | 8:18.64 | 4:20.17 | 37414 | 56930
4 | 12:39.06 | 4:23.72 | 56931 | 76727
5 | 17:03.03 | 4:38.14 | 76728 | 97591
6 | 21:41.17 | 6:19.01 | 97592 | 126017
7 | 28:00.18 | 3:54.00 | 126018 | 143567
8 | 31:54.18 | 5:29.67 | 143568 | 168309
9 | 37:24.10 | 4:45.74 | 168310 | 189758
10 | 42:10.09 | 5:55.10 | 189759 | 216393
11 | 48:05.19 | 5:17.29 | 216394 | 240197
12 | 53:22.48 | 4:50.50 | 240198 | 261997
13 | 58:13.23 | 5:36.30 | 261998 | 287227


Range status and errors

Selected range

Filename E:\Torrent\# MY\# Подготовка раздач\Night Ranger\2012 - 24 Strings & A Drummer - Live & Acoustic (Frontiers, FR CDVD 573, Italy)\Night Ranger - 24 Strings & A Drummer - Live & Acoustic.wav

Peak level 100.0 %
Extraction speed 3.2 X
Range quality 100.0 %
Test CRC 2E998EDA
Copy CRC 2E998EDA
Copy OK

No errors occurred


AccurateRip summary

Track 1 accurately ripped (confidence 14) [753B9967] (AR v2)
Track 2 accurately ripped (confidence 14) [AD454D1C] (AR v2)
Track 3 accurately ripped (confidence 14) [401F1077] (AR v2)
Track 4 accurately ripped (confidence 14) [549F08DC] (AR v2)
Track 5 accurately ripped (confidence 14) [BF9C5231] (AR v2)
Track 6 accurately ripped (confidence 14) [06ACF3CB] (AR v2)
Track 7 accurately ripped (confidence 14) [0A11C116] (AR v2)
Track 8 accurately ripped (confidence 14) [F886E102] (AR v2)
Track 9 accurately ripped (confidence 14) [73031020] (AR v2)
Track 10 accurately ripped (confidence 14) [97F87DC6] (AR v2)
Track 11 accurately ripped (confidence 14) [0924A366] (AR v2)
Track 12 accurately ripped (confidence 14) [3080D1FB] (AR v2)
Track 13 accurately ripped (confidence 14) [F17F7118] (AR v2)

All tracks accurately ripped

End of status report

–– CUETools DB Plugin V2.1.6

[CTDB TOCID: dWCUPNaPe9d2jkRhbHERtUtxfqo-] found
Submit result: dWCUPNaPe9d2jkRhbHERtUtxfqo- has been confirmed
Track | CTDB Status
1 | (18/18) Accurately ripped
2 | (18/18) Accurately ripped
3 | (18/18) Accurately ripped
4 | (18/18) Accurately ripped
5 | (18/18) Accurately ripped
6 | (18/18) Accurately ripped
7 | (18/18) Accurately ripped
8 | (18/18) Accurately ripped
9 | (18/18) Accurately ripped
10 | (18/18) Accurately ripped
11 | (18/18) Accurately ripped
12 | (18/18) Accurately ripped
13 | (18/18) Accurately ripped


==== Log checksum 7158B24EF6C9C7135DF69C6B0B3B47DE3AE9C7BFFEA63BA4641F000F1C3F6B73 ====


[CUETools log; Date: 19.09.2017 15:34:02; Version: 2.1.5]
[CTDB TOCID: dWCUPNaPe9d2jkRhbHERtUtxfqo-] found.
Track | CTDB Status
1 | (20/20) Accurately ripped
2 | (20/20) Accurately ripped
3 | (20/20) Accurately ripped
4 | (20/20) Accurately ripped
5 | (20/20) Accurately ripped
6 | (20/20) Accurately ripped
7 | (20/20) Accurately ripped
8 | (20/20) Accurately ripped
9 | (20/20) Accurately ripped
10 | (20/20) Accurately ripped
11 | (20/20) Accurately ripped
12 | (20/20) Accurately ripped
13 | (20/20) Accurately ripped
[AccurateRip ID: 001d4b5e-012933ed-a40ef50d] found.
Track [ CRC | V2 ] Status
01 [7ada9df1|753b9967] (00+15/15) Accurately ripped
02 [d05710eb|ad454d1c] (00+15/15) Accurately ripped
03 [a564f9d4|401f1077] (00+15/15) Accurately ripped
04 [3a0ba9d1|549f08dc] (00+15/15) Accurately ripped
05 [a5ba4bc2|bf9c5231] (00+15/15) Accurately ripped
06 [0361d576|06acf3cb] (00+15/15) Accurately ripped
07 [34334730|0a11c116] (00+15/15) Accurately ripped
08 [1deec556|f886e102] (00+15/15) Accurately ripped
09 [ec01498a|73031020] (00+15/15) Accurately ripped
10 [f15e08a4|97f87dc6] (00+15/15) Accurately ripped
11 [f2d65a63|0924a366] (00+15/15) Accurately ripped
12 [b407dec3|3080d1fb] (00+15/15) Accurately ripped
13 [abbadb33|f17f7118] (00+15/15) Accurately ripped

Track Peak [ CRC32 ] [W/O NULL] [ LOG ]
– 100,0 [2E998EDA] [6E6D7813] CRC32
01 100,0 [7F250B0E] [4D596F70]
02 100,0 [B861B3D9] [765D6942]
03 100,0 [56152C44] [F90191C4]
04 100,0 [1E020E9E] [316E144F]
05 100,0 [257B4334] [525E65C6]
06 100,0 [78757E74] [4373D762]
07 100,0 [922C3D68] [55074053]
08 100,0 [8ACF0899] [510908B5]
09 100,0 [D198B4A8] [E39CD3FC]
10 100,0 [178D4DE0] [0D9984DE]
11 100,0 [8827A8F8] [A0336249]
12 100,0 [20634D02] [74D75D07]
13 100,0 [5C08F41A] [6952EB39]


Night Ranger - 24 Strings & A Drummer: Live & Acoustic (2012)

Tracklist DVD:

1. This Boy Needs To Rock
2. When You Close Your Eyes
3. Sing Me Away
4. Growin’ Up In California
5. The Secret Of My Success
6. Sentimental Street
7. Four In The Morning
8. Let Him Run/Goodbye
9. Forever All Over Again
10. Don’t Tell Me You Love Me
11. Sister Christian
12. (You Can Still) Rock In America
Bonus features: Night Ranger All Access/Growin’ Up In California video/Making of the album SOMEWHERE IN CALIFORNIA

Title: Night Ranger - 24 Strings & A Drummer - DVD
Size: 3.80 Gb ( 3 987 778,00 KBytes ) - DVD-5
Enabled regions: 1, 2, 3, 4, 5, 6, 7, 8

VTS_01 :
Play Length: 00:00:07+{00:00:07}+{00:00:07}
Video: NTSC 16:9 (720x480) VBR, Auto Letterboxed

VTS_02 :
Play Length: 00:00:26+{00:00:26}+{00:00:26}
Video: NTSC 16:9 (720x480) VBR, Auto Letterboxed
Audio:
English (Dolby AC3, 2 ch)

VTS_03 :
Play Length: 00:04:42+{00:04:42}+{00:04:42}
Video: NTSC 16:9 (720x480) VBR, Auto Letterboxed
Audio:
English (Dolby AC3, 2 ch)

VTS_04 :
Play Length: 00:04:25+{00:04:25}+{00:04:25}
Video: NTSC 16:9 (720x480) VBR, Auto Letterboxed
Audio:
English (Dolby AC3, 2 ch)

VTS_05 :
Play Length: 00:10:18+{00:10:18}+{00:10:18}
Video: NTSC 16:9 (720x480) VBR, Auto Letterboxed
Audio:
English (Dolby AC3, 2 ch)

VTS_06 :
Play Length: 01:20:57+{01:20:57}
Video: NTSC 16:9 (720x480) VBR, Auto Letterboxed
Audio:
English (Dolby AC3, 6 ch)
English (Dolby AC3, 2 ch)


Night Ranger - 24 Strings & A Drummer: Live & Acoustic (2012)

Night Ranger - 24 Strings & A Drummer: Live & Acoustic (2012)

Night Ranger - 24 Strings & A Drummer: Live & Acoustic (2012)

Night Ranger - 24 Strings & A Drummer: Live & Acoustic (2012)

Night Ranger - 24 Strings & A Drummer: Live & Acoustic (2012)

All thanks go to Ginger Devil & CHKA1961

Night Ranger or Night Ranger in my Blog

Download Night Ranger - 24 Strings & A Drummer: Live & Acoustic (2012):