Subcategories

Night Ranger - Don't Let Up (2017) Proper

Posted By: v3122
Night Ranger - Don't Let Up (2017) Proper

Night Ranger - Don't Let Up (2017)
EAC | Flac(Image) + Cue + Log & MP3 CBR 320Kbps
Ward Records, GQSC-90311 | Japan | ~ 415 or 129 Mb | Scans(jpg) -> 77 Mb
Melodic Hard Rock / AOR

In the AOR category, this should truly shine! They continue to make good music. It has the typical catchiness that good AOR needs. After 4 listens, I'm thinking it could be my favorite NR record of all time. Regardless, they have several more songs they could and should play live.

Jay Seddon, allmusic
Night Ranger - Don't Let Up (2017) Proper


Night Ranger - Don't Let Up (2017):

Night Ranger - Don't Let Up (2017) Proper

Tracklist:

1. Somehow Someway
2. Running Out Of Time
3. Truth
4. Day And Night
5. Don't Let Up
6. (Won't Be Your) Fool Again
7. Say What You Want
8. We Can Work It Out
9. Comfort Me
10. Jamie
11. Nothing Left Of Yesterday
12. We Can Work It Out (Acoustic version) (Bonus track)

Exact Audio Copy V1.1 from 23. June 2015

EAC extraction logfile from 25. March 2017, 23:11

Night Ranger / Don't Let Up

Used drive : ASUS DRW-24B1ST Adapter: 1 ID: 1

Read mode : Secure
Utilize accurate stream : Yes
Defeat audio cache : Yes
Make use of C2 pointers : No

Read offset correction : 6
Overread into Lead-In and Lead-Out : No
Fill up missing offset samples with silence : Yes
Delete leading and trailing silent blocks : No
Null samples used in CRC calculations : Yes
Used interface : Native Win32 interface for Win NT & 2000

Used output format : User Defined Encoder
Selected bitrate : 1024 kBit/s
Quality : High
Add ID3 tag : No
Command line compressor : C:\Program Files (x86)\Exact Audio Copy\Flac\flac.exe
Additional command line options : -V -8 -T "Date=%year%" -T "Genre=%genre%" %source%


TOC of the extracted CD

Track | Start | Length | Start sector | End sector
––––––––––––––––––––––––––––-
1 | 0:00.00 | 4:40.34 | 0 | 21033
2 | 4:40.34 | 4:25.40 | 21034 | 40948
3 | 9:05.74 | 4:26.42 | 40949 | 60940
4 | 13:32.41 | 5:21.40 | 60941 | 85055
5 | 18:54.06 | 4:19.42 | 85056 | 104522
6 | 23:13.48 | 5:20.31 | 104523 | 128553
7 | 28:34.04 | 4:16.46 | 128554 | 147799
8 | 32:50.50 | 4:02.14 | 147800 | 165963
9 | 36:52.64 | 5:10.04 | 165964 | 189217
10 | 42:02.68 | 3:58.11 | 189218 | 207078
11 | 46:01.04 | 4:41.49 | 207079 | 228202
12 | 50:42.53 | 4:01.70 | 228203 | 246347


Range status and errors

Selected range

Filename E:\Torrent\# MY\Night Ranger - Discography\2017 - Don't Let Up (Ward Records, GQSC-90311, Japan)\Night Ranger - Don't Let Up.wav

Peak level 98.7 %
Extraction speed 5.8 X
Range quality 100.0 %
Test CRC D3D40EA9
Copy CRC D3D40EA9
Copy OK

No errors occurred


AccurateRip summary

Track 1 not present in database
Track 2 not present in database
Track 3 not present in database
Track 4 not present in database
Track 5 not present in database
Track 6 not present in database
Track 7 not present in database
Track 8 not present in database
Track 9 not present in database
Track 10 not present in database
Track 11 not present in database
Track 12 not present in database

None of the tracks are present in the AccurateRip database

End of status report

–– CUETools DB Plugin V2.1.6

[CTDB TOCID: 3hIen5PV.M.ydyt7PH3G73.VcRE-] found
Submit result: 3hIen5PV.M.ydyt7PH3G73.VcRE- has been confirmed
Track | CTDB Status
1 | (4/4) Accurately ripped
2 | (4/4) Accurately ripped
3 | (4/4) Accurately ripped
4 | (4/4) Accurately ripped
5 | (4/4) Accurately ripped
6 | (4/4) Accurately ripped
7 | (4/4) Accurately ripped
8 | (4/4) Accurately ripped
9 | (4/4) Accurately ripped
10 | (4/4) Accurately ripped
11 | (4/4) Accurately ripped
12 | (4/4) Accurately ripped


==== Log checksum 3EE6DBD1BC4396F2ECDAB5FAC0045DD7EC25CCACE78D68F3A7E59A53480D5F11 ====

foobar2000 1.2.9 / Dynamic Range Meter 1.1.1
log date: 2017-03-28 13:48:09

––––––––––––––––––––––––––––––––––––––––
Analyzed: Night Ranger / Don't Let Up
––––––––––––––––––––––––––––––––––––––––

DR Peak RMS Duration Track
––––––––––––––––––––––––––––––––––––––––
DR6 -0.11 dB -7.18 dB 4:40 01-Somehow Someway
DR6 -0.11 dB -7.26 dB 4:26 02-Running Out Of Time
DR6 -0.11 dB -7.19 dB 4:27 03-Truth
DR5 -0.11 dB -6.60 dB 5:22 04-Day And Night
DR6 -0.11 dB -7.61 dB 4:20 05-Don't Let Up
DR6 -0.11 dB -7.74 dB 5:20 06-(Won't Be Your) Fool Again
DR5 -0.11 dB -6.60 dB 4:17 07-Say What You Want
DR6 -0.11 dB -7.48 dB 4:02 08-We Can Work It Out
DR6 -0.11 dB -7.28 dB 5:10 09-Comfort Me
DR6 -0.11 dB -6.90 dB 3:58 10-Jamie
DR6 -0.11 dB -8.32 dB 4:42 11-Nothing Left Of Yesterday
DR7 -0.11 dB -9.17 dB 4:02 12-We Can Work It Out (Acoustic version) (Bonus track)
––––––––––––––––––––––––––––––––––––––––

Number of tracks: 12
Official DR value: DR6

Samplerate: 44100 Hz
Channels: 2
Bits per sample: 16
Bitrate: 1028 kbps
Codec: FLAC

[CUETools log; Date: 28.03.2017 13:44:03; Version: 2.1.4]
[CTDB TOCID: 3hIen5PV.M.ydyt7PH3G73.VcRE-] found.
Track | CTDB Status
1 | (5/5) Accurately ripped
2 | (5/5) Accurately ripped
3 | (5/5) Accurately ripped
4 | (5/5) Accurately ripped
5 | (5/5) Accurately ripped
6 | (5/5) Accurately ripped
7 | (5/5) Accurately ripped
8 | (5/5) Accurately ripped
9 | (5/5) Accurately ripped
10 | (5/5) Accurately ripped
11 | (5/5) Accurately ripped
12 | (5/5) Accurately ripped
[AccurateRip ID: 0018ce45-00e7241d-9d0cd40c] disk not present in database.

Track Peak [ CRC32 ] [W/O NULL] [ LOG ]
– 98,7 [D3D40EA9] [FE1CCC6B] CRC32
01 98,7 [10945C9F] [2D67A487]
02 98,7 [3DD7C473] [28DDF6AB]
03 98,7 [8EF5BC34] [0D0B6349]
04 98,7 [5052E84F] [CAF7C92C]
05 98,7 [649CD96E] [B2E6CC97]
06 98,7 [E33AB4D5] [1723B77F]
07 98,7 [F1EEF771] [B30A9D09]
08 98,7 [5DB6A0D3] [C8DA6CED]
09 98,7 [3ABF3405] [B4FB28EE]
10 98,7 [C452494E] [55F58FEF]
11 98,7 [E6A915B0] [A48574E7]
12 98,7 [9E63DB15] [92B8C1BF]

Night Ranger - Don't Let Up (2017) Proper

All thanks go to Ginger Devil

Night Ranger in my Blog

Download Night Ranger - Don't Let Up (2017):