Subcategories

Night Ranger - Hole In The Sun (2007)

Posted By: v3122
Night Ranger - Hole In The Sun (2007)

Night Ranger - Hole In The Sun (2007)
EAC | Flac(Image) + Cue + Log & MP3 CBR 320Kbps
King Record, KICP 1111 | Japan | ~ 432 or 138 Mb | Scans(jpg) -> 48 Mb
Melodic Hard Rock / AOR

Hole in the Sun is the ninth studio album by Night Ranger, released internationally on April 23, 2007 with Frontiers Records. The album was released in the U.S. on July 1, 2008.

The album features Great White keyboardist Michael Lardie as a replacement for Alan Fitzgerald, who left the band several years prior. Hole in the Sun would also be the last (to date) to feature guitarist Jeff Watson who parted ways with the band before the album was released…

~ wiki
Night Ranger - Hole In The Sun (2007)


Night Ranger - Hole In The Sun (2007):

Night Ranger - Hole In The Sun (2007)

Tracklist:

1. Tell Your Vision
2. Drama Queen
3. You're Gonna Hear From Me
4. Whatever Happened
5. There Is Life
6. Rockstar
7. Hole In The Sun
8. Fool In Me
9. White Knuckle Ride
10. Revelation 4AM
11. Wrap It Up
12. Being
13. Don't Tell Me You Love Me (Acoustic) (Bonus track)

Exact Audio Copy V1.1 from 23. June 2015

EAC extraction logfile from 31. January 2017, 10:21

Night Ranger / Hole In The Sun

Used drive : ASUS DRW-24B1ST Adapter: 1 ID: 1

Read mode : Secure
Utilize accurate stream : Yes
Defeat audio cache : Yes
Make use of C2 pointers : No

Read offset correction : 6
Overread into Lead-In and Lead-Out : No
Fill up missing offset samples with silence : Yes
Delete leading and trailing silent blocks : No
Null samples used in CRC calculations : Yes
Used interface : Native Win32 interface for Win NT & 2000

Used output format : User Defined Encoder
Selected bitrate : 1024 kBit/s
Quality : High
Add ID3 tag : No
Command line compressor : C:\Program Files (x86)\Exact Audio Copy\Flac\flac.exe
Additional command line options : -V -8 -T "Date=%year%" -T "Genre=%genre%" %source%


TOC of the extracted CD

Track | Start | Length | Start sector | End sector
––––––––––––––––––––––––––––-
1 | 0:00.00 | 4:58.66 | 0 | 22415
2 | 4:58.66 | 3:57.55 | 22416 | 40245
3 | 8:56.46 | 3:51.01 | 40246 | 57571
4 | 12:47.47 | 3:43.36 | 57572 | 74332
5 | 16:31.08 | 5:32.61 | 74333 | 99293
6 | 22:03.69 | 4:18.45 | 99294 | 118688
7 | 26:22.39 | 4:48.33 | 118689 | 140321
8 | 31:10.72 | 4:11.53 | 140322 | 159199
9 | 35:22.50 | 4:14.63 | 159200 | 178312
10 | 39:37.38 | 4:53.49 | 178313 | 200336
11 | 44:31.12 | 4:18.70 | 200337 | 219756
12 | 48:50.07 | 4:47.56 | 219757 | 241337
13 | 53:37.63 | 4:53.66 | 241338 | 263378


Range status and errors

Selected range

Filename E:\Torrent\# MY\# Подготовка раздач\Night Ranger - Discography\2007 - Hole In The Sun (King Record Co., KICP 1111, Japan)\Night Ranger - Hole In The Sun.wav

Peak level 100.0 %
Extraction speed 5.6 X
Range quality 100.0 %
Test CRC D4999421
Copy CRC D4999421
Copy OK

No errors occurred


AccurateRip summary

Track 1 accurately ripped (confidence 7) [C2875B76] (AR v2)
Track 2 accurately ripped (confidence 7) [4540C330] (AR v2)
Track 3 accurately ripped (confidence 7) [44B4D789] (AR v2)
Track 4 accurately ripped (confidence 7) [3147F09C] (AR v2)
Track 5 accurately ripped (confidence 7) [EC2793D1] (AR v2)
Track 6 accurately ripped (confidence 7) [EAA28BA1] (AR v2)
Track 7 accurately ripped (confidence 7) [0E4AB457] (AR v2)
Track 8 accurately ripped (confidence 7) [47EB038F] (AR v2)
Track 9 accurately ripped (confidence 7) [7E58C343] (AR v2)
Track 10 accurately ripped (confidence 7) [776E36A5] (AR v2)
Track 11 accurately ripped (confidence 7) [4321FA99] (AR v2)
Track 12 accurately ripped (confidence 7) [7B7DC771] (AR v2)
Track 13 accurately ripped (confidence 7) [F40926D8] (AR v2)

All tracks accurately ripped

End of status report

–– CUETools DB Plugin V2.1.6

[CTDB TOCID: l3tmH5R9VDKFO7NDUHYPI2d4v5g-] found
Submit result: l3tmH5R9VDKFO7NDUHYPI2d4v5g- has been confirmed
Track | CTDB Status
1 | (9/9) Accurately ripped
2 | (9/9) Accurately ripped
3 | (9/9) Accurately ripped
4 | (9/9) Accurately ripped
5 | (9/9) Accurately ripped
6 | (9/9) Accurately ripped
7 | (9/9) Accurately ripped
8 | (9/9) Accurately ripped
9 | (9/9) Accurately ripped
10 | (9/9) Accurately ripped
11 | (9/9) Accurately ripped
12 | (9/9) Accurately ripped
13 | (9/9) Accurately ripped


==== Log checksum 1EB0D22AB241BAC1D544D94F35EADF4BEB82DA5A0B6C1503262D9E9B7A983366 ====

foobar2000 1.2.9 / Dynamic Range Meter 1.1.1
log date: 2017-04-04 00:56:02

––––––––––––––––––––––––––––––––––––––––
Analyzed: Night Ranger / Hole In The Sun
––––––––––––––––––––––––––––––––––––––––

DR Peak RMS Duration Track
––––––––––––––––––––––––––––––––––––––––
DR6 0.00 dB -6.58 dB 4:59 01-Tell Your Vision
DR7 0.00 dB -7.85 dB 3:58 02-Drama Queen
DR6 0.00 dB -6.92 dB 3:51 03-You're Gonna Hear From Me
DR7 0.00 dB -9.13 dB 3:43 04-Whatever Happened
DR6 0.00 dB -8.67 dB 5:33 05-There Is Life
DR6 0.00 dB -7.94 dB 4:19 06-Rockstar
DR7 0.00 dB -8.81 dB 4:48 07-Hole In The Sun
DR7 0.00 dB -9.76 dB 4:12 08-Fool In Me
DR7 0.00 dB -8.41 dB 4:15 09-White Knuckle Ride
DR8 0.00 dB -10.29 dB 4:54 10-Revelation 4AM
DR6 0.00 dB -7.03 dB 4:19 11-Wrap It Up
DR9 0.00 dB -10.24 dB 4:48 12-Being
DR10 0.00 dB -11.79 dB 4:54 13-Don't Tell Me You Love Me (Acoustic) (Bonus track)
––––––––––––––––––––––––––––––––––––––––

Number of tracks: 13
Official DR value: DR7

Samplerate: 44100 Hz
Channels: 2
Bits per sample: 16
Bitrate: 1001 kbps
Codec: FLAC

[CUETools log; Date: 04.04.2017 0:52:06; Version: 2.1.4]
[CTDB TOCID: l3tmH5R9VDKFO7NDUHYPI2d4v5g-] found.
Track | CTDB Status
1 | (11/11) Accurately ripped
2 | (11/11) Accurately ripped
3 | (11/11) Accurately ripped
4 | (11/11) Accurately ripped
5 | (11/11) Accurately ripped
6 | (11/11) Accurately ripped
7 | (11/11) Accurately ripped
8 | (11/11) Accurately ripped
9 | (11/11) Accurately ripped
10 | (11/11) Accurately ripped
11 | (11/11) Accurately ripped
12 | (11/11) Accurately ripped
13 | (11/11) Accurately ripped
[AccurateRip ID: 001bb29c-0115ae5c-be0db70d] found.
Track [ CRC | V2 ] Status
01 [8d86ae04|c2875b76] (0+7/7) Accurately ripped
02 [d6283d08|4540c330] (0+7/7) Accurately ripped
03 [e32c0206|44b4d789] (0+7/7) Accurately ripped
04 [f4c15eb6|3147f09c] (0+7/7) Accurately ripped
05 [bf8f0846|ec2793d1] (0+7/7) Accurately ripped
06 [306a3b95|eaa28ba1] (0+7/7) Accurately ripped
07 [3994eb9f|0e4ab457] (0+7/7) Accurately ripped
08 [2331c570|47eb038f] (0+7/7) Accurately ripped
09 [97bbf69f|7e58c343] (0+7/7) Accurately ripped
10 [74e95623|776e36a5] (0+7/7) Accurately ripped
11 [80427079|4321fa99] (0+7/7) Accurately ripped
12 [3858330e|7b7dc771] (0+7/7) Accurately ripped
13 [bab07eb5|f40926d8] (0+7/7) Accurately ripped

Track Peak [ CRC32 ] [W/O NULL] [ LOG ]
– 100,0 [D4999421] [395A434A] CRC32
01 100,0 [FE949BB5] [72575710]
02 100,0 [7345C5C2] [E1D75851]
03 100,0 [94AD2C8C] [4A3A4CA3]
04 100,0 [FE0DB24A] [665BA58A]
05 100,0 [BFFF05D5] [ACA68758]
06 100,0 [6BEC2F4F] [BF25EA11]
07 100,0 [F3A9EBA8] [97EEDE64]
08 100,0 [6EB47F88] [1CD50E50]
09 100,0 [937EEA82] [C62594BC]
10 100,0 [9D68B11C] [5A822215]
11 100,0 [5F948777] [86A669B8]
12 100,0 [750FB54E] [B8CDD5AD]
13 100,0 [A4213610] [4E357D6A]

Night Ranger - Hole In The Sun (2007)

All thanks go to Ginger Devil

Night Ranger in my Blog

Download Night Ranger - Hole In The Sun (2007):