Subcategories

Night Ranger - 7 Wishes (1985) [Japan 1st Press]

Posted By: Andi_Deris
Night Ranger - 7 Wishes (1985) [Japan 1st Press]

Night Ranger - 7 Wishes (1985) [Japan 1st Press]
EAC Rip | FLAC: Image+Cue+Log | 277 Mb | MP3 CBR 320 kbps | 102 Mb | Scans | Time: 42:14
Genre: Hard Rock | Label: MCA Records, Inc./Warner-Pioneer | Cat.: 32XD-307

7 Wishes is the third studio album by the band Night Ranger, released in 1985 and produced by Pat Glasser. The title of "Four in the Morning (I Can't Take Anymore)" describes the time of day Jack Blades wrote the song. In an interview with the Songfacts website, he explained, "Literally, I wrote that song at 4 in the morning. I mean, I woke up, and I had an idea, (singing) 'I can't take anymore, I can't fake anymore, it's such a hard time loving you. It also believed that Mötley Crüe's drummer Tommy Lee joined Night Ranger and did backing vocals on the song Night Machine.

Night Ranger - 7 Wishes (1985) [Japan 1st Press]




Night Ranger - 7 Wishes (1985) [Japan 1st Press]


Track Listing

01. Seven Wishes (4:54)
02. Faces (4:12)
03. Four in the Morning (3:54)
04. I Need a Woman (4:40)
05. Sentimental Street (4:13)
06. This Boy Needs to Rock (3:59)
07. I Will Follow You (4:15)
08. Interstate Love Affair (3:15)
09. Night Machine (4:35)
10. Goodbye (4:17)

Produced by Pat Glasser

The Band

• Jack Blades - bass, lead vocals
• Jeff Watson & Brad Gillis - lead and rhythm guitars
• Alan Fitzgerald - keyboards, synthesizers, piano, vocal
• Kelly Keagy - drums, percussion, lead vocals

• Kevin Charles and Vince Neil - shouting

Night Ranger - 7 Wishes (1985) [Japan 1st Press]


Exact Audio Copy V0.99 prebeta 5 from 4. May 2009

Отчёт EAC об извлечении, выполненном 13. апреля 2010, 21:41

Night Ranger / 7 Wishes [32XD-307]

Дисковод: MATSHITADVD-RAM UJ-850S Adapter: 0 ID: 0

Режим чтения : Достоверность
Использование точного потока : Да
Отключение кэша аудио : Да
Использование указателей C2 : Нет

Коррекция смещения при чтении : 102
Способность читать области Lead-in и Lead-out : Нет
Заполнение пропущенных сэмплов тишиной : Да
Удаление блоков с тишиной в начале и конце : Нет
При вычислениях CRC использовались нулевые сэмплы : Да
Интерфейс : Установленный внешний ASPI-интерфейс

Выходной формат : Пользовательский кодировщик
Выбранный битрейт : 128 kBit/s
Качество : Высокий
Добавление ID3-тэга : Нет
Утилита сжатия : C:\Program Files\Exact Audio Copy\Flac\flac.exe
Дополнительные параметры : -6 -V -T "artist=%a" -T "title=%t" -T "album=%g" -T "date=%y" -T "tracknumber=%n" -T "genre=%m" -T "comment=EAC 0.99beta5 / FLAC 1.1.0 q6" %s


TOC извлечённого CD

Трек | Старт | Длительность | Начальный сектор | Конечный сектор
––––––––––––––––––––––––––––––––––-
1 | 0:00.00 | 4:54.15 | 0 | 22064
2 | 4:54.15 | 4:12.27 | 22065 | 40991
3 | 9:06.42 | 3:54.53 | 40992 | 58594
4 | 13:01.20 | 4:40.57 | 58595 | 79651
5 | 17:42.02 | 4:13.58 | 79652 | 98684
6 | 21:55.60 | 3:59.55 | 98685 | 116664
7 | 25:55.40 | 4:15.47 | 116665 | 135836
8 | 30:11.12 | 3:15.48 | 135837 | 150509
9 | 33:26.60 | 4:35.20 | 150510 | 171154
10 | 38:02.05 | 4:17.70 | 171155 | 190499


Характеристики диапазона извлечения и сообщения об ошибках

Выбранный диапазон

Имя файла Y:\Музыка\Night Ranger\1985 7 Wishes\Night Ranger - 7 Wishes [32XD-307].wav

Пиковый уровень 97.6 %
Качество диапазона 100.0 %
CRC копии D07E4F27
Копирование… OK

Ошибок не произошло


AccurateRip: сводка

Трек 1 точное извлечение (доверие 1) [240A88E6]
Трек 2 точное извлечение (доверие 1) [86A23D4A]
Трек 3 точное извлечение (доверие 1) [ED92A5C8]
Трек 4 точное извлечение (доверие 1) [5F4B7D3C]
Трек 5 точное извлечение (доверие 1) [236CD3BF]
Трек 6 точное извлечение (доверие 1) [20D1596D]
Трек 7 точное извлечение (доверие 1) [6955286D]
Трек 8 точное извлечение (доверие 1) [095CF10B]
Трек 9 точное извлечение (доверие 1) [C5EE40DB]
Трек 10 точное извлечение (доверие 1) [20FDF26A]

Все треки извлечены точно

Конец отчёта


Many thanks to the original uploader: ikebana