Subcategories

Night Ranger - Big Life (1987) [Japan 1st Press]

Posted By: Andi_Deris
Night Ranger - Big Life (1987) [Japan 1st Press]

Night Ranger - Big Life (1987) [Japan 1st Press]
EAC Rip | FLAC: Image+Cue+Log | 295 Mb | MP3 CBR 320 kbps | 102 Mb | Scans | Time: 42:28
Genre: Hard Rock | Label: MCA Records, Inc./Warner-Pioneer | Cat.: 32XD-634

Big Life is the fourth studio album by Night Ranger, released in 1987. It featured the single "The Secret of My Success", which was written for the 1987 film of the same name starring Michael J. Fox. The single flopped, stalling outside the Top 40, peaking at #64. It was a top twenty hit on the Mainstream Rock charts though, hitting number 12.

allmusic.com's Stephen Thomas Erlewine said this about the record: "Night Ranger didn't have the hooks in either the rocker or ballad department on Big Life, and the respective singles ("The Secret of My Success," "Hearts Away") flopped along with the rest of the album. Though they later rebounded artistically, such a poor performance marked the end of Night Ranger's time as hitmakers."

Night Ranger - Big Life (1987) [Japan 1st Press]




Night Ranger - Big Life (1987) [Japan 1st Press]


Track Listing

01. Big Life (5:18)
02. Color Of Your Smile (4:12)
03. Love Is Standing Near (4:27)
04. Rain Comes Crashing Down (5:56)
05. The Secret Of My Success (4:27)
06. Carry On (4:22)
07. Better Let It Go (4:43)
08. I Know Tonight (4:03)
09. Hearts Away (5:00)

Produced by Kevin Elson, Night Ranger & David Foster

The Band

• Jack Blades - lead vocals, bass
• Jeff Watson - lead and rhythm guitars, vocals
• Brad Gillis - lead and rhythm guitars
• Alan Fitzgerald - keyboards, piano
• Kelly Keagy - drums, percussion, vocals

• David Foster - additional keyboards
• Kevin Chalfant - additional backing vocals

Night Ranger - Big Life (1987) [Japan 1st Press]


Exact Audio Copy V1.0 beta 3 from 29. August 2011

Отчёт EAC об извлечении, выполненном 18. июня 2012, 10:22

Night Ranger / Big Life [32XD-634]

Дисковод: Optiarc DVD RW AD-7200A Adapter: 0 ID: 0

Режим чтения : Достоверность
Использование точного потока : Да
Отключение кэша аудио : Да
Использование указателей C2 : Нет

Коррекция смещения при чтении : 48
Способность читать области Lead-in и Lead-out : Нет
Заполнение пропущенных сэмплов тишиной : Да
Удаление блоков с тишиной в начале и конце : Нет
При вычислениях CRC использовались нулевые сэмплы : Да
Интерфейс : Встроенный Win32-интерфейс для Win NT/2000

Выходной формат : Пользовательский кодировщик
Выбранный битрейт : 32 kBit/s
Качество : Высокий
Добавление ID3-тега : Нет
Утилита сжатия : C:\Program Files\Exact Audio Copy\Flac\flac.exe
Дополнительные параметры : -V -8 -T "Date=%year%" -T "Genre=%genre%" %source%


TOC извлечённого CD

Трек | Старт | Длительность | Начальный сектор | Конечный сектор
––––––––––––––––––––––––––––––––––-
1 | 0:00.37 | 5:18.38 | 37 | 23924
2 | 5:19.00 | 4:12.60 | 23925 | 42884
3 | 9:31.60 | 4:27.37 | 42885 | 62946
4 | 13:59.22 | 5:56.35 | 62947 | 89681
5 | 19:55.57 | 4:27.45 | 89682 | 109751
6 | 24:23.27 | 4:22.43 | 109752 | 129444
7 | 28:45.70 | 4:43.07 | 129445 | 150676
8 | 33:29.02 | 4:03.53 | 150677 | 168954
9 | 37:32.55 | 5:00.55 | 168955 | 191509


Характеристики диапазона извлечения и сообщения об ошибках

Выбранный диапазон

Имя файла Y:\Music\Night Ranger\1987 Big Life\Night Ranger - Big Life [32XD-634].wav

Пиковый уровень 100.0 %
Скорость извлечения 3.9 X
Качество диапазона 100.0 %
CRC копии 664B5D8A
Копирование… OK

Ошибок не произошло


AccurateRip: сводка

Трек 1 : извлечено точно (доверие 6) [22632E44] (AR v1)
Трек 2 : извлечено точно (доверие 6) [7C3E2ECC] (AR v1)
Трек 3 : извлечено точно (доверие 4) [F30C7A1E] (AR v1)
Трек 4 : извлечено точно (доверие 6) [8956B196] (AR v1)
Трек 5 : извлечено точно (доверие 4) [3D26B3AF] (AR v1)
Трек 6 : извлечено точно (доверие 6) [DB94A4DF] (AR v1)
Трек 7 : извлечено точно (доверие 6) [88A99322] (AR v1)
Трек 8 : извлечено точно (доверие 5) [1DDC28A4] (AR v1)
Трек 9 : извлечено точно (доверие 6) [E099C8D2] (AR v1)

Все треки извлечены точно

Конец отчёта


Many thanks to the original uploader: ikebana