Subcategories

Night Ranger - Midnight Madness (1983) [Japan 1st Press + Japan Remaster]

Posted By: Andi_Deris
Night Ranger - Midnight Madness (1983) [Japan 1st Press + Japan Remaster]

Night Ranger - Midnight Madness (1983) [Japan 1st Press + Japan Press, Digital Mastering]
EAC Rip | FLAC: Image+Cue+Log | 246/274 Mb | MP3 CBR 320 kbps | 95/95 Mb | Scans
Genre: Hard Rock | Label: MCA Records, Inc./Warner-Pioneer

Midnight Madness is the second album from Night Ranger, released in 1983. The album contains the band's best known hit, "Sister Christian", and became the band's highest selling album, selling well over a million copies in the US.

The first single/video, "(You Can Still) Rock In America" peaked at №51 in early 1984 on Billboard's Hot 100 chart and also reached №15 on Billboard's Mainstream Rock Tracks chart. "Sister Christian" peaked at №5 On Billboard's Hot 100 and was one of the most played videos of 1984. The song also has been featured in several films including "Boogie Nights" & "Rock Of Ages" among others. "When You Close Your Eyes" was the third single/video and reached №14 on Billboard's Hot 100 chart and №7 on Billboard's Mainstream Rock Tracks Chart. "Rumours In The Air" also charted on the Billboard Mainstream Rock chart peaking at №26 in the spring of 1984.

Night Ranger - Midnight Madness (1983) [Japan 1st Press + Japan Remaster]




Night Ranger - Midnight Madness (1983) [Japan 1st Press + Japan Remaster]


Track Listing 1st Press

01. (You Can Still) Rock In America (4:15)
02. Rumours In the Air (4:33)
03. Why Does Love Have to Change (3:49)
04. Sister Christian (5:03)
05. Touch of Madness (5:01)
06. Passion Play (4:44)
07. When You Close Your Eyes (4:16)
08. Chippin' Away (4:12)
09. Let Him Run (3:22)

© 1983, 1984 MCA Records, Inc./Warner-Pioneer | 32XD-145

Night Ranger - Midnight Madness (1983) [Japan 1st Press + Japan Remaster]
Night Ranger - Midnight Madness (1983) [Japan 1st Press + Japan Remaster]


––––––––––––––––––––––––––––––––––––––––––––––––––


Night Ranger - Midnight Madness (1983) [Japan 1st Press + Japan Remaster]


Track Listing Digital Mastering

01. (You Can Still) Rock In America (4:15)
02. Rumours In the Air (4:33)
03. Why Does Love Have to Change (3:50)
04. Sister Christian (5:07)
05. Touch of Madness (5:02)
06. Passion Play (4:44)
07. When You Close Your Eyes (4:20)
08. Chippin' Away (4:13)
09. Let Him Run (3:24)

© 1983 MCA Records, Inc. | CBS/Sony Inc. (Tokyo Japan) | 35DP 119

Night Ranger - Midnight Madness (1983) [Japan 1st Press + Japan Remaster]
Night Ranger - Midnight Madness (1983) [Japan 1st Press + Japan Remaster]


Produced by Pat Glasser

The Band

• Jack Blades - bass, lead vocals
• Jeff Watson - guitars, keyboards
• Brad Gillis - guitars
• Alan Fitzgerald - keyboards
• Kelly Keagy - drums, lead vocals

• Glenn Hughes - backing vocals on "(You Can Still) Rock in America"

Exact Audio Copy V1.0 beta 3 from 29. August 2011

Отчёт EAC об извлечении, выполненном 5. марта 2012, 9:48

Night Ranger / Midnight Madness [32XD-145]

Дисковод: Optiarc DVD RW AD-7200A Adapter: 0 ID: 0

Режим чтения : Достоверность
Использование точного потока : Да
Отключение кэша аудио : Да
Использование указателей C2 : Нет

Коррекция смещения при чтении : 48
Способность читать области Lead-in и Lead-out : Нет
Заполнение пропущенных сэмплов тишиной : Да
Удаление блоков с тишиной в начале и конце : Нет
При вычислениях CRC использовались нулевые сэмплы : Да
Интерфейс : Встроенный Win32-интерфейс для Win NT/2000

Выходной формат : Пользовательский кодировщик
Выбранный битрейт : 32 kBit/s
Качество : Высокий
Добавление ID3-тега : Нет
Утилита сжатия : C:\Program Files\Exact Audio Copy\Flac\flac.exe
Дополнительные параметры : -V -8 -T "Date=%year%" -T "Genre=%genre%" %source%


TOC извлечённого CD

Трек | Старт | Длительность | Начальный сектор | Конечный сектор
––––––––––––––––––––––––––––––––––-
1 | 0:00.00 | 4:15.25 | 0 | 19149
2 | 4:15.25 | 4:33.30 | 19150 | 39654
3 | 8:48.55 | 3:49.10 | 39655 | 56839
4 | 12:37.65 | 5:03.37 | 56840 | 79601
5 | 17:41.27 | 5:01.05 | 79602 | 102181
6 | 22:42.32 | 4:44.28 | 102182 | 123509
7 | 27:26.60 | 4:16.72 | 123510 | 142781
8 | 31:43.57 | 4:12.65 | 142782 | 161746
9 | 35:56.47 | 3:22.70 | 161747 | 176966


Характеристики диапазона извлечения и сообщения об ошибках

Выбранный диапазон

Имя файла Y:\Music\Night Ranger\1983 Midnight Madness\Night Ranger - Midnight Madness [32XD-145].wav

Пиковый уровень 69.9 %
Скорость извлечения 3.5 X
Качество диапазона 100.0 %
CRC теста F8AE2E92
CRC копии F8AE2E92
Копирование… OK

Ошибок не произошло


AccurateRip: сводка

Трек 1 : извлечено точно (доверие 1) [94F1E6C6] (AR v1)
Трек 2 : извлечено точно (доверие 1) [B8EE6983] (AR v1)
Трек 3 : извлечено точно (доверие 1) [00B043CF] (AR v1)
Трек 4 : извлечено точно (доверие 1) [C6E9B4FA] (AR v1)
Трек 5 : извлечено точно (доверие 1) [24066C9A] (AR v1)
Трек 6 : извлечено точно (доверие 1) [12BFCA6A] (AR v1)
Трек 7 : извлечено точно (доверие 1) [04E3CEB1] (AR v1)
Трек 8 : извлечено точно (доверие 1) [36C2BE8F] (AR v1)
Трек 9 : извлечено точно (доверие 1) [F19633DB] (AR v1)

Все треки извлечены точно

Конец отчёта

==== Контрольная сумма отчёта D1A8633316E9386612273DBDAF537FAD466FC7E8FF8AF34603CD596AFC716132 ====

Exact Audio Copy V0.99 prebeta 5 from 4. May 2009

Отчёт EAC об извлечении, выполненном 14. января 2011, 14:49

Night Ranger / Midnight Madness [35DP 119]

Дисковод: Optiarc DVD RW AD-7200A Adapter: 1 ID: 0

Режим чтения : Достоверность
Использование точного потока : Да
Отключение кэша аудио : Да
Использование указателей C2 : Нет

Коррекция смещения при чтении : 48
Способность читать области Lead-in и Lead-out : Нет
Заполнение пропущенных сэмплов тишиной : Да
Удаление блоков с тишиной в начале и конце : Нет
При вычислениях CRC использовались нулевые сэмплы : Да
Интерфейс : Встроенный Win32-интерфейс для Win NT/2000

Выходной формат : Пользовательский кодировщик
Выбранный битрейт : 128 kBit/s
Качество : Высокий
Добавление ID3-тэга : Нет
Утилита сжатия : C:\Program Files\Exact Audio Copy\Flac\flac.exe
Дополнительные параметры : -8 -V -T "artist=%a" -T "title=%t" -T "album=%g" -T "date=%y" -T "tracknumber=%n" -T "genre=%m" -T "comment=EAC


TOC извлечённого CD

Трек | Старт | Длительность | Начальный сектор | Конечный сектор
––––––––––––––––––––––––––––––––––-
1 | 0:00.00 | 4:15.72 | 0 | 19196
2 | 4:15.72 | 4:33.60 | 19197 | 39731
3 | 8:49.57 | 3:50.03 | 39732 | 56984
4 | 12:39.60 | 5:07.15 | 56985 | 80024
5 | 17:47.00 | 5:02.37 | 80025 | 102711
6 | 22:49.37 | 4:44.48 | 102712 | 124059
7 | 27:34.10 | 4:20.00 | 124060 | 143559
8 | 31:54.10 | 4:13.40 | 143560 | 162574
9 | 36:07.50 | 3:24.62 | 162575 | 177936


Характеристики диапазона извлечения и сообщения об ошибках

Выбранный диапазон

Имя файла Y:\Музыка\Night Ranger\1983 Midnight Madness\Night Ranger - Midnight Madness [35DP 119].wav

Пиковый уровень 100.0 %
Качество диапазона 100.0 %
CRC теста 2D7F2CB9
CRC копии 2D7F2CB9
Копирование… OK

Ошибок не произошло


AccurateRip: сводка

Трек 1 точность не определена (достоверность 1) [978687BE], AccurateRip вернул [2B24AAA9]
Трек 2 точность не определена (достоверность 1) [04FEB2BA], AccurateRip вернул [EDDF7AE1]
Трек 3 точность не определена (достоверность 1) [5BA3D3ED], AccurateRip вернул [DE39106E]
Трек 4 точность не определена (достоверность 1) [5569C65D], AccurateRip вернул [BF81D2C6]
Трек 5 точность не определена (достоверность 1) [F1F0A299], AccurateRip вернул [B9F5E0A6]
Трек 6 точность не определена (достоверность 1) [39B1A02A], AccurateRip вернул [AD4293AF]
Трек 7 точность не определена (достоверность 1) [D0364E0C], AccurateRip вернул [C3FFE7CB]
Трек 8 точность не определена (достоверность 1) [CD8CBAE7], AccurateRip вернул [9DA36344]
Трек 9 точность не определена (достоверность 1) [C60CD57A], AccurateRip вернул [1E261234]

Ни один трек не прошёл проверки на точность
В вашей базе может быть иной вариант штамповки диска

Конец отчёта


Many thanks to the original uploader: ikebana