Subcategories

Nikki Lane - Highway Queen (2017)

Posted By: SERTiL
Nikki Lane - Highway Queen (2017)

Nikki Lane - Highway Queen
EAC Rip | FLAC (tracks)+cue, m3u, log, front & back cover | 36:56 min | 240 MB
Label: New West Records / NW6442 | Tracks: 10 | Rls.date: 2017
Country, Rock, Americana

Nikki Lane’s remarkably dazzling third album Highway Queen, sees the young Nashville rebel emerge as one of country and rock’s most gifted songwriters. Produced by Lane and fellow singer-songwriter Jonathan Tyler, and recorded in Denton, Texas and Nashville, Tennessee, Highway Queen is an emotional tour-de-force. Blending potent lyrics, unbridled blues guitars and vintage Sixties country-pop swagger, Lane’s new music will resonate as easily with Black Keys and Lana Del Rey fans as those of Neil Young and Tom Petty.

TRACKLIST
01. 700,000 Rednecks 03:30
02. Highway Queen 03:51
03. Lay You Down 03:58
04. Jackpot 03:33
05. Companion 03:08
06. Big Mouth 03:39
07. Foolish Heart 04:04
08. Send the Sun 02:57
09. Muddy Waters 03:11
10. Forever Lasts Forever 05:06

Exact Audio Copy V1.3 from 2. September 2016

EAC extraction logfile from 16. February 2017, 13:59

Nikki Lane / Highway Queen

Used drive : HP DVD Writer 1270t Adapter: 1 ID: 0

Read mode : Secure
Utilize accurate stream : Yes
Defeat audio cache : Yes
Make use of C2 pointers : No

Read offset correction : 6
Overread into Lead-In and Lead-Out : No
Fill up missing offset samples with silence : Yes
Delete leading and trailing silent blocks : No
Null samples used in CRC calculations : Yes
Used interface : Native Win32 interface for Win NT & 2000
Gap handling : Appended to previous track

Used output format : User Defined Encoder
Selected bitrate : 1024 kBit/s
Quality : High
Add ID3 tag : No
Command line compressor : C:\Program Files\FLAC\flac.exe
Additional command line options : -8 -V -T "Artist=%artist%" -T "Title=%title%" -T "Album=%albumtitle%" -T "Date=%year%" -T "TRACKNUMBER=%tracknr%" -T "Genre=%genre%" -T "Performer=%albuminterpret%" -T "Composer=%composer%" %haslyrics%–tag-from-file=LYRICS="%lyricsfile%"%haslyrics% -T "Album Artist=%albumartist%" -T "DISCNUMBER=%cdnumber%" -T "TOTALDISCS=%totalcds%" -T "TOTALTRACKS=%numtracks%" -T "Comment=%comment%" %source% -o %dest%


TOC of the extracted CD

Track | Start | Length | Start sector | End sector
––––––––––––––––––––––––––––-
1 | 0:00.00 | 3:30.30 | 0 | 15779
2 | 3:30.30 | 3:51.61 | 15780 | 33165
3 | 7:22.16 | 3:57.72 | 33166 | 51012
4 | 11:20.13 | 3:33.17 | 51013 | 67004
5 | 14:53.30 | 3:08.18 | 67005 | 81122
6 | 18:01.48 | 3:39.48 | 81123 | 97595
7 | 21:41.21 | 4:04.11 | 97596 | 115906
8 | 25:45.32 | 2:57.43 | 115907 | 129224
9 | 28:43.00 | 3:11.65 | 129225 | 143614
10 | 31:54.65 | 5:06.23 | 143615 | 166587


Track 1

Filename F:\Downloads\Seeds\Nikki Lane - Highway Queen (2017) [FLAC]\01 700,000 Rednecks.wav

Pre-gap length 0:00:02.00

Peak level 99.7 %
Extraction speed 1.7 X
Track quality 100.0 %
Test CRC 9F6EF1B7
Copy CRC 9F6EF1B7
Track not present in AccurateRip database
Copy OK

Track 2

Filename F:\Downloads\Seeds\Nikki Lane - Highway Queen (2017) [FLAC]\02 Highway Queen.wav

Peak level 100.0 %
Extraction speed 1.9 X
Track quality 100.0 %
Test CRC 6DFECAA1
Copy CRC 6DFECAA1
Track not present in AccurateRip database
Copy OK

Track 3

Filename F:\Downloads\Seeds\Nikki Lane - Highway Queen (2017) [FLAC]\03 Lay You Down.wav

Peak level 100.0 %
Extraction speed 2.1 X
Track quality 100.0 %
Test CRC 0ADFC76E
Copy CRC 0ADFC76E
Track not present in AccurateRip database
Copy OK

Track 4

Filename F:\Downloads\Seeds\Nikki Lane - Highway Queen (2017) [FLAC]\04 Jackpot.wav

Peak level 100.0 %
Extraction speed 2.2 X
Track quality 100.0 %
Test CRC 7302E6D4
Copy CRC 7302E6D4
Track not present in AccurateRip database
Copy OK

Track 5

Filename F:\Downloads\Seeds\Nikki Lane - Highway Queen (2017) [FLAC]\05 Companion.wav

Peak level 100.0 %
Extraction speed 1.6 X
Track quality 99.9 %
Test CRC AA06FF5C
Copy CRC AA06FF5C
Track not present in AccurateRip database
Copy OK

Track 6

Filename F:\Downloads\Seeds\Nikki Lane - Highway Queen (2017) [FLAC]\06 Big Mouth.wav

Peak level 99.9 %
Extraction speed 2.5 X
Track quality 100.0 %
Test CRC 6B7962E6
Copy CRC 6B7962E6
Track not present in AccurateRip database
Copy OK

Track 7

Filename F:\Downloads\Seeds\Nikki Lane - Highway Queen (2017) [FLAC]\07 Foolish Heart.wav

Peak level 100.0 %
Extraction speed 2.7 X
Track quality 100.0 %
Test CRC 069E4C59
Copy CRC 069E4C59
Track not present in AccurateRip database
Copy OK

Track 8

Filename F:\Downloads\Seeds\Nikki Lane - Highway Queen (2017) [FLAC]\08 Send the Sun.wav

Peak level 100.0 %
Extraction speed 2.7 X
Track quality 100.0 %
Test CRC 4233268B
Copy CRC 4233268B
Track not present in AccurateRip database
Copy OK

Track 9

Filename F:\Downloads\Seeds\Nikki Lane - Highway Queen (2017) [FLAC]\09 Muddy Waters.wav

Peak level 100.0 %
Extraction speed 1.9 X
Track quality 99.9 %
Test CRC C7F96A19
Copy CRC C7F96A19
Track not present in AccurateRip database
Copy OK

Track 10

Filename F:\Downloads\Seeds\Nikki Lane - Highway Queen (2017) [FLAC]\10 Forever Lasts Forever.wav

Peak level 100.0 %
Extraction speed 3.1 X
Track quality 100.0 %
Test CRC 6A4F93A8
Copy CRC 6A4F93A8
Track not present in AccurateRip database
Copy OK


None of the tracks are present in the AccurateRip database

No errors occurred

End of status report

–– CUETools DB Plugin V2.1.6

[CTDB TOCID: BSxZPL7v.boNmqVrrtCbEnsK6g0-] found
Submit result: BSxZPL7v.boNmqVrrtCbEnsK6g0- has been confirmed
Track | CTDB Status
1 | (1/1) Accurately ripped
2 | (1/1) Accurately ripped
3 | (1/1) Accurately ripped
4 | (1/1) Accurately ripped
5 | (1/1) Accurately ripped
6 | (1/1) Accurately ripped
7 | (1/1) Accurately ripped
8 | (1/1) Accurately ripped
9 | (1/1) Accurately ripped
10 | (1/1) Accurately ripped


==== Log checksum 0180E3721CCED2A989CE71D69B6A45B16D4504FD03D40950540BAA0FD3A72DEE ====


Nikki Lane - Highway Queen (2017)


Thanks to the Original customer.