Subcategories

Nils Lofgren - Sacred Weapon (2006)

Posted By: Andi_Deris
Nils Lofgren - Sacred Weapon (2006)

Nils Lofgren - Sacred Weapon (2006)
EAC Rip | FLAC: Tracks+Cue+Log | 282 Mb | MP3 CBR 320 kbps | 99 Mb | Scans | Time: 41:23
Genre: Classic Rock, Roots Rock, Heartland Rock | Label: Hypertension Music | Cat.№: HYP 6247

Sacred Weapon is Nils Lofgren's 17th studio album since parting ways with Grin in a career that's spanned more than 30 years. Sacred Weapon is a powerful, action-packed 12 track album featuring guitar, dobro, pedal steel and multiple keyboards. The combination of beautifully crafted songs, compounded with the unparalleled guitar playing and the emotional but solid vocal deliveries on this album make it one of Lofgren’s finest works.



Nils Lofgren - Sacred Weapon (2006)


Track Listing

01. In Your Hands (03:21)
02. Fat Girls Dance (04:39)
03. Comfort Your Love Brings (03:38)
04. Pay Your Woman (02:35)
05. Whiskey Holler (02:43)
06. You're Not There (03:55)
07. Tried And True (01:59)
08. Mr. Hardcore (05:09)
09. Come A Day (02:46)
10. Frankie Hang On (03:41)
11. Trouble (03:53)
12. Can't Take The Rock (02:58)

Produced by Roger Greenwalt & Nils Lofgren

Personnel

• Nils Lofgren - Vocals, Guitar, Dobro, Dulcimer, Bass (Tracks 7,12), Accordion, Piano, Pedal Steel Guitar, Synthesiser, Glockenspiel, Percussion

with

• Albert Anderson - Vocals (Tracks 4, 8, 9)
• Renee Anderson - Vocals (Tracks 4, 8, 9)
• Bob Berberich - Vocals (Tracks 8, 12)
• Timm Biery - Drums, Percussion
• Robin Blackstone - Vocals (Track 4)
• Lynn Marie Blanton - Vocals (Tracks 4, 8, 9)
• Dylan Covington - Vocals (Track 4)
• David Crosby - Vocals (Track 10)
• Roger Greenawalt - Vocals (Track 4)
• Jen Herndon - Vocals (Track 4)
• Will Herndon - Vocals (Track 4)
• Maggie Keasler - Vocals (Track 4)
• Nikki Jones - Vocals (Tracks 4, 8, 9)
• Tommy Lepson - Vocals (Tracks 2, 8)
• Tom Lofgren - Vocals (Track 1)
• Mark Lofgren - Vocals (Track 1)
• Mike Lofgren - Vocals (Track 1)
• Kevin McCormick - Upright, Electric & Fretless Bass
• Barbara McCreary - Vocals (Track 4)
• Mark McDowell - Vocals (Track 4)
• Graham Nash - Vocals (Track 10)
• Willie Nelson - Vocals (Track 1)
• Chile Pepper - Vocals (Track 4)
• Peach Pitt - Vocals (Track 4)
• Mary Ann Redmond - Vocals (Tracks 2, 4, 6, 8, 12)
• Margo Reed Vocals (Tracks 2, 6)
• Roney - Vocals (Tracks 4, 8, 9, 11)
• Ron Rutkowski - Violin (Track 3)
• Martin Sexton - Vocals (Track 5)
• Rickie Simpkins - Violin (Track 1)
• Robert Spates - Violin (Track 1)
• Cameron K Walls - Vocals (Tracks 4, 8, 9)
• Greg Warner - Drums (Track 12)
• Abbey Withey - Vocals (Track 4)
• Amy Withey - Vocals (Track 4)

Nils Lofgren - Sacred Weapon (2006)


Exact Audio Copy V1.0 beta 1 from 15. November 2010

EAC extraction logfile from 23. February 2011, 18:35

Nils Lofgren / Sacred Weapon

Used drive : Optiarc DVD RW AD-7561A Adapter: 1 ID: 0

Read mode : Secure
Utilize accurate stream : Yes
Defeat audio cache : Yes
Make use of C2 pointers : No

Read offset correction : 6
Overread into Lead-In and Lead-Out : No
Fill up missing offset samples with silence : Yes
Delete leading and trailing silent blocks : No
Null samples used in CRC calculations : Yes
Used interface : Native Win32 interface for Win NT & 2000
Gap handling : Appended to previous track

Used output format : User Defined Encoder
Selected bitrate : 1024 kBit/s
Quality : High
Add ID3 tag : No
Command line compressor : C:\Program Files (x86)\Exact Audio Copy\Flac\flac.exe
Additional command line options : -V -8 -T "artist=%a" -T "title=%t" -T "album=%g" -T "date=%y" -T "tracknumber=%n" %s


TOC of the extracted CD

Track | Start | Length | Start sector | End sector
––––––––––––––––––––––––––––-
1 | 0:00.00 | 3:21.02 | 0 | 15076
2 | 3:21.02 | 4:39.54 | 15077 | 36055
3 | 8:00.56 | 3:38.32 | 36056 | 52437
4 | 11:39.13 | 2:35.55 | 52438 | 64117
5 | 14:14.68 | 2:43.41 | 64118 | 76383
6 | 16:58.34 | 3:55.65 | 76384 | 94073
7 | 20:54.24 | 1:59.13 | 94074 | 103011
8 | 22:53.37 | 5:09.53 | 103012 | 126239
9 | 28:03.15 | 2:46.31 | 126240 | 138720
10 | 30:49.46 | 3:41.01 | 138721 | 155296
11 | 34:30.47 | 3:53.58 | 155297 | 172829
12 | 38:24.30 | 2:58.15 | 172830 | 186194


Track 1

Filename D:\Seeding\Nils Lofgren - 2006 - Sacred Weapon {–-} [FLAC]\01. In Your Hands.wav

Pre-gap length 0:00:02.00

Peak level 98.5 %
Extraction speed 2.5 X
Track quality 100.0 %
Test CRC A4634C9B
Copy CRC A4634C9B
Accurately ripped (confidence 11) [1DF67EC6]
Copy OK

Track 2

Filename D:\Seeding\Nils Lofgren - 2006 - Sacred Weapon {–-} [FLAC]\02. Fat Girls Dance.wav

Pre-gap length 0:00:01.46

Peak level 100.0 %
Extraction speed 2.9 X
Track quality 100.0 %
Test CRC 26FDBBEC
Copy CRC 26FDBBEC
Accurately ripped (confidence 11) [BC6685BF]
Copy OK

Track 3

Filename D:\Seeding\Nils Lofgren - 2006 - Sacred Weapon {–-} [FLAC]\03. Comfort Your Love Brings.wav

Pre-gap length 0:00:02.89

Peak level 98.4 %
Extraction speed 3.0 X
Track quality 100.0 %
Test CRC A1776FC6
Copy CRC A1776FC6
Accurately ripped (confidence 11) [01FD6D16]
Copy OK

Track 4

Filename D:\Seeding\Nils Lofgren - 2006 - Sacred Weapon {–-} [FLAC]\04. Pay Your Woman.wav

Pre-gap length 0:00:02.29

Peak level 98.6 %
Extraction speed 2.3 X
Track quality 99.9 %
Test CRC 0DF68390
Copy CRC 0DF68390
Accurately ripped (confidence 11) [FEC6A6AF]
Copy OK

Track 5

Filename D:\Seeding\Nils Lofgren - 2006 - Sacred Weapon {–-} [FLAC]\05. Whiskey Holler.wav

Pre-gap length 0:00:02.57

Peak level 98.4 %
Extraction speed 3.2 X
Track quality 100.0 %
Test CRC 2F05F825
Copy CRC 2F05F825
Accurately ripped (confidence 11) [C8B3441F]
Copy OK

Track 6

Filename D:\Seeding\Nils Lofgren - 2006 - Sacred Weapon {–-} [FLAC]\06. You're Not There.wav

Pre-gap length 0:00:02.29

Peak level 99.4 %
Extraction speed 3.6 X
Track quality 100.0 %
Test CRC 784EE41F
Copy CRC 784EE41F
Accurately ripped (confidence 11) [125D257F]
Copy OK

Track 7

Filename D:\Seeding\Nils Lofgren - 2006 - Sacred Weapon {–-} [FLAC]\07. Tried and True.wav

Pre-gap length 0:00:02.84

Peak level 80.8 %
Extraction speed 2.3 X
Track quality 99.9 %
Test CRC 62DF0DF2
Copy CRC 62DF0DF2
Accurately ripped (confidence 11) [D9FEAB6D]
Copy OK

Track 8

Filename D:\Seeding\Nils Lofgren - 2006 - Sacred Weapon {–-} [FLAC]\08. Mr. Hardcore.wav

Pre-gap length 0:00:03.52

Peak level 99.1 %
Extraction speed 4.0 X
Track quality 100.0 %
Test CRC 6339CD96
Copy CRC 6339CD96
Accurately ripped (confidence 11) [0CA9CC9A]
Copy OK

Track 9

Filename D:\Seeding\Nils Lofgren - 2006 - Sacred Weapon {–-} [FLAC]\09. Come a Day.wav

Pre-gap length 0:00:02.34

Peak level 98.5 %
Extraction speed 3.9 X
Track quality 100.0 %
Test CRC 06CE3CFC
Copy CRC 06CE3CFC
Accurately ripped (confidence 11) [62E5FF17]
Copy OK

Track 10

Filename D:\Seeding\Nils Lofgren - 2006 - Sacred Weapon {–-} [FLAC]\10. Frankie Hang On.wav

Pre-gap length 0:00:01.90

Peak level 98.5 %
Extraction speed 4.1 X
Track quality 100.0 %
Test CRC B06BE86F
Copy CRC B06BE86F
Accurately ripped (confidence 11) [C7C0B7E8]
Copy OK

Track 11

Filename D:\Seeding\Nils Lofgren - 2006 - Sacred Weapon {–-} [FLAC]\11. Trouble.wav

Pre-gap length 0:00:02.20

Peak level 98.7 %
Extraction speed 3.5 X
Track quality 99.9 %
Test CRC 762D1525
Copy CRC 762D1525
Accurately ripped (confidence 11) [DF32419E]
Copy OK

Track 12

Filename D:\Seeding\Nils Lofgren - 2006 - Sacred Weapon {–-} [FLAC]\12. Can't Take the Rock.wav

Pre-gap length 0:00:00.36

Peak level 98.5 %
Extraction speed 4.3 X
Track quality 100.0 %
Test CRC 258E4318
Copy CRC 258E4318
Accurately ripped (confidence 11) [66EF19F7]
Copy OK


All tracks accurately ripped

No errors occurred

End of status report

==== Log checksum 02DFD6F69B5EB8EC82CAA5BD1A037DDAF063BFE9BFD480334A55CBB9F3A9BCDF ====


Many thanks to the original uploader: 5moufl

See also:
* Nils Lofgren 2010 Cry Tough [2 DVD Set]
* Nils Lofgren 2014 Collection 1975-79 (6 Albums, 7 CDs) [Japan LTD (mini LP) SHM-CD]
* Nils Lofgren 2014 Face The Music [Limited Edition Box Set, 9 CD's+1 DVD]