Subcategories

Nina Hagen - 14 Friendly Abductions: The Best Of Nina Hagen (1996) [Re-Up]

Posted By: Designol
Nina Hagen - 14 Friendly Abductions: The Best Of Nina Hagen (1996) [Re-Up]

Nina Hagen - 14 Friendly Abductions: The Best Of Nina Hagen (1996)
EAC | FLAC | Image (Cue&Log) ~ 586 Mb (incl 5%) | Mp3 (CBR320) ~ 193 Mb (incl 5%) | Scans included
Punk, Post-Punk, New Wave, Alternative | Label: Columbia/Legacy | # CK 64790 | Time: 01:14:06

Nina Hagen is a unique vocalist, ranging from a coloratura soprano to a guttural alto and phrasing in surprising, dramatically changing ways, so that her performances are musical roller coasters, full of sudden shifts in mood and volume. Singing alternately in German and English, Hagen is backed by rock tracks leaning toward punk on some songs, and by producer Giorgio Moroder's signature Euro-disco synth-dance sounds on others on this 14-track, 74-minute compilation. Want to hear a German-language version of the Tubes' "White Punks on Dope"? How about a performance of "My Way" (also in German) that rivals Sid Vicious' for outrageousness? Ultimately, Nina Hagen may be a period novelty act of the early '80s, a mixture of Toni Basil, Falco, and a hyena. But she gets your attention.

Review by William Ruhlmann, Allmusic.com

Nina Hagen - 14 Friendly Abductions: The Best Of Nina Hagen (1996) [Re-Up]



Tracklist:

01. Zarah (04:36)
02. New York New York (05:15)
03. Smack Jack (05:15)
04. TV-Glotzer (White Punks On Dope) (05:13)
05. Spirit In The Sky (05:15)
06. African Reggae (06:16)
07. Universal Radio (Universal Dance Mix) (06:59)
08. My Sensation (04:03)
09. Iki Maska (05:08)
10. Wir Leben Immer Noch (Lucky Number) (04:54)
11. Cosma Shiva (03:17)
12. Zarah (Dance Mix) (06:30)
13. Zarah (Dub) (06:53)
14. My Way (04:26)


Exact Audio Copy V1.0 beta 3 from 29. August 2011

Отчёт EAC об извлечении, выполненном 10. января 2012, 23:48

Nina Hagen / 14 Friendly Abductions

Дисковод: TEAC DV-W518GM Adapter: 2 ID: 0

Режим чтения : Достоверность
Использование точного потока : Да
Отключение кэша аудио : Да
Использование указателей C2 : Нет

Коррекция смещения при чтении : 6
Способность читать области Lead-in и Lead-out : Нет
Заполнение пропущенных сэмплов тишиной : Да
Удаление блоков с тишиной в начале и конце : Нет
При вычислениях CRC использовались нулевые сэмплы : Да
Интерфейс : Установленный внешний ASPI-интерфейс

Выходной формат : Пользовательский кодировщик
Выбранный битрейт : 128 kBit/s
Качество : Высокий
Добавление ID3-тега : Нет
Утилита сжатия : C:\Program Files (x86)\Exact Audio Copy\Flac\flac.exe
Дополнительные параметры : -V -8 -T "Genre=%genre%" -T "Artist=%artist%" -T "Title=%title%" -T "Album=%albumtitle%" -T "Date=%year%" -T "Tracknumber=%tracknr%" -T "Comment=%comment%" %source%


TOC извлечённого CD

Трек | Старт | Длительность | Начальный сектор | Конечный сектор
––––––––––––––––––––––––––––––––––-
1 | 0:00.00 | 4:37.00 | 0 | 20774
2 | 4:37.00 | 5:15.30 | 20775 | 44429
3 | 9:52.30 | 5:15.57 | 44430 | 68111
4 | 15:08.12 | 5:14.28 | 68112 | 91689
5 | 20:22.40 | 5:15.62 | 91690 | 115376
6 | 25:38.27 | 6:18.43 | 115377 | 143769
7 | 31:56.70 | 6:59.37 | 143770 | 175231
8 | 38:56.32 | 4:03.63 | 175232 | 193519
9 | 43:00.20 | 5:08.27 | 193520 | 216646
10 | 48:08.47 | 4:54.40 | 216647 | 238736
11 | 53:03.12 | 3:17.58 | 238737 | 253569
12 | 56:20.70 | 6:30.42 | 253570 | 282861
13 | 62:51.37 | 6:54.08 | 282862 | 313919
14 | 69:45.45 | 4:26.02 | 313920 | 333871


Характеристики диапазона извлечения и сообщения об ошибках

Выбранный диапазон

Имя файла E:\MUZON\Nina Hagen\Nina.Hagen-14.Friendly.Abductions\Nina Hagen - 14 Friendly Abductions.wav

Пиковый уровень 100.0 %
Скорость извлечения 3.5 X
Качество диапазона 100.0 %
CRC теста A398BDEF
CRC копии A398BDEF
Копирование… OK

Ошибок не произошло

Конец отчёта

==== Контрольная сумма отчёта D290C4283761E8839D6F7423CA9F75AB0FB08E72A37A64AC009F82F40A5795DC ====

[CUETools log; Date: 16.07.2013 16:07:54; Version: 2.1.4]
[CTDB TOCID: G1MxjO6RVhD8yJ0ptKkQcDeVd_s-] disk not present in database.
[AccurateRip ID: 00260862-0196da56-d311630e] found.
Track [ CRC | V2 ] Status
01 [90655925|d37bebf7] (4+0/4) Accurately ripped
02 [081e3926|cd398374] (4+0/4) Accurately ripped
03 [2c2b669d|7417a103] (4+0/4) Accurately ripped
04 [9fe26da3|9f34e60e] (4+0/4) Accurately ripped
05 [920bd2dc|63e51a0b] (4+0/4) Accurately ripped
06 [313309c1|2b799b10] (4+0/4) Accurately ripped
07 [d326c18a|9e8be5cd] (4+0/4) Accurately ripped
08 [4faf56af|f9cfe8fc] (4+0/4) Accurately ripped
09 [3050e7cb|6a32d61c] (4+0/4) Accurately ripped
10 [5a998b77|e8f63234] (4+0/4) Accurately ripped
11 [d877e588|b0cbea5f] (4+0/4) Accurately ripped
12 [2aac814f|70959beb] (4+0/4) Accurately ripped
13 [8db91789|5d7f5506] (4+0/4) Accurately ripped
14 [686d875b|7f62678a] (3+0/3) Accurately ripped

Track Peak [ CRC32 ] [W/O NULL] [ LOG ]
– 100,0 [A398BDEF] [63CAC903] CRC32
01 100,0 [038361CE] [9B575CCD]
02 100,0 [25E02498] [6D49CE8C]
03 100,0 [E0C5B4E2] [DC450C8F]
04 100,0 [6543793E] [ED4C479C]
05 100,0 [85677317] [65D220AE]
06 100,0 [317BDC4B] [CF1739D7]
07 100,0 [70D3C47F] [7EB8CA28]
08 100,0 [42FE1F62] [15E6D0C9]
09 100,0 [F817C5FE] [97DCFBC5]
10 100,0 [A8ABF313] [1CBAF086]
11 100,0 [B9443655] [714FE627]
12 100,0 [E784BE85] [FA9763A9]
13 100,0 [88538570] [EEA19A3E]
14 100,0 [D099DEDA] [7083229C]

foobar2000 1.2 / Dynamic Range Meter 1.1.1
log date: 2013-07-14 14:44:57

––––––––––––––––––––––––––––––––––––––––
Analyzed: Nina Hagen / 14 Friendly Abductions
––––––––––––––––––––––––––––––––––––––––

DR Peak RMS Duration Track
––––––––––––––––––––––––––––––––––––––––
DR7 0.00 dB -9.12 dB 4:37 01-Zarah
DR7 0.00 dB -9.54 dB 5:15 02-New York New York
DR7 0.00 dB -8.26 dB 5:16 03-Smack Jack
DR6 0.00 dB -7.17 dB 5:14 04-TV-Glotzer (White Punks On Dope)
DR7 0.00 dB -8.44 dB 5:16 05-Spirit In The Sky
DR7 0.00 dB -8.35 dB 6:19 06-African Reggae
DR6 0.00 dB -8.02 dB 6:59 07-Universal Radio (Universal Dance Mix)
DR7 0.00 dB -8.04 dB 4:04 08-My Sensation
DR8 0.00 dB -8.84 dB 5:08 09-Iki Maska
DR7 0.00 dB -7.85 dB 4:55 10-Wir Leben Immer Noch (Lucky Number)
DR6 0.00 dB -8.30 dB 3:18 11-Cosma Shiva
DR6 0.00 dB -7.24 dB 6:31 12-Zarah (Dance Mix)
DR6 0.00 dB -7.56 dB 6:54 13-Zarah (Dub)
DR6 0.00 dB -7.63 dB 4:26 14-My Way
––––––––––––––––––––––––––––––––––––––––

Number of tracks: 14
Official DR value: DR7

Samplerate: 44100 Hz
Channels: 2
Bits per sample: 16
Bitrate: 1025 kbps
Codec: FLAC
================================================================================

Nina Hagen - 14 Friendly Abductions: The Best Of Nina Hagen (1996) [Re-Up]

All thanks to original releaser - stas64

More interesting music in My Blog