Subcategories

Nine Skies - Return Home (2018) {Special Edition}

Posted By: popsakov
Nine Skies - Return Home (2018) {Special Edition}

Nine Skies - Return Home (2018) {Special Edition}
EAC Rip | FLAC (Img) + Cue + Log ~ 428 Mb | Full Scans ~ 51 Mb | 01:09:02 | RAR 5% Recovery
Progressive Rock | Anesthetize Productions #ANE006

Nine Skies are a French progressive rock band inspired by many influences: rock, pop, progressive, classical, jazz… The first album “Return Home” was released on the 30th November 2017 via Anesthetize Productions. The album relates, through the eyes of the protagonist, the lives of different characters from a contemporary big city. Sometimes metaphorical, sometimes particularly realistic, these different existences show the absurdities of our current world and the way we learn to live with our sufferings. The diversity of the bands influences allow to express vatious feelings while preserving the coherence of this modern musical tale.

***************

Nine Skies - Return Home (2018) {Special Edition}

Track List:

01. Return Home [6:30]
02. Season of Greed [4:16]
03. Catharsis [2:54]
04. The Blind Widower [8:56]
05. Roses Never Hatch [6:35]
06. The Slight Snake [3:20]
07. Dust in Town [6:50]
08. The Blind Widower (Part II [5:31]
09. Time for Them to Go [5:02]
10. A Way Back ( Return Home Part II [5:10]
11. Return Home (Alternative version [3:14]
12. Season of Greed (Alternative version [3:33]
13. The Slight Snake (Alternative version [3:32]
14. Return Home Part II (Alternative version [3:40]

Personnel:
Alexandre Boussacre - Vocals
Freddy Scott - Vocals
David Darnaud - Guitars
Eric Bouillette - Guitars / Piano on “The Blind Widower Part I”
Alexandre Lamia - Guitars / Keyboards
Anne Claire Rallo - Keyboards
Bernard Hery - Bass
Fab Galia - Drums
Laurent Benhamou - Saxophones
Penny Mac Morris - Flute on “The Blind Widower Part I & II”

Exact Audio Copy V1.3 from 2. September 2016

Отчёт EAC об извлечении, выполненном 15. ноября 2019, 6:44

Nine Skies / Return Home

Дисковод: HL-DT-STDVDRAM GT70N Adapter: 1 ID: 0

Режим чтения : Достоверность
Использование точного потока : Да
Отключение кэша аудио : Да
Использование указателей C2 : Нет

Коррекция смещения при чтении : 103
Способность читать области Lead-in и Lead-out : Нет
Заполнение пропущенных сэмплов тишиной : Да
Удаление блоков с тишиной в начале и конце : Нет
При вычислениях CRC использовались нулевые сэмплы : Да
Интерфейс : Встроенный Win32-интерфейс для Win NT/2000

Выходной формат : Пользовательский кодировщик
Выбранный битрейт : 1024 kBit/s
Качество : Высокий
Добавление ID3-тега : Нет
Утилита сжатия : C:\Program Files (x86)\Exact Audio Copy\Flac\flac.exe
Дополнительные параметры : -V -8 -T "Date=%year%" -T "Genre=%genre%" %source%


TOC извлечённого CD

Трек | Старт | Длительность | Начальный сектор | Конечный сектор
––––––––––––––––––––––––––––––––––-
1 | 0:00.00 | 6:29.47 | 0 | 29221
2 | 6:29.47 | 4:16.17 | 29222 | 48438
3 | 10:45.64 | 2:53.39 | 48439 | 61452
4 | 13:39.28 | 8:55.71 | 61453 | 101648
5 | 22:35.24 | 6:35.08 | 101649 | 131281
6 | 29:10.32 | 3:19.48 | 131282 | 146254
7 | 32:30.05 | 6:49.48 | 146255 | 176977
8 | 39:19.53 | 5:31.22 | 176978 | 201824
9 | 44:51.00 | 5:01.73 | 201825 | 224472
10 | 49:52.73 | 5:10.18 | 224473 | 247740
11 | 55:03.16 | 3:13.53 | 247741 | 262268
12 | 58:16.69 | 3:32.52 | 262269 | 278220
13 | 61:49.46 | 3:32.35 | 278221 | 294155
14 | 65:22.06 | 3:40.27 | 294156 | 310682


Характеристики диапазона извлечения и сообщения об ошибках

Выбранный диапазон

Имя файла C:\Users\Oleg1\Desktop\Nine Skies - Return Home.wav

Пиковый уровень 100.0 %
Скорость извлечения 5.0 X
Качество диапазона 100.0 %
CRC теста 6262DAC0
CRC копии 6262DAC0
Копирование… OK

Ошибок не произошло


AccurateRip: сводка

Трек 1 отсутствует в базе данных
Трек 2 отсутствует в базе данных
Трек 3 отсутствует в базе данных
Трек 4 отсутствует в базе данных
Трек 5 отсутствует в базе данных
Трек 6 отсутствует в базе данных
Трек 7 отсутствует в базе данных
Трек 8 отсутствует в базе данных
Трек 9 отсутствует в базе данных
Трек 10 отсутствует в базе данных
Трек 11 отсутствует в базе данных
Трек 12 отсутствует в базе данных
Трек 13 отсутствует в базе данных
Трек 14 отсутствует в базе данных

Ни одного трека нет в базе AccurateRip

Конец отчёта

–– CUETools DB Plugin V2.1.6

[CTDB TOCID: TOIxVfpQl0e6hu956SsODb6oCgU-] disk not present in database
Submit result: TOIxVfpQl0e6hu956SsODb6oCgU- has been uploaded


==== Контрольная сумма отчёта 9AD28978C467FEF96D890FBD0C8755600BF277FC84BFF9351A71D7934435BE82 ====

See also:

Nine Skies - Sweetheart Grips (2019)

All thanks go to verbiya

>>> My Blog <<<

DOWNLOAD: