Subcategories

Nikki D - Daddy's Little Girl (US promo CD5) (1991) {Def Jam} **[RE-UP]**

Posted By: TestTickles
Nikki D - Daddy's Little Girl (US promo CD5) (1991) {Def Jam} **[RE-UP]**

Nikki D - Daddy's Little Girl (US promo CD5) (1991) {Def Jam}
EAC Rip | FLAC with CUE and log | scans | 91 mb
MP3 CBR 320kbps | RAR | 30 mb
Genre: rap, hip-hop

Daddy's Little Girl is the 1991 CD5 by rapper Nikki D. It features three mixes of the song, including an acapella. This was released by Def Jam via Columbia.

Nikki D - Daddy's Little Girl (US promo CD5) (1991) {Def Jam} **[RE-UP]**

1. Daddy's Little Girl (Main Mix)
2. Daddy's Little Girl (Dub)
3. Daddy's Little Girl (A Cappella)

Nikki D - Daddy's Little Girl (US promo CD5) (1991) {Def Jam} **[RE-UP]**


Exact Audio Copy V1.1 from 23. June 2015

EAC extraction logfile from 27. November 2015, 13:14

Nikki D / Daddy's Little Girl (CD5)

Used drive : TEAC DVD-ROM DV-28SW Adapter: 1 ID: 0

Read mode : Secure
Utilize accurate stream : Yes
Defeat audio cache : Yes
Make use of C2 pointers : No

Read offset correction : 6
Overread into Lead-In and Lead-Out : No
Fill up missing offset samples with silence : Yes
Delete leading and trailing silent blocks : No
Null samples used in CRC calculations : Yes
Used interface : Native Win32 interface for Win NT & 2000
Gap handling : Left out

Used output format : Internal WAV Routines
Sample format : 44.100 Hz; 16 Bit; Stereo


TOC of the extracted CD

Track | Start | Length | Start sector | End sector
––––––––––––––––––––––––––––-
1 | 0:00.00 | 4:32.35 | 0 | 20434
2 | 4:32.35 | 4:28.65 | 20435 | 40599
3 | 9:01.25 | 4:27.17 | 40600 | 60641


Track 1

Filename C:\My Documents\My FLAC\Nikki D - Daddy's Little Girl (CD5) (1991) [FLAC] {Def Jam}\01 - Daddy's Little Girl (Main Mix).wav

Pre-gap length 0:00:02.00

Peak level 93.2 %
Extraction speed 1.7 X
Track quality 99.9 %
Test CRC 62023471
Copy CRC 62023471
Track not fully ripped for AccurateRip lookup
Copy OK

Track 2

Filename C:\My Documents\My FLAC\Nikki D - Daddy's Little Girl (CD5) (1991) [FLAC] {Def Jam}\02 - Daddy's Little Girl (Dub).wav

Pre-gap length 0:00:02.18

Peak level 93.3 %
Extraction speed 2.1 X
Track quality 100.0 %
Test CRC 1956827E
Copy CRC 1956827E
Track not fully ripped for AccurateRip lookup
Copy OK

Track 3

Filename C:\My Documents\My FLAC\Nikki D - Daddy's Little Girl (CD5) (1991) [FLAC] {Def Jam}\03 - Daddy's Little Girl (A Cappella).wav

Pre-gap length 0:00:02.25

Peak level 93.3 %
Extraction speed 2.1 X
Track quality 99.9 %
Test CRC 7BA851B3
Copy CRC 7BA851B3
Track not present in AccurateRip database
Copy OK


1 track(s) not present in the AccurateRip database
2 track(s) not fully ripped for AccurateRip lookup

No tracks could be verified as accurate

No errors occurred

End of status report

==== Log checksum 9F408609A6D7E6438F3EB39F61C05C77B02F893C4C554C1838F7465F622FFC54 ====


Nikki D - Daddy's Little Girl (US promo CD5) (1991) {Def Jam} **[RE-UP]**


Check out other titles in my Avaxhome blog