Subcategories

Nils Lofgren - Flip (1985) {Columbia}

Posted By: TestTickles
Nils Lofgren - Flip (1985) {Columbia}

Nils Lofgren - Flip (1985) {Columbia}
EAC Rip | FLAC with CUE and log | scans | 270 mb
MP3 CBR 320kbps | RAR | 90 mb
Genre: rock

Flip is the 1985 album by American guitarist/vocalist Nils Lofgren. This was released a year after he joined Bruce Springsteen & The E Street Band. The album features the singles "Deliver Night", "Secrets In The Street" and "Flip Ya Flip".

Nils Lofgren - Flip (1985) {Columbia}

1. Flip Ya Flip (4:08)
2. Secrets In The Street (4:31)
3. From The Heart (3:28)
4. Delivery Night (3:52)
5. King Of The Rock (5:23)
6. Sweet Midnight (6:47)
7. New Holes In Old Shoes (4:34)
8. Dreams Die Hard (3:32)
9. Big Tears Fall (6:06)

Nils Lofgren-vocals, guitars, Keyboards
Andy Newmark-drums
Wornell Jones-bass
T Lavitz-Oberheim Ppg
Tommy Mandel-Dx7, Prophet 5, Casio

ADDITIONAL MUSICIANS
Paul Griffin-piano, Hammond organ
Steve Hooper Lombardeli-saxophone
Rick Valenti-harmonica & background vocals
Devereau Merryweather-background vocals
Rudy Rubin-background vocals
Tico Torres-background vocals

Produced by Lance Quinn & Nils Lofgren
Recording and mixed by Bill Scheniman
Additional engineering by Mal
Assisted by Big Al Greaves, John Cianci, Paul K.
Recorded at Warehouse Studios, Philadelphia, PA

Nils Lofgren - Flip (1985) {Columbia}


Exact Audio Copy V1.1 from 23. June 2015

EAC extraction logfile from 26. November 2016, 23:20

Nils Lofgren / Flip

Used drive : TEAC DVD-ROM DV-28SW Adapter: 1 ID: 0

Read mode : Secure
Utilize accurate stream : Yes
Defeat audio cache : Yes
Make use of C2 pointers : No

Read offset correction : 6
Overread into Lead-In and Lead-Out : No
Fill up missing offset samples with silence : Yes
Delete leading and trailing silent blocks : No
Null samples used in CRC calculations : Yes
Used interface : Native Win32 interface for Win NT & 2000
Gap handling : Appended to previous track

Used output format : Internal WAV Routines
Sample format : 44.100 Hz; 16 Bit; Stereo


TOC of the extracted CD

Track | Start | Length | Start sector | End sector
––––––––––––––––––––––––––––-
1 | 0:00.00 | 4:08.67 | 0 | 18666
2 | 4:08.67 | 4:35.68 | 18667 | 39359
3 | 8:44.60 | 3:30.22 | 39360 | 55131
4 | 12:15.07 | 3:55.70 | 55132 | 72826
5 | 16:11.02 | 5:24.33 | 72827 | 97159
6 | 21:35.35 | 6:56.37 | 97160 | 128396
7 | 28:31.72 | 4:34.25 | 128397 | 148971
8 | 33:06.22 | 3:33.28 | 148972 | 164974
9 | 36:39.50 | 6:07.10 | 164975 | 192509


Track 1

Filename C:\My Documents\My FLAC\Nils Lofgren - Flip (1985) [FLAC] {Columbia}\01 - Flip Ya Flip.wav

Pre-gap length 0:00:02.00

Peak level 69.5 %
Extraction speed 1.8 X
Track quality 100.0 %
Test CRC 7394C09D
Copy CRC 7394C09D
Accurately ripped (confidence 5) [E86491FE] (AR v2)
Copy OK

Track 2

Filename C:\My Documents\My FLAC\Nils Lofgren - Flip (1985) [FLAC] {Columbia}\02 - Secrets In The Street.wav

Pre-gap length 0:00:02.15

Peak level 88.9 %
Extraction speed 1.9 X
Track quality 99.9 %
Test CRC EAA1F383
Copy CRC EAA1F383
Accurately ripped (confidence 5) [57186EC7] (AR v2)
Copy OK

Track 3

Filename C:\My Documents\My FLAC\Nils Lofgren - Flip (1985) [FLAC] {Columbia}\03 - From The Heart.wav

Pre-gap length 0:00:02.58

Peak level 87.6 %
Extraction speed 2.2 X
Track quality 100.0 %
Test CRC D178B7E0
Copy CRC D178B7E0
Accurately ripped (confidence 5) [7F81FA20] (AR v2)
Copy OK

Track 4

Filename C:\My Documents\My FLAC\Nils Lofgren - Flip (1985) [FLAC] {Columbia}\04 - Delivery Night.wav

Pre-gap length 0:00:02.00

Peak level 79.6 %
Extraction speed 2.4 X
Track quality 100.0 %
Test CRC 645910CB
Copy CRC 645910CB
Accurately ripped (confidence 5) [E4F05CC7] (AR v2)
Copy OK

Track 5

Filename C:\My Documents\My FLAC\Nils Lofgren - Flip (1985) [FLAC] {Columbia}\05 - King Of The Rock.wav

Pre-gap length 0:00:01.42

Peak level 74.6 %
Extraction speed 2.7 X
Track quality 100.0 %
Test CRC E4DAC536
Copy CRC E4DAC536
Accurately ripped (confidence 5) [B3BE2575] (AR v2)
Copy OK

Track 6

Filename C:\My Documents\My FLAC\Nils Lofgren - Flip (1985) [FLAC] {Columbia}\06 - Sweet Midnight.wav

Pre-gap length 0:00:03.08

Peak level 72.9 %
Extraction speed 3.0 X
Track quality 100.0 %
Test CRC 2911E7E7
Copy CRC 2911E7E7
Accurately ripped (confidence 5) [C7BE3DE0] (AR v2)
Copy OK

Track 7

Filename C:\My Documents\My FLAC\Nils Lofgren - Flip (1985) [FLAC] {Columbia}\07 - New Holes In Old Shoes.wav

Pre-gap length 0:00:03.15

Peak level 76.7 %
Extraction speed 3.0 X
Track quality 100.0 %
Test CRC 5C0C8169
Copy CRC 5C0C8169
Accurately ripped (confidence 5) [3748F571] (AR v2)
Copy OK

Track 8

Filename C:\My Documents\My FLAC\Nils Lofgren - Flip (1985) [FLAC] {Columbia}\08 - Dreams Die Hard.wav

Pre-gap length 0:00:01.10

Peak level 88.9 %
Extraction speed 3.0 X
Track quality 100.0 %
Test CRC DBB68B25
Copy CRC DBB68B25
Accurately ripped (confidence 5) [492840FF] (AR v2)
Copy OK

Track 9

Filename C:\My Documents\My FLAC\Nils Lofgren - Flip (1985) [FLAC] {Columbia}\09 - Big Tears Fall.wav

Pre-gap length 0:00:01.10

Peak level 81.4 %
Extraction speed 3.4 X
Track quality 100.0 %
Test CRC 2817FDF0
Copy CRC 2817FDF0
Accurately ripped (confidence 4) [357C5726] (AR v2)
Copy OK


All tracks accurately ripped

No errors occurred

End of status report

–– CUETools DB Plugin V2.1.6

[CTDB TOCID: rXS2uC.wRRO9d2qPGe0j3fqKz_g-] found
Submit result: rXS2uC.wRRO9d2qPGe0j3fqKz_g- has been confirmed
Track | CTDB Status
1 | (5/5) Accurately ripped
2 | (5/5) Accurately ripped
3 | (5/5) Accurately ripped
4 | (5/5) Accurately ripped
5 | (5/5) Accurately ripped
6 | (5/5) Accurately ripped
7 | (5/5) Accurately ripped
8 | (5/5) Accurately ripped
9 | (5/5) Accurately ripped


==== Log checksum E5E7FF3F93CE9BCC165C20DA2FE86936DB11AD1F25AEA27AA7CB89E6B7606336 ====


Nils Lofgren - Flip (1985) {Columbia}
Nitroflare (FLAC)
Nitroflare (MP3)