Subcategories

Nils Lofgren - Wonderland (1983) {2007 American Beat}

Posted By: TestTickles
Nils Lofgren - Wonderland (1983) {2007 American Beat}

Nils Lofgren - Wonderland (1983) {2007 American Beat}
EAC Rip | FLAC with CUE and log | scans | 261 mb
MP3 CBR 320kbps | RAR | 101 mb
Genre: rock, pop rock, classic rock

Wonderland is the 1983 solo album by guitarist/vocalist Nils Lofgren. Originally released as Backstreets/MCA in 1983, this CD was released by American Beat on 3 April, 2007.

Nils Lofgren - Wonderland (1983) {2007 American Beat}

01. Across The Tracks
02. Into The Night
03. It's All Over Now
04. I Wait For You
05. Daddy Dream
06. Wonderland
07. Room Without Love
08. Confident Girl
09. Lonesome Ranger
10. Everybody Wants
11. Deadline

Nils Lofgren-guitars, keyboards, vocals
Kevin McCormick-bass guitar, background vocals
Andy Newmark-drums
Robbie Kondor-synthesizers
Jimmy Maelen-percussion

SINGERS:
Louise Goffin ("Wonderland", "Everybody Wants"
Carly Simon ("Lonesome Ranger")
Edgar Winter ("Across The Tracks")

Produced by Nils Lofgren, Kevin McCormick, Andy Newmark
Recorded by Larry Alexander at The Power Station, New York
Additional overdubs by Bob Dawson, Bias Studios, Springfield, Virginia
Assistant engineer: John Babich, Malcolm Pollack, Jeff Hendrickson., Barry Bongiovi, Rob Eaton

Mastered by Ted Jensen, Sterling Sound, New York

ALBUM DEDICATED TO JAMES HONEYMAN SCOTT & PETE FARNDON

Nils Lofgren - Wonderland (1983) {2007 American Beat}


Exact Audio Copy V0.99 prebeta 3 from 28. July 2007

EAC extraction logfile from 26. April 2008, 12:47

Nils Lofgren / Wonderland

Used drive : LITE-ON DVDRW SOHW-1633S Adapter: 0 ID: 0

Read mode : Secure
Utilize accurate stream : Yes
Defeat audio cache : Yes
Make use of C2 pointers : No

Read offset correction : 12
Overread into Lead-In and Lead-Out : No
Fill up missing offset samples with silence : Yes
Delete leading and trailing silent blocks : No
Null samples used in CRC calculations : Yes
Used interface : Installed external ASPI interface
Gap handling : Appended to previous track

Used output format : Internal WAV Routines
Sample format : 44.100 Hz; 16 Bit; Stereo


TOC of the extracted CD

Track | Start | Length | Start sector | End sector
––––––––––––––––––––––––––––-
1 | 0:00.00 | 2:55.01 | 0 | 13125
2 | 2:55.01 | 3:44.10 | 13126 | 29935
3 | 6:39.11 | 3:43.14 | 29936 | 46674
4 | 10:22.25 | 3:40.13 | 46675 | 63187
5 | 14:02.38 | 4:52.53 | 63188 | 85140
6 | 18:55.16 | 3:28.63 | 85141 | 100803
7 | 22:24.04 | 3:04.55 | 100804 | 114658
8 | 25:28.59 | 3:04.48 | 114659 | 128506
9 | 28:33.32 | 3:46.55 | 128507 | 145511
10 | 32:20.12 | 3:39.70 | 145512 | 162006
11 | 36:00.07 | 4:03.69 | 162007 | 180300


Track 1

Filename D:\FLAC\Nils Lofgren - Wonderland (1983) [FLAC] {2007 American Beat}\01 - Across The Tracks.wav

Pre-gap length 0:00:02.00

Peak level 94.8 %
Track quality 100.0 %
Test CRC FFC959F0
Copy CRC FFC959F0
Track not present in AccurateRip database
Copy OK

Track 2

Filename D:\FLAC\Nils Lofgren - Wonderland (1983) [FLAC] {2007 American Beat}\02 - Into The Night.wav

Pre-gap length 0:00:01.45

Peak level 96.9 %
Track quality 99.9 %
Test CRC DAF06B25
Copy CRC DAF06B25
Track not present in AccurateRip database
Copy OK

Track 3

Filename D:\FLAC\Nils Lofgren - Wonderland (1983) [FLAC] {2007 American Beat}\03 - It's All Over Now.wav

Pre-gap length 0:00:01.65

Peak level 97.1 %
Track quality 100.0 %
Test CRC E59C9BB9
Copy CRC E59C9BB9
Track not present in AccurateRip database
Copy OK

Track 4

Filename D:\FLAC\Nils Lofgren - Wonderland (1983) [FLAC] {2007 American Beat}\04 - I Wait For You.wav

Pre-gap length 0:00:01.54

Peak level 100.0 %
Track quality 99.9 %
Test CRC DC1070B7
Copy CRC DC1070B7
Track not present in AccurateRip database
Copy OK

Track 5

Filename D:\FLAC\Nils Lofgren - Wonderland (1983) [FLAC] {2007 American Beat}\05 - Daddy Dream.wav

Pre-gap length 0:00:01.41

Peak level 97.2 %
Track quality 100.0 %
Test CRC 150E53F5
Copy CRC 150E53F5
Track not present in AccurateRip database
Copy OK

Track 6

Filename D:\FLAC\Nils Lofgren - Wonderland (1983) [FLAC] {2007 American Beat}\06 - Wonderland.wav

Pre-gap length 0:00:01.33

Peak level 100.0 %
Track quality 100.0 %
Test CRC DB3C85D5
Copy CRC DB3C85D5
Track not present in AccurateRip database
Copy OK

Track 7

Filename D:\FLAC\Nils Lofgren - Wonderland (1983) [FLAC] {2007 American Beat}\07 - Room Without Love.wav

Pre-gap length 0:00:01.30

Peak level 100.0 %
Track quality 100.0 %
Test CRC 979D03E5
Copy CRC 979D03E5
Track not present in AccurateRip database
Copy OK

Track 8

Filename D:\FLAC\Nils Lofgren - Wonderland (1983) [FLAC] {2007 American Beat}\08 - Confident Girl.wav

Pre-gap length 0:00:01.33

Peak level 100.0 %
Track quality 99.9 %
Test CRC 7C055415
Copy CRC 7C055415
Track not present in AccurateRip database
Copy OK

Track 9

Filename D:\FLAC\Nils Lofgren - Wonderland (1983) [FLAC] {2007 American Beat}\09 - Lonesome Ranger.wav

Pre-gap length 0:00:01.36

Peak level 100.0 %
Track quality 100.0 %
Test CRC B8AC5617
Copy CRC B8AC5617
Track not present in AccurateRip database
Copy OK

Track 10

Filename D:\FLAC\Nils Lofgren - Wonderland (1983) [FLAC] {2007 American Beat}\10 - Everybody Wants.wav

Pre-gap length 0:00:01.28

Peak level 100.0 %
Track quality 100.0 %
Test CRC D87AFEEA
Copy CRC D87AFEEA
Track not present in AccurateRip database
Copy OK

Track 11

Filename D:\FLAC\Nils Lofgren - Wonderland (1983) [FLAC] {2007 American Beat}\11 - Deadline.wav

Pre-gap length 0:00:01.50

Peak level 100.0 %
Track quality 100.0 %
Test CRC 3A513CDF
Copy CRC 3A513CDF
Track not present in AccurateRip database
Copy OK


None of the tracks are present in the AccurateRip database

No errors occurred

End of status report
NITROFLARE (FLAC)
NITROFLARE (MP3)