Tags
Language
Tags

No-Man - Albums & EPs Collection [13 CD] (1993-2009)

Posted By: gribovar
No-Man - Albums & EPs Collection [13 CD] (1993-2009)

No-Man - Albums & EPs Collection [13 CD] (1993-2009)
EAC Rip | FLAC, WavPack (image+.cue+log) - 3,44 GB | MP3 CBR 320 kbps (LAME 3.93) - 1,53 GB | Covers - 599 MB
Genre: Art Rock | RAR 3% Rec. | Label: One Little Indian, Hidden Art, 3rd Stone Ltd., Materiali Sonori, Kscope

No-Man is a British duo formed in 1987 by Tim Bowness and Steven Wilson (Porcupine Tree). The name No-Man was adopted in 1990 and first used on the self-released June 1990 single release, "Colours". Originally creating a sample-based proto-trip hop / ambient styled music, No-Man’s sound has become more organic, eclectic and band-oriented in subsequent years. Drawing from a diverse mix of Singer-songwriter, Post Rock, Minimalist, Progressive rock, Jazz, and Contemporary Ambient sources for inspiration, No-Man's sound is distinctive, yet difficult to categorise. On labels such as One Little Indian, Sony, Adasam and Kscope, the band has so far produced six studio albums and a number of singles / outtakes collections, most notably, 2006's career retrospective, "All The Blue Changes".
No-Man's most recent studio album, "Schoolyard Ghosts" was released in May 2008 and received some of the most favourable reviews of the band's career (being described as "truly sublime" by Classic rock magazine).
Included amongst the many artists and guest musicians the band has worked with are electronic artists Roger Eno, Faultline, Scanner, Muslimgauze and The Shamen, Jazz musicians Ian Carr and Theo Travis, and the legendary likes of King Crimson personnel, Robert Fripp, Pat Mastelotto and Mel Collins, and ex-Japan members, Steve Jansen, Richard Barbieri and Mick Karn.
No-Man - Albums & EPs Collection [13 CD] (1993-2009)

No-Man - Loveblows & Lovecries - A Confession (1993)
EAC Rip | FLAC (image+.cue+log) - 369 MB | MP3 CBR 320 kbps (LAME 3.93) - 142 MB | Covers - 34 MB
Genre: Art Rock, Electronic, Synth Pop | RAR 3% Rec. | Label: One Little Indian (BK53949)

Tracklist:
01. Loveblow
02. Only Baby
03. Housekeeping
04. Sweetheart Raw
05. Lovecry
06. Tulip
07. Taking It Like a Man
08. Break Heaven
09. Beautiful and Cruel
10. Days in the Trees: Mahler
11. Painting Paradise
12. Heaven's Break

Total time: 01:00:32

Exact Audio Copy V0.99 prebeta 5 from 4. May 2009

EAC extraction logfile from 18. February 2010, 13:23

No-Man / Loveblows & Lovecries - A Confession

Used drive : HL-DT-STDVDRAM GH20NS15 Adapter: 2 ID: 0

Read mode : Secure
Utilize accurate stream : Yes
Defeat audio cache : Yes
Make use of C2 pointers : No

Read offset correction : 667
Overread into Lead-In and Lead-Out : No
Fill up missing offset samples with silence : Yes
Delete leading and trailing silent blocks : No
Null samples used in CRC calculations : Yes
Used interface : Native Win32 interface for Win NT & 2000

Used output format : Internal WAV Routines
Sample format : 44.100 Hz; 16 Bit; Stereo


TOC of the extracted CD

Track | Start | Length | Start sector | End sector
––––––––––––––––––––––––––––-
1 | 0:00.00 | 1:24.28 | 0 | 6327
2 | 1:24.28 | 3:47.35 | 6328 | 23387
3 | 5:11.63 | 5:27.60 | 23388 | 47972
4 | 10:39.48 | 6:05.17 | 47973 | 75364
5 | 16:44.65 | 4:52.13 | 75365 | 97277
6 | 21:37.03 | 3:57.47 | 97278 | 115099
7 | 25:34.50 | 6:54.10 | 115100 | 146159
8 | 32:28.60 | 4:59.03 | 146160 | 168587
9 | 37:27.63 | 4:31.20 | 168588 | 188932
10 | 41:59.08 | 7:03.55 | 188933 | 220712
11 | 49:02.63 | 7:28.65 | 220713 | 254377
12 | 56:31.53 | 4:00.30 | 254378 | 272407


Range status and errors

Selected range

Filename C:\musjk\No-Man - Loveblows & Lovecries - A Confession.wav

Peak level 94.4 %
Range quality 100.0 %
Test CRC 80EA258E
Copy CRC 80EA258E
Copy OK

No errors occurred


AccurateRip summary

Track 1 accurately ripped (confidence 6) [40B6136F]
Track 2 accurately ripped (confidence 6) [BB7125E1]
Track 3 accurately ripped (confidence 6) [2E6C7517]
Track 4 accurately ripped (confidence 6) [30DAA63A]
Track 5 accurately ripped (confidence 6) [A24EB327]
Track 6 accurately ripped (confidence 6) [77AC52FA]
Track 7 accurately ripped (confidence 5) [5CE83C57]
Track 8 accurately ripped (confidence 5) [8CDBD780]
Track 9 accurately ripped (confidence 5) [DE78BBE8]
Track 10 accurately ripped (confidence 5) [A95879C7]
Track 11 accurately ripped (confidence 5) [B5758AA1]
Track 12 accurately ripped (confidence 5) [6F50E70B]

All tracks accurately ripped

End of status report

[CUETools log; Date: 20.03.2017 23:32:15; Version: 2.1.4]
[CTDB TOCID: wW4xD1wcuFRP56cbfAoDd9IDJI8-] found.
Track | CTDB Status
1 | (5/5) Accurately ripped
2 | (5/5) Accurately ripped
3 | (5/5) Accurately ripped
4 | (5/5) Accurately ripped
5 | (5/5) Accurately ripped
6 | (5/5) Accurately ripped
7 | (5/5) Accurately ripped
8 | (5/5) Accurately ripped
9 | (5/5) Accurately ripped
10 | (5/5) Accurately ripped
11 | (5/5) Accurately ripped
12 | (4/5) Accurately ripped
[AccurateRip ID: 0018aae4-00ee9fdb-9c0e300c] found.
Track [ CRC | V2 ] Status
01 [40b6136f|e6d5a0ed] (07+07/14) Accurately ripped
02 [bb7125e1|39512664] (07+07/14) Accurately ripped
03 [2e6c7517|04841099] (07+07/14) Accurately ripped
04 [30daa63a|0460b45c] (07+07/14) Accurately ripped
05 [a24eb327|21387065] (07+07/14) Accurately ripped
06 [77ac52fa|eeaa50ed] (07+07/14) Accurately ripped
07 [5ce83c57|1a8a98e4] (06+07/13) Accurately ripped
08 [8cdbd780|16415010] (06+07/13) Accurately ripped
09 [de78bbe8|1916d5d5] (06+07/13) Accurately ripped
10 [a95879c7|bff085bc] (06+07/13) Accurately ripped
11 [b5758aa1|dc2bb0cf] (06+08/14) Accurately ripped
12 [6f50e70b|7e5f2e77] (06+07/13) Accurately ripped

Track Peak [ CRC32 ] [W/O NULL] [ LOG ]
– 94,4 [80EA258E] [7A03A637] CRC32
01 33,8 [2B3B8B78] [D9875DCF]
02 88,2 [82969D06] [9D60CA99]
03 84,6 [FC04B6C8] [BD4FCA83]
04 91,4 [EB6E5D12] [9225F070]
05 76,2 [31304DB5] [C6064004]
06 83,7 [2423D541] [65B0977E]
07 91,8 [EFF77084] [EC054CE0]
08 94,4 [E018BEDD] [E5A01599]
09 92,0 [B2BFBA11] [B6F92A70]
10 94,4 [ED40096F] [691A6084]
11 93,0 [A0A839F9] [F56B4D47]
12 76,6 [BD603979] [DA2099B5]

No-Man - Albums & EPs Collection [13 CD] (1993-2009)

No-Man - Heaven Taste (1995) [Reissue 2002]
EAC Rip | FLAC (image+.cue+log) - 271 MB | MP3 CBR 320 kbps (LAME 3.93) - 101 MB | Covers - 101 MB
Genre: Art Rock | RAR 3% Rec. | Label: Hidden Art (hi-art 1)

Tracklist:
01. Long Day Fall
02. Babyship Blue
03. Bleed
04. Road
05. Heaven Taste

Total time: 43:08

Exact Audio Copy V0.99 prebeta 5 from 4. May 2009

EAC extraction logfile from 22. October 2009, 19:18

No Man / Heaven Taste

Used drive : HL-DT-STDVDRAM GH20NS15 Adapter: 2 ID: 0

Read mode : Secure
Utilize accurate stream : Yes
Defeat audio cache : Yes
Make use of C2 pointers : No

Read offset correction : 667
Overread into Lead-In and Lead-Out : No
Fill up missing offset samples with silence : Yes
Delete leading and trailing silent blocks : No
Null samples used in CRC calculations : Yes
Used interface : Native Win32 interface for Win NT & 2000

Used output format : Internal WAV Routines
Sample format : 44.100 Hz; 16 Bit; Stereo


TOC of the extracted CD

Track | Start | Length | Start sector | End sector
––––––––––––––––––––––––––––-
1 | 0:00.00 | 5:20.74 | 0 | 24073
2 | 5:20.74 | 4:59.32 | 24074 | 46530
3 | 10:20.31 | 6:54.01 | 46531 | 77581
4 | 17:14.32 | 3:23.29 | 77582 | 92835
5 | 20:37.61 | 22:30.19 | 92836 | 194104


Range status and errors

Selected range

Filename C:\musjk\No Man - Heaven Taste.wav

Peak level 100.0 %
Range quality 100.0 %
Test CRC 3396723A
Copy CRC 3396723A
Copy OK

No errors occurred


AccurateRip summary

Track 1 not present in database
Track 2 not present in database
Track 3 not present in database
Track 4 not present in database
Track 5 not present in database

None of the tracks are present in the AccurateRip database

End of status report

[CUETools log; Date: 20.03.2017 23:30:15; Version: 2.1.4]
[CTDB TOCID: 7jU_SgqgQGpX0NMHuXolUWw8ZrQ-] found.
Track | CTDB Status
1 | (13/13) Accurately ripped
2 | (13/13) Accurately ripped
3 | (13/13) Accurately ripped
4 | (13/13) Accurately ripped
5 | (13/13) Accurately ripped
[AccurateRip ID: 0006a3b8-00207420-2c0a1c05] found.
Track [ CRC | V2 ] Status
01 [11b1eae4|b58036f7] (05+09/26) Accurately ripped
02 [6a2cd462|3e3851ba] (05+09/26) Accurately ripped
03 [ffc78fc4|21aa4a1f] (05+09/26) Accurately ripped
04 [25d8c7db|be0f0ea1] (05+09/26) Accurately ripped
05 [0f30364e|1d23c3c3] (05+09/26) Accurately ripped
Offsetted by 730:
01 [51cbf686] (07/26) Accurately ripped
02 [5548c4b4] (07/26) Accurately ripped
03 [1cc8091c] (07/26) Accurately ripped
04 [773f4ad5] (07/26) Accurately ripped
05 [3ee02c4a] (07/26) Accurately ripped

Track Peak [ CRC32 ] [W/O NULL] [ LOG ]
– 99,9 [3396723A] [F99E33AC] CRC32
01 99,9 [D80AA633] [D6A0B100]
02 99,9 [EF7B66D4] [8D3EA2A7]
03 99,9 [68BEC812] [B59D816D]
04 97,7 [90B51A1B] [FD26215B]
05 99,9 [AC1E896E] [81EA8F88]

No-Man - Albums & EPs Collection [13 CD] (1993-2009)

No-Man - Housewives Hooked on Heroin [EP] (1996) [Reissue 2004]
EAC Rip | FLAC (image+.cue+log) - 129 MB | MP3 CBR 320 kbps (LAME 3.93) - 49 MB | Covers - 56 MB
Genre: Art Rock | RAR 3% Rec. | Label: Hidden Art (hi-art 12)

Tracklist:
01. Housewives Hooked On Heroin
02. Hit The Ceiling
03. Housewives Hooked On Methadone
04. Urban Disco
05. Where I'm Calling From

Total time: 21:03

Exact Audio Copy V0.99 prebeta 5 from 4. May 2009

EAC extraction logfile from 22. October 2009, 18:38

No-Man / Housewives Hooked On Heroin

Used drive : HL-DT-STDVDRAM GH20NS15 Adapter: 2 ID: 0

Read mode : Secure
Utilize accurate stream : Yes
Defeat audio cache : Yes
Make use of C2 pointers : No

Read offset correction : 667
Overread into Lead-In and Lead-Out : No
Fill up missing offset samples with silence : Yes
Delete leading and trailing silent blocks : No
Null samples used in CRC calculations : Yes
Used interface : Native Win32 interface for Win NT & 2000

Used output format : Internal WAV Routines
Sample format : 44.100 Hz; 16 Bit; Stereo


TOC of the extracted CD

Track | Start | Length | Start sector | End sector
––––––––––––––––––––––––––––-
1 | 0:00.00 | 4:44.37 | 0 | 21336
2 | 4:44.37 | 3:05.48 | 21337 | 35259
3 | 7:50.10 | 6:07.20 | 35260 | 62804
4 | 13:57.30 | 3:18.25 | 62805 | 77679
5 | 17:15.55 | 3:47.10 | 77680 | 94714


Range status and errors

Selected range

Filename C:\musjk\No-Man - Housewives Hooked On Heroin.wav

Peak level 99.6 %
Range quality 99.9 %
Test CRC DB925E59
Copy CRC DB925E59
Copy OK

No errors occurred


AccurateRip summary

Track 1 cannot be verified as accurate (confidence 1) [E43A8AB5], AccurateRip returned [FBAB5589]
Track 2 cannot be verified as accurate (confidence 1) [67799803], AccurateRip returned [AF4E567D]
Track 3 cannot be verified as accurate (confidence 1) [840CF82E], AccurateRip returned [295149F8]
Track 4 cannot be verified as accurate (confidence 1) [2D56093B], AccurateRip returned [63CB1B8F]
Track 5 cannot be verified as accurate (confidence 1) [800B7FE6], AccurateRip returned [397FBC0E]

No tracks could be verified as accurate
You may have a different pressing from the one(s) in the database

End of status report

[CUETools log; Date: 20.03.2017 23:31:39; Version: 2.1.4]
[CTDB TOCID: b.PC78xRKnQ2hJFsoKeTNdUbeuc-] found.
Track | CTDB Status
1 | (10/10) Accurately ripped
2 | (10/10) Accurately ripped
3 | (10/10) Accurately ripped
4 | (10/10) Accurately ripped
5 | (10/10) Accurately ripped
[AccurateRip ID: 000473d5-0014b24d-3e04ee05] found.
Track [ CRC | V2 ] Status
01 [e43a8ab5|1a8ce243] (00+03/10) Accurately ripped
02 [67799803|cc9306f1] (00+03/10) Accurately ripped
03 [840cf82e|67c08254] (00+03/10) Accurately ripped
04 [2d56093b|16db93e1] (00+03/10) Accurately ripped
05 [800b7fe6|31b52b17] (00+03/10) Accurately ripped
Offsetted by 1340:
01 [fbab5589] (02/10) Accurately ripped
02 [af4e567d] (02/10) Accurately ripped
03 [295149f8] (02/10) Accurately ripped
04 [63cb1b8f] (02/10) Accurately ripped
05 [397fbc0e] (02/10) Accurately ripped
Offsetted by 670:
01 [eff2f01f] (00/10) No match (V2 was not tested)
02 [c52a385a] (00/10) No match (V2 was not tested)
03 [4fa7385f] (00/10) No match (V2 was not tested)
04 [48909265] (00/10) No match (V2 was not tested)
05 [5cc59dfa] (00/10) No match (V2 was not tested)

Track Peak [ CRC32 ] [W/O NULL] [ LOG ]
– 99,6 [DB925E59] [F738C264] CRC32
01 99,6 [89AF6CA4] [E667FD47]
02 96,9 [96251F49] [F021321A]
03 98,6 [8DE51A93] [96A35612]
04 93,4 [E62110BF] [8E715FA3]
05 89,8 [B3ED586A] [130E63C5]

No-Man - Albums & EPs Collection [13 CD] (1993-2009)

No-Man - Wild Opera (1996) [Reissue 2009]
EAC Rip | WavPack (image+.cue+log) - 346 MB | MP3 CBR 320 kbps (LAME 3.93) - 131 MB | Covers - 28 MB
Genre: Art Rock | RAR 3% Rec. | Label: Hidden Art (hi-art 13)

Tracklist:
01. Radiant City
02. Pretty Genius
03. Infant Phenomenon
04. Sinister Jazz
05. Housewives Hooked On Heroin
06. Libertine Libretto
07. Taste My Dream
08. Dry Cleaning Ray
09. Sheeploop
10. My Rival Trevor
11. Time Travel In Texas
12. My Revenge On Seattle
13. Ghost Track 1
14. Ghost Track 2

Total time: 55:50

Exact Audio Copy V0.99 prebeta 5 from 4. May 2009

EAC extraction logfile from 15. January 2010, 17:16

No-man / Wild Opera

Used drive : HL-DT-STDVDRAM GH20NS15 Adapter: 2 ID: 0

Read mode : Secure
Utilize accurate stream : Yes
Defeat audio cache : Yes
Make use of C2 pointers : No

Read offset correction : 667
Overread into Lead-In and Lead-Out : No
Fill up missing offset samples with silence : Yes
Delete leading and trailing silent blocks : No
Null samples used in CRC calculations : Yes
Used interface : Native Win32 interface for Win NT & 2000

Used output format : Internal WAV Routines
Sample format : 44.100 Hz; 16 Bit; Stereo


TOC of the extracted CD

Track | Start | Length | Start sector | End sector
––––––––––––––––––––––––––––-
1 | 0:00.00 | 3:31.62 | 0 | 15886
2 | 3:31.62 | 3:51.35 | 15887 | 33246
3 | 7:23.22 | 3:21.03 | 33247 | 48324
4 | 10:44.25 | 4:48.60 | 48325 | 69984
5 | 15:33.10 | 4:39.10 | 69985 | 90919
6 | 20:12.20 | 3:20.15 | 90920 | 105934
7 | 23:32.35 | 6:09.52 | 105935 | 133661
8 | 29:42.12 | 3:26.20 | 133662 | 149131
9 | 33:08.32 | 4:01.35 | 149132 | 167241
10 | 37:09.67 | 4:20.73 | 167242 | 186814
11 | 41:30.65 | 4:24.02 | 186815 | 206616
12 | 45:54.67 | 4:47.33 | 206617 | 228174
13 | 50:42.25 | 2:00.35 | 228175 | 237209
14 | 52:42.60 | 3:06.62 | 237210 | 251221


Range status and errors

Selected range

Filename C:\musjk\No-man - Wild Opera.wav

Peak level 99.8 %
Range quality 100.0 %
Test CRC F53003FA
Copy CRC F53003FA
Copy OK

No errors occurred


AccurateRip summary

Track 1 cannot be verified as accurate (confidence 3) [BA30B889], AccurateRip returned [0ADA1343]
Track 2 cannot be verified as accurate (confidence 3) [8D1CBF8E], AccurateRip returned [6423E904]
Track 3 cannot be verified as accurate (confidence 3) [C26BE28B], AccurateRip returned [3DA8FC33]
Track 4 cannot be verified as accurate (confidence 3) [C24917C4], AccurateRip returned [61EBF34A]
Track 5 cannot be verified as accurate (confidence 3) [55BD4A0B], AccurateRip returned [F280BD99]
Track 6 cannot be verified as accurate (confidence 3) [BEEEDBB5], AccurateRip returned [272D5A5F]
Track 7 cannot be verified as accurate (confidence 3) [584C9A50], AccurateRip returned [6A0E44C0]
Track 8 cannot be verified as accurate (confidence 3) [E6DB4A20], AccurateRip returned [03309FD6]
Track 9 cannot be verified as accurate (confidence 3) [9DD565AC], AccurateRip returned [6C3D8B01]
Track 10 cannot be verified as accurate (confidence 3) [0DE15C37], AccurateRip returned [91213EE6]
Track 11 cannot be verified as accurate (confidence 3) [6224E124], AccurateRip returned [36814580]
Track 12 cannot be verified as accurate (confidence 3) [72BE8239], AccurateRip returned [60E31185]
Track 13 not present in database
Track 14 cannot be verified as accurate (confidence 3) [497A6454], AccurateRip returned [60D0E294]

13 track(s) could not be verified as accurate
1 track(s) not present in the AccurateRip database

No tracks could be verified as accurate
You may have a different pressing from the one(s) in the database

End of status report

[CUETools log; Date: 20.03.2017 23:36:25; Version: 2.1.4]
[CTDB TOCID: rw813DsNlcxma2mV4dQ7dtnMlk8-] found.
Track | CTDB Status
1 | (12/12) Accurately ripped
2 | (12/12) Accurately ripped
3 | (12/12) Accurately ripped
4 | (12/12) Accurately ripped
5 | (12/12) Accurately ripped
6 | (12/12) Accurately ripped
7 | (12/12) Accurately ripped
8 | (12/12) Accurately ripped
9 | (12/12) Accurately ripped
10 | (12/12) Accurately ripped
11 | (12/12) Accurately ripped
12 | (12/12) Accurately ripped
13 | (12/12) Accurately ripped
14 | (12/12) Accurately ripped
[AccurateRip ID: 001d5d16-013adfe8-b50d150e] found.
Track [ CRC | V2 ] Status
01 [ba30b889|44d7fd06] (00+02/20) Accurately ripped
02 [8d1cbf8e|6fecffb3] (00+02/20) Accurately ripped
03 [c26be28b|3cf6204b] (00+02/20) Accurately ripped
04 [c24917c4|8904d42d] (00+02/20) Accurately ripped
05 [55bd4a0b|91599d05] (00+02/20) Accurately ripped
06 [beeedbb5|d3409c70] (00+02/19) Accurately ripped
07 [584c9a50|d62c02ce] (00+02/20) Accurately ripped
08 [e6db4a20|ad185fed] (00+02/20) Accurately ripped
09 [9dd565ac|5104287b] (00+02/20) Accurately ripped
10 [0de15c37|6703c558] (00+02/20) Accurately ripped
11 [6224e124|cd08c554] (00+02/20) Accurately ripped
12 [72be8239|74818b61] (00+02/19) Accurately ripped
13 [00000000|00000000] (00+00/00) Silent track
14 [497a6454|8b782fa2] (00+02/20) Accurately ripped
Offsetted by 132:
01 [0ada1343] (08/20) Accurately ripped
02 [6423e904] (08/20) Accurately ripped
03 [3da8fc33] (08/20) Accurately ripped
04 [61ebf34a] (08/20) Accurately ripped
05 [f280bd99] (08/20) Accurately ripped
06 [272d5a5f] (07/19) Accurately ripped
07 [6a0e44c0] (08/20) Accurately ripped
08 [03309fd6] (08/20) Accurately ripped
09 [6c3d8b01] (08/20) Accurately ripped
10 [91213ee6] (08/20) Accurately ripped
11 [36814580] (08/20) Accurately ripped
12 [60e31185] (08/19) Accurately ripped
13 [00000000] (00/00) Silent track
14 [60d0e294] (08/20) Accurately ripped

Track Peak [ CRC32 ] [W/O NULL] [ LOG ]
– 99,8 [F53003FA] [4A2B2B88] CRC32
01 99,7 [2200D732] [2A0DF472]
02 96,9 [AFC6D4A1] [D5E7BD5F]
03 97,5 [8ED2EAE6] [670CEE32]
04 98,3 [5FB27747] [55565C54]
05 99,6 [B0CCF583] [7119736E]
06 93,6 [8ED15DAF] [5826EE89]
07 98,4 [060D9780] [F4929914]
08 99,4 [7D8684FC] [7F209285]
09 95,6 [E4D51AD5] [25878E0B]
10 99,8 [921EB4EE] [F1D76B6D]
11 90,8 [BE0CD1DE] [C21308FB]
12 98,2 [EB79F0E6] [BAD174CE]
13 0,0 [A85EBBA6] [00000000]
14 91,5 [67BF3BDE] [6A65B33F]

No-Man - Albums & EPs Collection [13 CD] (1993-2009)

No-Man - Dry Cleaning Ray (1997)
EAC Rip | FLAC (image+.cue+log) - 234 MB | MP3 CBR 320 kbps (LAME 3.93) - 88 MB | Covers - 23 MB
Genre: Art Rock | RAR 3% Rec. | Label: 3rd Stone Ltd. (stone 035CD)

Tracklist:
01. Dry Cleaning Ray
02. Sweetside Silver Night
03. Jack the Sax
04. Diet Mothers
05. Urban Disco
06. Punished for Being Born (Muslimgauze Mix)
07. Kightlinger
08. Evelyn (The Song of Slurs)
09. Sicknote

Total time: 37:36

Exact Audio Copy V0.99 prebeta 5 from 4. May 2009

EAC extraction logfile from 24. September 2009, 11:47

No-Man / Dry Cleaning Ray

Used drive : HL-DT-STDVDRAM GH20NS15 Adapter: 2 ID: 0

Read mode : Secure
Utilize accurate stream : Yes
Defeat audio cache : Yes
Make use of C2 pointers : No

Read offset correction : 667
Overread into Lead-In and Lead-Out : No
Fill up missing offset samples with silence : Yes
Delete leading and trailing silent blocks : No
Null samples used in CRC calculations : Yes
Used interface : Native Win32 interface for Win NT & 2000

Used output format : Internal WAV Routines
Sample format : 44.100 Hz; 16 Bit; Stereo


TOC of the extracted CD

Track | Start | Length | Start sector | End sector
––––––––––––––––––––––––––––-
1 | 0:00.00 | 2:56.70 | 0 | 13269
2 | 2:56.70 | 4:02.22 | 13270 | 31441
3 | 6:59.17 | 4:17.45 | 31442 | 50761
4 | 11:16.62 | 4:56.35 | 50762 | 72996
5 | 16:13.22 | 3:17.23 | 72997 | 87794
6 | 19:30.45 | 2:19.15 | 87795 | 98234
7 | 21:49.60 | 2:44.55 | 98235 | 110589
8 | 24:34.40 | 4:04.02 | 110590 | 128891
9 | 28:38.42 | 8:57.33 | 128892 | 169199


Range status and errors

Selected range

Filename C:\musjk\No-Man - Dry Cleaning Ray.wav

Peak level 97.7 %
Range quality 100.0 %
Test CRC AF85076E
Copy CRC AF85076E
Copy OK

No errors occurred


AccurateRip summary

Track 1 accurately ripped (confidence 2) [ED4F80EA]
Track 2 accurately ripped (confidence 2) [E1EE4752]
Track 3 accurately ripped (confidence 2) [F9D82BD4]
Track 4 accurately ripped (confidence 2) [F8275D42]
Track 5 accurately ripped (confidence 2) [24512561]
Track 6 accurately ripped (confidence 2) [AA4EA4AB]
Track 7 accurately ripped (confidence 2) [F4506389]
Track 8 accurately ripped (confidence 2) [926F1745]
Track 9 accurately ripped (confidence 2) [7751552B]

All tracks accurately ripped

End of status report

[CUETools log; Date: 20.03.2017 23:29:35; Version: 2.1.4]
[CTDB TOCID: 0lgcxef3R3nGjwMFildcDJT3NzY-] found.
Track | CTDB Status
1 | (14/14) Accurately ripped
2 | (14/14) Accurately ripped
3 | (14/14) Accurately ripped
4 | (14/14) Accurately ripped
5 | (14/14) Accurately ripped
6 | (14/14) Accurately ripped
7 | (14/14) Accurately ripped
8 | (14/14) Accurately ripped
9 | (14/14) Accurately ripped
[AccurateRip ID: 000ba52f-00560f7f-7008d009] found.
Track [ CRC | V2 ] Status
01 [ed4f80ea|935c1326] (08+06/22) Accurately ripped
02 [e1ee4752|d9f1705c] (08+06/22) Accurately ripped
03 [f9d82bd4|940cc68a] (08+06/22) Accurately ripped
04 [f8275d42|d5a5e28e] (08+06/22) Accurately ripped
05 [24512561|cf7160e5] (08+05/21) Accurately ripped
06 [aa4ea4ab|10b9b77a] (08+05/21) Accurately ripped
07 [f4506389|7dfc76d8] (08+05/21) Accurately ripped
08 [926f1745|fd572ccb] (08+05/21) Accurately ripped
09 [7751552b|89788adb] (08+05/21) Accurately ripped
Offsetted by -1340:
01 [b1c0c85e] (04/22) Accurately ripped
02 [6faf7911] (04/22) Accurately ripped
03 [bfb196cd] (04/22) Accurately ripped
04 [fada86d0] (04/22) Accurately ripped
05 [9f8180dc] (04/21) Accurately ripped
06 [8cdfd456] (04/21) Accurately ripped
07 [46301301] (04/21) Accurately ripped
08 [c22644af] (04/21) Accurately ripped
09 [58a320c1] (04/21) Accurately ripped

Track Peak [ CRC32 ] [W/O NULL] [ LOG ]
– 97,7 [AF85076E] [C9217B3A] CRC32
01 97,7 [9BE161D8] [1B98F772]
02 97,7 [422CAD9A] [C035511A]
03 97,7 [BE301068] [F240A472]
04 97,7 [A924423C] [2CB2E893]
05 97,7 [AE80EDF8] [76D8B418]
06 97,7 [A67289C7] [AB469482]
07 97,7 [6A6B05D9] [1ED711C2]
08 97,7 [FB711387] [4EAD5D5B]
09 97,7 [9BD19A18] [411B9C53]

No-Man - Albums & EPs Collection [13 CD] (1993-2009)

No-Man - Carolina Skeletons [EP] (1998)
EAC Rip | FLAC (image+.cue+log) - 96 MB | MP3 CBR 320 kbps (LAME 3.93) - 47 MB | Covers - 36 MB
Genre: Art Rock | RAR 3% Rec. | Label: Hidden Art (hi-art 15)

Tracklist:
01. Carolina Skeletons
02. Something Falls
03. Close Your Eyes
04. Carolina Reprise

Total time: 20:14

Exact Audio Copy V0.99 prebeta 5 from 4. May 2009

EAC extraction logfile from 22. October 2009, 19:47

No-man / Carolina Skeletons EP

Used drive : HL-DT-STDVDRAM GH20NS15 Adapter: 2 ID: 0

Read mode : Secure
Utilize accurate stream : Yes
Defeat audio cache : Yes
Make use of C2 pointers : No

Read offset correction : 667
Overread into Lead-In and Lead-Out : No
Fill up missing offset samples with silence : Yes
Delete leading and trailing silent blocks : No
Null samples used in CRC calculations : Yes
Used interface : Native Win32 interface for Win NT & 2000

Used output format : Internal WAV Routines
Sample format : 44.100 Hz; 16 Bit; Stereo


TOC of the extracted CD

Track | Start | Length | Start sector | End sector
––––––––––––––––––––––––––––-
1 | 0:00.00 | 5:15.24 | 0 | 23648
2 | 5:15.24 | 3:31.61 | 23649 | 39534
3 | 8:47.10 | 8:17.54 | 39535 | 76863
4 | 17:04.64 | 3:09.32 | 76864 | 91070


Range status and errors

Selected range

Filename C:\musjk\No-man - Carolina Skeletons EP.wav

Peak level 81.9 %
Range quality 100.0 %
Test CRC AED9A9D2
Copy CRC AED9A9D2
Copy OK

No errors occurred


AccurateRip summary

Track 1 cannot be verified as accurate (confidence 1) [F3191E9D], AccurateRip returned [85C6570A]
Track 2 cannot be verified as accurate (confidence 1) [EBD39699], AccurateRip returned [BEE095F3]
Track 3 cannot be verified as accurate (confidence 1) [226D2F6A], AccurateRip returned [409181AC]
Track 4 cannot be verified as accurate (confidence 1) [B3F6375E], AccurateRip returned [DAA164A7]

No tracks could be verified as accurate
You may have a different pressing from the one(s) in the database

End of status report

[CUETools log; Date: 20.03.2017 23:28:35; Version: 2.1.4]
[CTDB TOCID: iLEJSKYxNceix6yAxyUqTmTUvFI-] found.
Track | CTDB Status
1 | (12/12) Accurately ripped
2 | (12/12) Accurately ripped
3 | (12/12) Accurately ripped
4 | (12/12) Accurately ripped
[AccurateRip ID: 000386cf-000e2bcb-2604be04] found.
Track [ CRC | V2 ] Status
01 [f3191e9d|bd101f29] (02+04/12) Accurately ripped
02 [ebd39699|649ae901] (02+04/11) Accurately ripped
03 [226d2f6a|1dadbc67] (02+04/11) Accurately ripped
04 [b3f6375e|91fe3786] (02+04/12) Accurately ripped
Offsetted by 684:
01 [3e83d9f9] (03/12) Accurately ripped
02 [0bb632ce] (02/11) Accurately ripped
03 [31d231a0] (02/11) Accurately ripped
04 [7c7e131f] (03/12) Accurately ripped
Offsetted by -646:
01 [cbb70a0a] (00/12) No match (V2 was not tested)
02 [b6e22bdb] (00/11) No match (V2 was not tested)
03 [b7aabdd2] (00/11) No match (V2 was not tested)
04 [c35b54f5] (00/12) No match (V2 was not tested)
Offsetted by 30:
01 [85c6570a] (00/12) No match (V2 was not tested)
02 [bee095f3] (00/11) No match (V2 was not tested)
03 [409181ac] (00/11) No match (V2 was not tested)
04 [daa164a7] (00/12) No match (V2 was not tested)

Track Peak [ CRC32 ] [W/O NULL] [ LOG ]
– 81,9 [AED9A9D2] [E5DA216E] CRC32
01 77,2 [AE413631] [6AA352CE]
02 79,7 [62F9621E] [6329A546]
03 81,9 [E0BD545D] [2D495F05]
04 29,6 [0969D577] [237B61E8]

No-Man - Albums & EPs Collection [13 CD] (1993-2009)

No-Man - ((Speak)) (1999)
EAC Rip | FLAC (image+.cue+log) - 196 MB | MP3 CBR 320 kbps (LAME 3.93) - 91 MB | Covers - 8 MB
Genre: Art Rock | RAR 3% Rec. | Label: Materiali Sonori (MASO CD 90111)

Tracklist:
01. Speak
02. Pink Moon
03. Iris Murdoch Cut Me Down
04. Curtain Dream
05. Heaven's Break
06. French Tree Terror Suspect
07. River Song
08. Riverrun
09. Ballet Beast
10. Night Sky Sweet Earth
11. Life with Picasso
12. Death and Dodgson's Dreamchild

Total time: 38:59

Exact Audio Copy V0.99 prebeta 5 from 4. May 2009

EAC extraction logfile from 9. August 2009, 10:27

no-man / ((speak))

Used drive : HL-DT-STDVDRAM GH20NS15 Adapter: 2 ID: 0

Read mode : Secure
Utilize accurate stream : Yes
Defeat audio cache : Yes
Make use of C2 pointers : No

Read offset correction : 667
Overread into Lead-In and Lead-Out : No
Fill up missing offset samples with silence : Yes
Delete leading and trailing silent blocks : No
Null samples used in CRC calculations : Yes
Used interface : Native Win32 interface for Win NT & 2000

Used output format : Internal WAV Routines
Sample format : 44.100 Hz; 16 Bit; Stereo


TOC of the extracted CD

Track | Start | Length | Start sector | End sector
––––––––––––––––––––––––––––-
1 | 0:00.00 | 1:26.68 | 0 | 6517
2 | 1:26.68 | 3:03.51 | 6518 | 20293
3 | 4:30.44 | 4:33.11 | 20294 | 40779
4 | 9:03.55 | 3:01.44 | 40780 | 54398
5 | 12:05.24 | 3:09.36 | 54399 | 68609
6 | 15:14.60 | 2:58.25 | 68610 | 81984
7 | 18:13.10 | 2:02.45 | 81985 | 91179
8 | 20:15.55 | 4:45.05 | 91180 | 112559
9 | 25:00.60 | 1:28.44 | 112560 | 119203
10 | 26:29.29 | 6:40.09 | 119204 | 149212
11 | 33:09.38 | 3:29.73 | 149213 | 164960
12 | 36:39.36 | 2:19.26 | 164961 | 175411


Range status and errors

Selected range

Filename C:\musjk\no-man - ((speak)).wav

Peak level 96.6 %
Range quality 100.0 %
Test CRC 80E749E1
Copy CRC 80E749E1
Copy OK

No errors occurred


AccurateRip summary

Track 1 accurately ripped (confidence 1) [6F57CEFA]
Track 2 accurately ripped (confidence 1) [7E8F1214]
Track 3 accurately ripped (confidence 1) [AE5E2165]
Track 4 accurately ripped (confidence 1) [BE1CCBFA]
Track 5 accurately ripped (confidence 1) [56C20CA1]
Track 6 accurately ripped (confidence 1) [8380071A]
Track 7 accurately ripped (confidence 1) [ECD13E02]
Track 8 accurately ripped (confidence 1) [F0F940D6]
Track 9 accurately ripped (confidence 1) [7DB1A783]
Track 10 accurately ripped (confidence 1) [9BC970C0]
Track 11 accurately ripped (confidence 1) [CF07FE40]
Track 12 accurately ripped (confidence 1) [AA4B6C56]

All tracks accurately ripped

End of status report

[CUETools log; Date: 20.03.2017 23:26:18; Version: 2.1.4]
[CTDB TOCID: 7MUs5RYS26xeQ6XDq40StGQcjnc-] found.
Track | CTDB Status
1 | (4/4) Accurately ripped
2 | (4/4) Accurately ripped
3 | (4/4) Accurately ripped
4 | (4/4) Accurately ripped
5 | (4/4) Accurately ripped
6 | (4/4) Accurately ripped
7 | (4/4) Accurately ripped
8 | (4/4) Accurately ripped
9 | (4/4) Accurately ripped
10 | (4/4) Accurately ripped
11 | (4/4) Accurately ripped
12 | (4/4) Accurately ripped
[AccurateRip ID: 00108ebc-009da0e4-9609220c] found.
Track [ CRC | V2 ] Status
01 [6f57cefa|55083d4b] (3+3/6) Accurately ripped
02 [7e8f1214|76b631da] (3+4/7) Accurately ripped
03 [ae5e2165|728a3d0f] (3+4/7) Accurately ripped
04 [be1ccbfa|073d4328] (3+4/7) Accurately ripped
05 [56c20ca1|2a16959a] (3+4/7) Accurately ripped
06 [8380071a|7cfeaa8e] (3+4/7) Accurately ripped
07 [ecd13e02|7a3f4163] (3+4/7) Accurately ripped
08 [f0f940d6|a3a4ac0c] (3+4/7) Accurately ripped
09 [7db1a783|b54f53a0] (3+4/7) Accurately ripped
10 [9bc970c0|0c326aef] (3+4/7) Accurately ripped
11 [cf07fe40|60037fa2] (3+4/7) Accurately ripped
12 [aa4b6c56|eeecc914] (3+4/7) Accurately ripped

Track Peak [ CRC32 ] [W/O NULL] [ LOG ]
– 96,6 [80E749E1] [4E6050BC] CRC32
01 91,7 [2AF51899] [D9604463]
02 96,5 [EA8DBD85] [A09489C9]
03 96,5 [5C2312B7] [9C107761]
04 96,5 [6798073E] [06C2F79B]
05 96,5 [15E4D4B9] [C3EA5C9B]
06 96,5 [30251A58] [D32E4F05]
07 96,5 [B12A1EF8] [CD517639]
08 96,5 [BEFE6EAA] [5EEEAC01]
09 96,6 [2B40F5BC] [706B52C2]
10 96,5 [A2175281] [003A3F78]
11 96,5 [B2922124] [FE7FD6A7]
12 96,5 [9970FB57] [7A50A37A]

No-Man - Albums & EPs Collection [13 CD] (1993-2009)

No-Man - All That You Are [EP] (2003)
EAC Rip | FLAC (image+.cue+log) - 108 MB | MP3 CBR 320 kbps (LAME 3.93) - 46 MB | Covers - 56 MB
Genre: Art Rock | RAR 3% Rec. | Label: Hidden Art (hi-art 18)

Tracklist:
01. All That You Are
02. Until Tomorrow
03. Chelsea Cap
04. Darkroom
05. Until Tomorrow

Total time: 19:41

Exact Audio Copy V0.99 prebeta 5 from 4. May 2009

EAC extraction logfile from 5. January 2010, 19:03

No-Man / All That You Are

Used drive : HL-DT-STDVDRAM GH20NS15 Adapter: 2 ID: 0

Read mode : Secure
Utilize accurate stream : Yes
Defeat audio cache : Yes
Make use of C2 pointers : No

Read offset correction : 667
Overread into Lead-In and Lead-Out : No
Fill up missing offset samples with silence : Yes
Delete leading and trailing silent blocks : No
Null samples used in CRC calculations : Yes
Used interface : Native Win32 interface for Win NT & 2000

Used output format : Internal WAV Routines
Sample format : 44.100 Hz; 16 Bit; Stereo


TOC of the extracted CD

Track | Start | Length | Start sector | End sector
––––––––––––––––––––––––––––-
1 | 0:00.00 | 4:08.12 | 0 | 18611
2 | 4:08.12 | 3:00.10 | 18612 | 32121
3 | 7:08.22 | 5:23.40 | 32122 | 56386
4 | 12:31.62 | 3:52.23 | 56387 | 73809
5 | 16:24.10 | 3:16.62 | 73810 | 88571


Range status and errors

Selected range

Filename C:\musjk\No-Man - All That You Are.wav

Peak level 100.0 %
Range quality 100.0 %
Test CRC 334390E1
Copy CRC 334390E1
Copy OK

No errors occurred


AccurateRip summary

Track 1 accurately ripped (confidence 1) [D68744BC]
Track 2 accurately ripped (confidence 1) [A56C16C0]
Track 3 accurately ripped (confidence 1) [4C8AAD1B]
Track 4 accurately ripped (confidence 1) [BCEF4C0B]
Track 5 accurately ripped (confidence 1) [CACB4B7C]

All tracks accurately ripped

End of status report

[CUETools log; Date: 20.03.2017 23:26:55; Version: 2.1.4]
[CTDB TOCID: TkLsSMYk2A5tgus9WC8pYCmdiOw-] found.
Track | CTDB Status
1 | (11/11) Accurately ripped
2 | (11/11) Accurately ripped
3 | (11/11) Accurately ripped
4 | (11/11) Accurately ripped
5 | (11/11) Accurately ripped
[AccurateRip ID: 00041cbf-00133865-36049c05] found.
Track [ CRC | V2 ] Status
01 [d68744bc|3427489a] (08+14/22) Accurately ripped
02 [a56c16c0|c15d22c4] (08+15/23) Accurately ripped
03 [4c8aad1b|a0e8e540] (08+15/23) Accurately ripped
04 [bcef4c0b|e42f9dd4] (08+15/23) Accurately ripped
05 [cacb4b7c|8a306a78] (08+14/22) Accurately ripped

Track Peak [ CRC32 ] [W/O NULL] [ LOG ]
– 100,0 [334390E1] [4DF92985] CRC32
01 100,0 [AE4F0F63] [2C5E066B]
02 100,0 [553792F4] [7FE8639D]
03 100,0 [BCED5478] [FBAA2569]
04 100,0 [3CAC566F] [A71FB32A]
05 69,6 [EFB2FAA8] [269333DE]

No-Man - Albums & EPs Collection [13 CD] (1993-2009)

No-Man - All The Blue Changes: An Anthology 1988-2003 (2006)
EAC Rip | WavPack (image+.cue+log) - 775 MB | MP3 CBR 320 kbps (LAME 3.93) - 295 MB | Covers - 102 MB
Genre: Art Rock | RAR 3% Rec. | Label: Hidden art (hi-art 19)

CD 1 Tracklist:
01. Pink Moon
02. Colours
03. Days in the Trees (previously unreleased version)
04. Reich
05. Walker (previously unreleased)
06. Back to the Burning Shed
07. Road
08. Housekeeping
09. Heaven Taste (edit)
10. Watching Over Me
11. Simple
12. Things Change

Total time: 01:01:51

CD 2 Tracklist:
01. Pretty Genius
02. My Revenge On Seattle (previously unreleased version)
03. Dry Cleaning Ray (previously unreleased version)
04. Sicknote
05. Carolina Skeletons
06. Something Falls
07. Only Rain
08. Returning Jesus
09. Chelsea Cap
10. Photographs in Black and White
11. The Break Up For Real (drum mix) (previously unavailable on CD)
12. (bluecoda) (previously unavailable on CD)

Total time: 1:03:40

Exact Audio Copy V0.99 prebeta 5 from 4. May 2009

EAC extraction logfile from 7. October 2009, 12:07

No-Man / All The Blue Changes - An Anthology 1988-2003 Disc 1_2

Used drive : HL-DT-STDVDRAM GH20NS15 Adapter: 2 ID: 0

Read mode : Secure
Utilize accurate stream : Yes
Defeat audio cache : Yes
Make use of C2 pointers : No

Read offset correction : 667
Overread into Lead-In and Lead-Out : No
Fill up missing offset samples with silence : Yes
Delete leading and trailing silent blocks : No
Null samples used in CRC calculations : Yes
Used interface : Native Win32 interface for Win NT & 2000

Used output format : Internal WAV Routines
Sample format : 44.100 Hz; 16 Bit; Stereo


TOC of the extracted CD

Track | Start | Length | Start sector | End sector
––––––––––––––––––––––––––––-
1 | 0:00.00 | 3:03.71 | 0 | 13795
2 | 3:03.71 | 4:09.32 | 13796 | 32502
3 | 7:13.28 | 7:11.14 | 32503 | 64841
4 | 14:24.42 | 2:34.32 | 64842 | 76423
5 | 16:58.74 | 3:24.26 | 76424 | 91749
6 | 20:23.25 | 2:47.09 | 91750 | 104283
7 | 23:10.34 | 3:18.28 | 104284 | 119161
8 | 26:28.62 | 5:31.42 | 119162 | 144028
9 | 32:00.29 | 10:31.20 | 144029 | 191373
10 | 42:31.49 | 4:43.15 | 191374 | 212613
11 | 47:14.64 | 7:04.60 | 212614 | 244473
12 | 54:19.49 | 7:31.15 | 244474 | 278313


Range status and errors

Selected range

Filename C:\musjk\No-Man - All The Blue Changes - An Anthology 1988-2003 Disc 1_2.wav

Peak level 100.0 %
Range quality 100.0 %
Test CRC C5EC2895
Copy CRC C5EC2895
Copy OK

No errors occurred


AccurateRip summary

Track 1 cannot be verified as accurate (confidence 6) [016DC3BD], AccurateRip returned [D7BDB46D]
Track 2 cannot be verified as accurate (confidence 6) [EE064AEF], AccurateRip returned [B8C65C8F]
Track 3 cannot be verified as accurate (confidence 6) [C9CA27AF], AccurateRip returned [1CE3BBAF]
Track 4 cannot be verified as accurate (confidence 6) [D40533FB], AccurateRip returned [73814328]
Track 5 cannot be verified as accurate (confidence 6) [AD11956E], AccurateRip returned [EE4CC13A]
Track 6 cannot be verified as accurate (confidence 6) [EC7510D4], AccurateRip returned [820D0192]
Track 7 cannot be verified as accurate (confidence 6) [51F1643A], AccurateRip returned [22122026]
Track 8 cannot be verified as accurate (confidence 6) [3BEAB8EF], AccurateRip returned [8CDB81EC]
Track 9 cannot be verified as accurate (confidence 6) [E6BCA652], AccurateRip returned [D048676E]
Track 10 cannot be verified as accurate (confidence 5) [98BE9826], AccurateRip returned [EB446B3D]
Track 11 cannot be verified as accurate (confidence 5) [222773C7], AccurateRip returned [90079B4D]
Track 12 cannot be verified as accurate (confidence 5) [A77BEB16], AccurateRip returned [D5C14BBE]

No tracks could be verified as accurate
You may have a different pressing from the one(s) in the database

End of status report

[CUETools log; Date: 20.03.2017 23:27:42; Version: 2.1.4]
[CTDB TOCID: AZ99Yggke80DnFj3GOzK0hNL5_4-] found.
Track | CTDB Status
1 | (18/18) Accurately ripped
2 | (18/18) Accurately ripped
3 | (18/18) Accurately ripped
4 | (18/18) Accurately ripped
5 | (18/18) Accurately ripped
6 | (18/18) Accurately ripped
7 | (18/18) Accurately ripped
8 | (18/18) Accurately ripped
9 | (18/18) Accurately ripped
10 | (18/18) Accurately ripped
11 | (17/18) Accurately ripped
12 | (17/18) Accurately ripped
[AccurateRip ID: 001802be-00e66be3-970e7e0c] found.
Track [ CRC | V2 ] Status
01 [016dc3bd|d3eeb5e9] (02+04/28) Accurately ripped
02 [ee064aef|a29f8f35] (02+04/28) Accurately ripped
03 [c9ca27af|77ebda0f] (02+04/29) Accurately ripped
04 [d40533fb|afab17bf] (02+04/28) Accurately ripped
05 [ad11956e|6fadb0c6] (02+04/29) Accurately ripped
06 [ec7510d4|24881836] (02+04/28) Accurately ripped
07 [51f1643a|916f6c55] (02+04/28) Accurately ripped
08 [3beab8ef|30d347cd] (02+04/28) Accurately ripped
09 [e6bca652|acac6342] (02+04/28) Accurately ripped
10 [98be9826|af1d3422] (02+04/27) Accurately ripped
11 [222773c7|43089454] (02+04/27) Accurately ripped
12 [a77beb16|1c81da61] (02+03/26) Accurately ripped
Offsetted by 36:
01 [d7bdb46d] (13/28) Accurately ripped
02 [b8c65c8f] (13/28) Accurately ripped
03 [1ce3bbaf] (13/29) Accurately ripped
04 [73814328] (13/28) Accurately ripped
05 [ee4cc13a] (13/29) Accurately ripped
06 [820d0192] (13/28) Accurately ripped
07 [22122026] (13/28) Accurately ripped
08 [8cdb81ec] (13/28) Accurately ripped
09 [d048676e] (13/28) Accurately ripped
10 [eb446b3d] (12/27) Accurately ripped
11 [90079b4d] (12/27) Accurately ripped
12 [d5c14bbe] (12/26) Accurately ripped
Offsetted by -628:
01 [48a7eb4d] (00/28) No match (V2 was not tested)
02 [3a386ccf] (00/28) No match (V2 was not tested)
03 [91ef83af] (00/29) No match (V2 was not tested)
04 [9cc34680] (00/28) No match (V2 was not tested)
05 [18b41964] (00/29) No match (V2 was not tested)
06 [6d2b1b7a] (00/28) No match (V2 was not tested)
07 [1479f5ea] (00/28) No match (V2 was not tested)
08 [9e8d40be] (00/28) No match (V2 was not tested)
09 [0af9aaef] (00/28) No match (V2 was not tested)
10 [323c4b70] (00/27) No match (V2 was not tested)
11 [3803bf5d] (00/27) No match (V2 was not tested)
12 [cf889ddc] (00/26) No match (V2 was not tested)

Track Peak [ CRC32 ] [W/O NULL] [ LOG ]
– 100,0 [C5EC2895] [F643BC2D] CRC32
01 100,0 [96CBFBD3] [E60DA0A3]
02 100,0 [DC93653F] [7A17A2FA]
03 97,7 [24F1EAD3] [CBB3CEE1]
04 63,1 [4243BAA1] [192FBD59]
05 97,7 [659470AB] [8C065F1D]
06 51,0 [71CFD53E] [9B9EFC65]
07 89,1 [D29D592F] [FF94B961]
08 100,0 [A5068A8A] [35AC1BB3]
09 100,0 [7B3B00FF] [9474F892]
10 100,0 [B2D09D31] [A650BCFB]
11 100,0 [84441004] [4AF0731F]
12 100,0 [0A181625] [0C59FBAE]

Exact Audio Copy V0.99 prebeta 5 from 4. May 2009

EAC extraction logfile from 7. October 2009, 12:34

No-Man / All The Blue Changes - An Anthology 1988-2003 (Disc 2)

Used drive : HL-DT-STDVDRAM GH20NS15 Adapter: 2 ID: 0

Read mode : Secure
Utilize accurate stream : Yes
Defeat audio cache : Yes
Make use of C2 pointers : No

Read offset correction : 667
Overread into Lead-In and Lead-Out : No
Fill up missing offset samples with silence : Yes
Delete leading and trailing silent blocks : No
Null samples used in CRC calculations : Yes
Used interface : Native Win32 interface for Win NT & 2000

Used output format : Internal WAV Routines
Sample format : 44.100 Hz; 16 Bit; Stereo


TOC of the extracted CD

Track | Start | Length | Start sector | End sector
––––––––––––––––––––––––––––-
1 | 0:00.00 | 3:51.40 | 0 | 17364
2 | 3:51.40 | 4:46.52 | 17365 | 38866
3 | 8:38.17 | 3:28.14 | 38867 | 54480
4 | 12:06.31 | 8:10.72 | 54481 | 91302
5 | 20:17.28 | 5:08.31 | 91303 | 114433
6 | 25:25.59 | 3:27.43 | 114434 | 130001
7 | 28:53.27 | 7:25.64 | 130002 | 163440
8 | 36:19.16 | 5:19.33 | 163441 | 187398
9 | 41:38.49 | 5:23.30 | 187399 | 211653
10 | 47:02.04 | 10:03.28 | 211654 | 256906
11 | 57:05.32 | 3:57.74 | 256907 | 274755
12 | 61:03.31 | 2:36.15 | 274756 | 286470


Range status and errors

Selected range

Filename C:\musjk\No-Man - All The Blue Changes - An Anthology 1988-2003 (Disc 2).wav

Peak level 100.0 %
Range quality 100.0 %
Test CRC 3C7D670A
Copy CRC 3C7D670A
Copy OK

No errors occurred


AccurateRip summary

Track 1 cannot be verified as accurate (confidence 6) [007C2BE3], AccurateRip returned [118DD6C9]
Track 2 cannot be verified as accurate (confidence 6) [ADBA0403], AccurateRip returned [64CDA032]
Track 3 cannot be verified as accurate (confidence 6) [A4071EC8], AccurateRip returned [D83B5B48]
Track 4 cannot be verified as accurate (confidence 6) [D475B9FC], AccurateRip returned [BA632E24]
Track 5 cannot be verified as accurate (confidence 6) [25193DEA], AccurateRip returned [30789B2E]
Track 6 cannot be verified as accurate (confidence 6) [1D9E7AD5], AccurateRip returned [E05D54B5]
Track 7 cannot be verified as accurate (confidence 5) [77A7FC1D], AccurateRip returned [883F849D]
Track 8 cannot be verified as accurate (confidence 5) [BD891288], AccurateRip returned [31CEBC65]
Track 9 cannot be verified as accurate (confidence 6) [27FF29A4], AccurateRip returned [623DE733]
Track 10 cannot be verified as accurate (confidence 5) [12495504], AccurateRip returned [BC984F70]
Track 11 cannot be verified as accurate (confidence 5) [E1A374AE], AccurateRip returned [4B4EDF18]
Track 12 cannot be verified as accurate (confidence 6) [388DDFC4], AccurateRip returned [3DC7A85E]

No tracks could be verified as accurate
You may have a different pressing from the one(s) in the database

End of status report

[CUETools log; Date: 20.03.2017 23:28:10; Version: 2.1.4]
[CTDB TOCID: dvf6eYXE7ejbrqycnZ4EvfBhoDI-] found.
Track | CTDB Status
1 | (18/18) Accurately ripped
2 | (18/18) Accurately ripped
3 | (18/18) Accurately ripped
4 | (18/18) Accurately ripped
5 | (18/18) Accurately ripped
6 | (18/18) Accurately ripped
7 | (18/18) Accurately ripped
8 | (18/18) Accurately ripped
9 | (18/18) Accurately ripped
10 | (18/18) Accurately ripped
11 | (18/18) Accurately ripped
12 | (18/18) Accurately ripped
[AccurateRip ID: 001be108-0109337c-950eeb0c] found.
Track [ CRC | V2 ] Status
01 [007c2be3|75ddf182] (02+04/28) Accurately ripped
02 [adba0403|0beb81b6] (02+04/29) Accurately ripped
03 [a4071ec8|bdc04e87] (02+04/29) Accurately ripped
04 [d475b9fc|3b50cece] (02+04/28) Accurately ripped
05 [25193dea|2aeebf52] (02+04/28) Accurately ripped
06 [1d9e7ad5|3342a1ba] (02+04/28) Accurately ripped
07 [77a7fc1d|567f6582] (02+04/27) Accurately ripped
08 [bd891288|1c3088f6] (02+04/27) Accurately ripped
09 [27ff29a4|af257eaf] (02+04/28) Accurately ripped
10 [12495504|49576b96] (02+04/27) Accurately ripped
11 [e1a374ae|abcf8fae] (02+04/28) Accurately ripped
12 [388ddfc4|755680c4] (02+04/29) Accurately ripped
Offsetted by 36:
01 [118dd6c9] (13/28) Accurately ripped
02 [64cda032] (13/29) Accurately ripped
03 [d83b5b48] (13/29) Accurately ripped
04 [ba632e24] (13/28) Accurately ripped
05 [30789b2e] (13/28) Accurately ripped
06 [e05d54b5] (13/28) Accurately ripped
07 [883f849d] (12/27) Accurately ripped
08 [31cebc65] (12/27) Accurately ripped
09 [623de733] (13/28) Accurately ripped
10 [bc984f70] (12/27) Accurately ripped
11 [4b4edf18] (12/28) Accurately ripped
12 [3dc7a85e] (13/29) Accurately ripped
Offsetted by -628:
01 [3cf385da] (00/28) No match (V2 was not tested)
02 [781cb021] (00/29) No match (V2 was not tested)
03 [293a6454] (00/29) No match (V2 was not tested)
04 [f09ccfb4] (00/28) No match (V2 was not tested)
05 [a18d77ca] (00/28) No match (V2 was not tested)
06 [f4409369] (00/28) No match (V2 was not tested)
07 [39c6599d] (00/27) No match (V2 was not tested)
08 [76a5cca9] (00/27) No match (V2 was not tested)
09 [7ea51977] (00/28) No match (V2 was not tested)
10 [22040ba8] (00/27) No match (V2 was not tested)
11 [b0bc822d] (00/28) No match (V2 was not tested)
12 [17992cc5] (00/29) No match (V2 was not tested)

Track Peak [ CRC32 ] [W/O NULL] [ LOG ]
– 100,0 [3C7D670A] [04D83294] CRC32
01 100,0 [0AA584B9] [F12FE216]
02 100,0 [D42A8D92] [89294755]
03 100,0 [ED368D74] [287BBB43]
04 100,0 [977F534B] [BF3354FF]
05 100,0 [255D34F2] [1B2BE075]
06 100,0 [DCDA32AF] [FE1E48CE]
07 100,0 [0C7BAD6A] [8AB44A86]
08 100,0 [5A45D448] [6DCE0F31]
09 100,0 [294E57C9] [655CD340]
10 100,0 [3A796F58] [8C1BB592]
11 100,0 [6521A6ED] [2EDC1A87]
12 100,0 [8CE1F5D7] [20831B92]

No-Man - Albums & EPs Collection [13 CD] (1993-2009)

No-Man - Schoolyard Ghosts (2008)
EAC Rip | FLAC (image+.cue+log) - 285 MB | MP3 CBR 320 kbps (LAME 3.93) - 125 MB | Covers - 60 MB
Genre: Art Rock | RAR 3% Rec. | Label: Kscope (Kscope103)

Tracklist:
01. All Sweet Things
02. Beautiful Songs You Should Know
03. Pigeon Drummer
04. Truenorth
05. Wherever There is Light
06. Song of the Surf
07. Streaming
08. Mixtaped

Total time: 53:01

Exact Audio Copy V0.99 prebeta 5 from 4. May 2009

EAC extraction logfile from 9. August 2009, 10:09

No-Man / Schoolyard Ghosts {kscope103}

Used drive : HL-DT-STDVDRAM GH20NS15 Adapter: 2 ID: 0

Read mode : Secure
Utilize accurate stream : Yes
Defeat audio cache : Yes
Make use of C2 pointers : No

Read offset correction : 667
Overread into Lead-In and Lead-Out : No
Fill up missing offset samples with silence : Yes
Delete leading and trailing silent blocks : No
Null samples used in CRC calculations : Yes
Used interface : Native Win32 interface for Win NT & 2000

Used output format : Internal WAV Routines
Sample format : 44.100 Hz; 16 Bit; Stereo


TOC of the extracted CD

Track | Start | Length | Start sector | End sector
––––––––––––––––––––––––––––-
1 | 0:00.00 | 6:46.74 | 0 | 30523
2 | 6:46.74 | 4:25.38 | 30524 | 50436
3 | 11:12.37 | 6:18.10 | 50437 | 78796
4 | 17:30.47 | 12:51.15 | 78797 | 136636
5 | 30:21.62 | 4:21.31 | 136637 | 156242
6 | 34:43.18 | 6:11.55 | 156243 | 184122
7 | 40:54.73 | 3:30.05 | 184123 | 199877
8 | 44:25.03 | 8:35.61 | 199878 | 238563


Range status and errors

Selected range

Filename C:\musjk\No-Man - Schoolyard Ghosts {kscope103}.wav

Peak level 100.0 %
Range quality 99.9 %
Test CRC 32CFDFFB
Copy CRC 32CFDFFB
Copy OK

No errors occurred


AccurateRip summary

Track 1 cannot be verified as accurate (confidence 27) [71B0D892], AccurateRip returned [5984306A]
Track 2 cannot be verified as accurate (confidence 27) [C3E414DD], AccurateRip returned [84AE9769]
Track 3 cannot be verified as accurate (confidence 27) [A83811D2], AccurateRip returned [E4443E47]
Track 4 cannot be verified as accurate (confidence 27) [425DA8A3], AccurateRip returned [9A10FEEE]
Track 5 cannot be verified as accurate (confidence 27) [998DE767], AccurateRip returned [7DE1B1DE]
Track 6 cannot be verified as accurate (confidence 27) [C0D77C00], AccurateRip returned [0C67677C]
Track 7 cannot be verified as accurate (confidence 27) [2D53B229], AccurateRip returned [FECB58E4]
Track 8 cannot be verified as accurate (confidence 27) [B46D88D1], AccurateRip returned [2AA4FF08]

No tracks could be verified as accurate
You may have a different pressing from the one(s) in the database

End of status report

[CUETools log; Date: 19.03.2017 18:41:20; Version: 2.1.4]
[CTDB TOCID: LO5Jlj7.d1yYb0fRfEgshy6AEOo-] found.
Track | CTDB Status
1 | (67/69) Accurately ripped
2 | (66/69) Accurately ripped
3 | (66/69) Accurately ripped
4 | (67/69) Accurately ripped
5 | (67/69) Accurately ripped
6 | (67/69) Accurately ripped
7 | (67/69) Accurately ripped
8 | (67/69) Accurately ripped
[AccurateRip ID: 00106803-006d9b30-6a0c6c08] found.
Track [ CRC | V2 ] Status
01 [71b0d892|e36ea324] (000+002/125) Accurately ripped
02 [c3e414dd|fa1d75f3] (000+002/124) Accurately ripped
03 [a83811d2|eb059130] (000+000/123) No match
04 [425da8a3|44672b00] (000+002/124) Accurately ripped
05 [998de767|59d65507] (000+000/123) No match
06 [c0d77c00|c1c801db] (000+002/126) Accurately ripped
07 [2d53b229|2711b1d8] (000+000/125) No match
08 [b46d88d1|fc5beb51] (000+000/122) No match
Offsetted by 676:
01 [5984306a] (069/125) Accurately ripped
02 [84ae9769] (070/124) Accurately ripped
03 [e4443e47] (069/123) Accurately ripped
04 [9a10feee] (070/124) Accurately ripped
05 [7de1b1de] (070/123) Accurately ripped
06 [0c67677c] (070/126) Accurately ripped
07 [fecb58e4] (071/125) Accurately ripped
08 [2aa4ff08] (070/122) Accurately ripped

Track Peak [ CRC32 ] [W/O NULL] [ LOG ]
– 100,0 [32CFDFFB] [9BAB71B5] CRC32
01 100,0 [5B87D657] [63663ADA]
02 100,0 [09C86BA1] [907AB328]
03 100,0 [F58F1E16] [1619251B]
04 98,8 [88482C1B] [35B8578D]
05 100,0 [A9FBA6BE] [DA526822]
06 100,0 [2C1FB031] [17D5CAF5]
07 98,8 [DCD3FBD7] [E07ED901]
08 98,8 [65BF1D62] [BE784856]

No-Man - Albums & EPs Collection [13 CD] (1993-2009)

No-Man - Wherever There Is Light [EP] (2009)
EAC Rip | WavPack (image+.cue+log) - 395 MB | MP3 CBR 320 kbps (LAME 3.93) - 317 MB | Covers - 63 MB
Genre: Art Rock | RAR 3% Rec. | Label: Kscope (kscope127s)

Tracklist:
01. Wherever There Is Light
02. Death Was California
03. Counting
04. Carolina Skeletons (Live)
05. All The Blue Changes (Live)
+ Video Wherever There Is Light (clip)
+ Video All The Blue Changes (live)

Total time: 25:38

Exact Audio Copy V0.99 prebeta 5 from 4. May 2009

EAC extraction logfile from 27. January 2010, 17:59

No-Man / Wherever There Is Light

Used drive : HL-DT-STDVDRAM GH20NS15 Adapter: 2 ID: 0

Read mode : Secure
Utilize accurate stream : Yes
Defeat audio cache : Yes
Make use of C2 pointers : No

Read offset correction : 667
Overread into Lead-In and Lead-Out : No
Fill up missing offset samples with silence : Yes
Delete leading and trailing silent blocks : No
Null samples used in CRC calculations : Yes
Used interface : Native Win32 interface for Win NT & 2000

Used output format : Internal WAV Routines
Sample format : 44.100 Hz; 16 Bit; Stereo


TOC of the extracted CD

Track | Start | Length | Start sector | End sector
––––––––––––––––––––––––––––-
1 | 0:00.00 | 4:21.74 | 0 | 19648
2 | 4:21.74 | 3:03.00 | 19649 | 33373
3 | 7:24.74 | 4:24.02 | 33374 | 53175
4 | 11:49.01 | 7:10.08 | 53176 | 85433
5 | 18:59.09 | 6:39.13 | 85434 | 115371
6 | 28:10.22 | 32:27.13 | 126772 | 272809


Range status and errors

Selected range

Filename C:\musjk\No-Man - Wherever There Is Light.wav

Peak level 98.8 %
Range quality 100.0 %
Test CRC E6C1A124
Copy CRC E6C1A124
Copy OK

No errors occurred


AccurateRip summary

Track 1 accurately ripped (confidence 14) [AFA821BF]
Track 2 accurately ripped (confidence 13) [98918ACD]
Track 3 accurately ripped (confidence 13) [1433B9C1]
Track 4 accurately ripped (confidence 13) [3471126A]
Track 5 accurately ripped (confidence 13) [483A20AA]

All tracks accurately ripped

End of status report

[CUETools log; Date: 20.03.2017 23:34:02; Version: 2.1.4]
CD-Extra data track length 32:27:13.
[CTDB TOCID: e_SSk5qf8jjtb0F.oa_M5TRjNFI-] found.
Track | CTDB Status
1 | (13/13) Accurately ripped
2 | (13/13) Accurately ripped
3 | (13/13) Accurately ripped
4 | (13/13) Accurately ripped
5 | (13/13) Accurately ripped
[AccurateRip ID: 0007163b-0024de1b-3d0e3506] found.
Track [ CRC | V2 ] Status
01 [afa821bf|ba63045c] (24+12/36) Accurately ripped
02 [98918acd|1b6f3ee4] (23+12/35) Accurately ripped
03 [1433b9c1|be3e97e9] (23+11/34) Accurately ripped
04 [3471126a|a727c46e] (23+13/36) Accurately ripped
05 [483a20aa|51115aaa] (23+13/36) Accurately ripped

Track Peak [ CRC32 ] [W/O NULL] [ LOG ]
– 98,8 [E6C1A124] [500BAEB2] CRC32
01 98,8 [39BE0553] [3748DB4A]
02 98,8 [A3CAAFFD] [270D2E3D]
03 98,8 [4D53BC32] [62FB3C9B]
04 98,8 [57D4990C] [6C6FC3F8]
05 98,8 [6108E3A7] [F72D7605]

No-Man - Albums & EPs Collection [13 CD] (1993-2009)

No-Man - Highlights From Mixtaped [Live] (2009)
EAC Rip | WavPack (image+.cue+log) - 244 MB | MP3 CBR 320 kbps (LAME 3.93) - 99 MB | Covers - 32 MB
Genre: Art Rock | RAR 3% Rec. | Label: Kscope (kscope505/nmsg2)

Tracklist:
01. Only Rain/Time Travel In Texas
02. All Sweet Things
03. Pretty Genius
04. Returning Jesus
05. Mixtaped
06. Things Change

Total time: 42:18

Exact Audio Copy V0.99 prebeta 5 from 4. May 2009

EAC extraction logfile from 1. February 2010, 12:34

no-man / highlights from mixtaped

Used drive : HL-DT-STDVDRAM GH20NS15 Adapter: 2 ID: 0

Read mode : Secure
Utilize accurate stream : Yes
Defeat audio cache : Yes
Make use of C2 pointers : No

Read offset correction : 667
Overread into Lead-In and Lead-Out : No
Fill up missing offset samples with silence : Yes
Delete leading and trailing silent blocks : No
Null samples used in CRC calculations : Yes
Used interface : Native Win32 interface for Win NT & 2000

Used output format : Internal WAV Routines
Sample format : 44.100 Hz; 16 Bit; Stereo


TOC of the extracted CD

Track | Start | Length | Start sector | End sector
––––––––––––––––––––––––––––-
1 | 0:00.00 | 9:39.39 | 0 | 43463
2 | 9:39.39 | 6:42.60 | 43464 | 73673
3 | 16:22.24 | 3:48.40 | 73674 | 90813
4 | 20:10.64 | 4:49.45 | 90814 | 112533
5 | 25:00.34 | 8:57.18 | 112534 | 152826
6 | 33:57.52 | 8:19.73 | 152827 | 190324


Range status and errors

Selected range

Filename C:\musjk\no-man - highlights from mixtaped.wav

Peak level 100.0 %
Range quality 99.9 %
Test CRC 14A72F78
Copy CRC 14A72F78
Copy OK

No errors occurred


AccurateRip summary

Track 1 accurately ripped (confidence 2) [9217DC8E]
Track 2 not present in database
Track 3 accurately ripped (confidence 2) [E5822A03]
Track 4 accurately ripped (confidence 2) [90763F4E]
Track 5 accurately ripped (confidence 2) [957D52C0]
Track 6 accurately ripped (confidence 2) [99A47249]

5 track(s) accurately ripped
1 track(s) not present in the AccurateRip database

Some tracks could not be verified as accurate

End of status report

[CUETools log; Date: 20.03.2017 23:30:55; Version: 2.1.4]
[CTDB TOCID: 1CgSDtCOAm9hck9EdYgY11k67Yo-] found.
Track | CTDB Status
1 | (5/5) Accurately ripped
2 | (5/5) Accurately ripped
3 | (5/5) Accurately ripped
4 | (5/5) Accurately ripped
5 | (5/5) Accurately ripped
6 | (5/5) Accurately ripped
[AccurateRip ID: 000a2056-003525ea-4109e906] found.
Track [ CRC | V2 ] Status
01 [9217dc8e|d89d010f] (06+06/12) Accurately ripped
02 [c9cbff23|acff7a24] (05+06/11) Accurately ripped
03 [e5822a03|d24f7821] (06+06/12) Accurately ripped
04 [90763f4e|b3c37328] (06+06/12) Accurately ripped
05 [957d52c0|59843152] (06+06/12) Accurately ripped
06 [99a47249|b86943fc] (06+06/12) Accurately ripped

Track Peak [ CRC32 ] [W/O NULL] [ LOG ]
– 100,0 [14A72F78] [42456AF2] CRC32
01 100,0 [DCDC32F1] [248C3D65]
02 77,3 [F924A60D] [63847F8D]
03 100,0 [8CF78B18] [4396C6EE]
04 99,7 [7132C235] [DBED0042]
05 100,0 [1BB31923] [11AA61DB]
06 100,0 [865B8026] [AD7DF327]

Thanks to transgressions