Tags
Language
Tags

Norah Jones - Not Too Late (2007) {Deluxe Edition}

Posted By: popsakov
Norah Jones - Not Too Late (2007) {Deluxe Edition}

Norah Jones - Not Too Late (2007) {Deluxe Edition}
EAC Rip | FLAC (Img) + Cue + Log ~ 249 Mb | MP3 CBR320 ~ 110 Mb | Full Scans ~ 41 Mb
DVD5 | MPEG-2, NTSC 4:3 (720x480), 29.970 fps, VBR
LPCM 2.0, 48.0 kHz/16 bits, 1536 kb/s | ~ 2,24 Gb | RAR 5% Recovery
Contemporary Jazz, Blues, Folk | Blue Note / Parlophone #0946 3 87844 2 5

Not Too Late is the third studio album by American singer-songwriter Norah Jones, released on January 30, 2007, through Blue Note Records. It was produced by Lee Alexander, the songwriter and bassist featured on Jones's previous albums, Come Away with Me and Feels like Home. The album debuted at number one on the Billboard 200, making it Jones' third consecutive number one album.

Recoils from fame usually aren't as subdued as Norah Jones' third album, Not Too Late, but such understatement is customary for this gentlest of singer/songwriters. Not Too Late may not be as barbed or alienating as either In Utero or Kid A – it's not an ornery intensification of her sound nor a chilly exploration of its furthest limits – but make no mistake, it is indeed a conscious abdication of her position as a comfortable coffeehouse crooner and a move toward art for art's sake. And, frankly, who can blame Jones for wanting to shake off the Starbucks stigmata? Although a large part of her appeal has always been that she sounds familiar, like a forgotten favorite from the early '70s, Jones is too young and too much of a New York bohemian to settle into a role as a nostalgia peddler, so it made sense that she started to stretch a little after her 2004 sophomore set, Feels Like Home, proved that her surprise blockbuster 2002 debut, Come Away with Me, was no fluke. First, there was the cabaret country of her Little Willies side band, then there was her appearance on gonzo art rocker Mike Patton's Peeping Tom project, and finally there's this hushed record, her first containing nothing but original compositions. It's also her first album recorded without legendary producer Arif Mardin, who helmed her first two albums, giving them a warm, burnished feel that was nearly as pivotal to Jones' success has her sweet, languid voice. Mardin died in the summer of 2006, and in his absence, Jones recorded Not Too Late at the home studio she shares with her collaborator, bassist and boyfriend Lee Alexander. Although it shares many of the same sonic characteristics as Jones' first two albums, Not Too Late boasts many subtle differences that add up to a distinctly different aesthetic. Jones and Alexander have stripped Norah's music to its core. Gone are any covers of pop standards, gone are the studio pros, gone is the enveloping lushness that made Come Away with Me so easy to embrace, something that Not Too Late is most decidedly not. While this might not have the rough edges of a four-track demo, Not Too Late is most certainly music that was made at home with little or no consideration of an audience much larger than Jones and Alexander. It's spare, sometimes skeletal, often sleepy and lackadaisical, wandering from tunes plucked out on acoustic guitars and pianos to those with richer full-band arrangements. Norah Jones has never exactly been lively – part of her charm was her sultry slowness, ideal for both Sunday afternoons and late nights – but the atmosphere here is stultifying even if it's not exactly unpleasant. After all, unpleasantness seems to run contrary to Jones' nature, and even if she dabbles in Tom Waits-ian carnivalesque stomps ("Sinkin' Soon") or tentatively stabs at politics ("My Dear Country"), it never feels out of place; often, the shift is so subtle that it's hard to notice. That subtlety is the biggest Achilles' heel on Not Too Late, as it manifests itself in songs that aren't particularly distinctive or performances that are particularly varied. There are exceptions to the rule and they all arrive with full-band arrangements, whether it's the lazy jazz shuffle of "Until the End," the country-tinged "Be My Somebody," or the wonderful laid-back soul of "Thinking About You." These are songs that not only sound full but they sound complete, songs that have a purposeful flow and are memorable for both their melody and sentiment. They would have been standouts on Feels Like Home, but here they are even more distinctive because the rest of the record plays like a sketchbook, capturing Jones and Alexander figuring out how to move forward after such great success. Instead of being the end result of those experiments, the completed painting after the sketch, Not Too Late captures their process, which is interesting if not quite compelling. But its very release is a clear statement of artistic purpose for Jones: its ragged, unfinished nature illustrates that she's more interested in pursuing her art than recycling Come Away with Me, and if this third album isn't as satisfying as that debut, it nevertheless is a welcome transitional effort that proves her artistic heart is in the right place.

~ Stephen Thomas Erlewine, All Music

***************

Norah Jones - Not Too Late (2007) {Deluxe Edition}

Norah Jones - Not Too Late (2007) {Deluxe Edition}

Track List CD:

01. Wish I Could [0:04:18.30]
02. Sinkin' Soon [0:04:38.23]
03. The Sun Doesn't Like You [0:02:59.57]
04. Until the End [0:03:56.30]
05. Not My Friend [0:02:54.36]
06. Thinking About You [0:03:20.45]
07. Broken [0:03:21.01]
08. My Dear Country [0:03:25.17]
09. Wake Me Up [0:02:46.53]
10. Be My Somebody [0:03:36.43]
11. Little Room [0:02:43.73]
12. Rosie's Lullaby [0:03:56.58]
13. Not Too Late [0:03:31.35]

Exact Audio Copy V1.3 from 2. September 2016

EAC extraction logfile from 31. July 2019, 23:13

Norah Jones / Not Too Late

Used drive : PIONEER DVD-RW DVR-220L Adapter: 1 ID: 0

Read mode : Secure
Utilize accurate stream : Yes
Defeat audio cache : Yes
Make use of C2 pointers : No

Read offset correction : 6
Overread into Lead-In and Lead-Out : No
Fill up missing offset samples with silence : Yes
Delete leading and trailing silent blocks : No
Null samples used in CRC calculations : Yes
Used interface : Installed external ASPI interface

Used output format : User Defined Encoder
Selected bitrate : 1024 kBit/s
Quality : High
Add ID3 tag : No
Command line compressor : C:\Program Files (x86)\Exact Audio Copy\Flac\flac.exe
Additional command line options : -6 -V -T "ARTIST=%artist%" -T "TITLE=%title%" -T "ALBUM=%albumtitle%" -T "DATE=%year%" -T "TRACKNUMBER=%tracknr%" -T "GENRE=%genre%" -T "COMMENT=%comment%" -T "BAND=%albuminterpret%" -T "ALBUMARTIST=%albuminterpret%" -T "COMPOSER=%composer%" %haslyrics%–tag-from-file=LYRICS="%lyricsfile%"%haslyrics% -T "DISCNUMBER=%cdnumber%" -T "TOTALDISCS=%totalcds%" -T "TOTALTRACKS=%numtracks%" %hascover%–picture="%coverfile%"%hascover% %source% -o %dest%


TOC of the extracted CD

Track | Start | Length | Start sector | End sector
––––––––––––––––––––––––––––-
1 | 0:00.00 | 4:18.30 | 0 | 19379
2 | 4:18.30 | 4:38.23 | 19380 | 40252
3 | 8:56.53 | 2:59.57 | 40253 | 53734
4 | 11:56.35 | 3:56.30 | 53735 | 71464
5 | 15:52.65 | 2:54.36 | 71465 | 84550
6 | 18:47.26 | 3:20.45 | 84551 | 99595
7 | 22:07.71 | 3:21.01 | 99596 | 114671
8 | 25:28.72 | 3:25.17 | 114672 | 130063
9 | 28:54.14 | 2:46.53 | 130064 | 142566
10 | 31:40.67 | 3:36.43 | 142567 | 158809
11 | 35:17.35 | 2:43.73 | 158810 | 171107
12 | 38:01.33 | 3:56.58 | 171108 | 188865
13 | 41:58.16 | 3:31.35 | 188866 | 204725


Range status and errors

Selected range

Filename C:\mm\Norah Jones\2007 - Not Too Late {Deluxe Edition} [0946 3 87844 2 5]\Norah Jones - Not Too Late.wav

Peak level 99.8 %
Extraction speed 6.9 X
Range quality 99.9 %
Test CRC 114FA3CB
Copy CRC 114FA3CB
Copy OK

No errors occurred


AccurateRip summary

Track 1 accurately ripped (confidence 200) [7C60B7C0] (AR v2)
Track 2 accurately ripped (confidence 200) [C00DA1DA] (AR v2)
Track 3 accurately ripped (confidence 200) [28DF93D5] (AR v2)
Track 4 accurately ripped (confidence 200) [816D54FB] (AR v2)
Track 5 accurately ripped (confidence 200) [17C76550] (AR v2)
Track 6 accurately ripped (confidence 200) [85149BBB] (AR v2)
Track 7 accurately ripped (confidence 200) [B62401ED] (AR v2)
Track 8 accurately ripped (confidence 200) [80ED584F] (AR v2)
Track 9 accurately ripped (confidence 200) [ACFD0627] (AR v2)
Track 10 accurately ripped (confidence 200) [1051BDF7] (AR v2)
Track 11 accurately ripped (confidence 200) [8E05ABA0] (AR v2)
Track 12 accurately ripped (confidence 200) [EFDD9A75] (AR v2)
Track 13 accurately ripped (confidence 200) [0130755D] (AR v2)

All tracks accurately ripped

End of status report

[CUETools log; Date: 15.09.2019 22:07:08; Version: 2.1.6]
[CTDB TOCID: Aouh4dCKhAIPhDZkMcYgE19e9BM-] found.
Track | CTDB Status
1 | (6217/6255) Accurately ripped
2 | (6233/6255) Accurately ripped
3 | (6237/6255) Accurately ripped
4 | (6230/6255) Accurately ripped
5 | (6222/6255) Accurately ripped
6 | (6223/6255) Accurately ripped
7 | (6223/6255) Accurately ripped
8 | (6225/6255) Accurately ripped
9 | (6229/6255) Accurately ripped
10 | (6223/6255) Accurately ripped
11 | (6219/6255) Accurately ripped
12 | (6213/6255) Accurately ripped
13 | (6208/6255) Accurately ripped, or (8/6255) differs in 4 samples @03:31:18
[AccurateRip ID: 00169471-00de57f9-a30aa90d] found.
Track [ CRC | V2 ] Status
01 [0b321f14|7c60b7c0] (200+200/757) Accurately ripped
02 [ededd2d7|c00da1da] (200+200/757) Accurately ripped
03 [552851f1|28df93d5] (200+200/756) Accurately ripped
04 [d1db29c3|816d54fb] (200+200/756) Accurately ripped
05 [3e45a600|17c76550] (200+200/752) Accurately ripped
06 [6996c9e1|85149bbb] (200+200/750) Accurately ripped
07 [b03e1cdc|b62401ed] (200+200/750) Accurately ripped
08 [31ab7270|80ed584f] (200+200/752) Accurately ripped
09 [541b0d09|acfd0627] (200+200/754) Accurately ripped
10 [a5583752|1051bdf7] (200+200/754) Accurately ripped
11 [a3136b85|8e05aba0] (200+200/750) Accurately ripped
12 [c8b47430|efdd9a75] (200+200/752) Accurately ripped
13 [ab49efc0|0130755d] (200+200/763) Accurately ripped
Offsetted by -762:
01 [b47977f5] (002/757) Accurately ripped
02 [68169b69] (002/757) Accurately ripped
03 [220ab73b] (002/756) Accurately ripped
04 [810da6a4] (002/756) Accurately ripped
05 [9296b019] (002/752) Accurately ripped
06 [425932e9] (002/750) Accurately ripped
07 [e0425b72] (002/750) Accurately ripped
08 [ff2be590] (002/752) Accurately ripped
09 [2ee72420] (002/754) Accurately ripped
10 [1488a10a] (002/754) Accurately ripped
11 [0270964f] (002/750) Accurately ripped
12 [ea0b83b7] (002/752) Accurately ripped
13 [1f951585] (002/763) Accurately ripped
Offsetted by -667:
01 [a0484e93] (004/757) Accurately ripped
02 [41c65824] (004/757) Accurately ripped
03 [a7121a24] (004/756) Accurately ripped
04 [3968b5b8] (004/756) Accurately ripped
05 [b0c77812] (004/752) Accurately ripped
06 [ad09313d] (002/750) Accurately ripped
07 [deed2c4a] (002/750) Accurately ripped
08 [85d68d2d] (004/752) Accurately ripped
09 [dca39f51] (004/754) Accurately ripped
10 [dcc0f6f9] (004/754) Accurately ripped
11 [a6b16d05] (004/750) Accurately ripped
12 [30ffdb49] (004/752) Accurately ripped
13 [511f72cb] (003/763) Accurately ripped
Offsetted by -664:
01 [8a86568e] (031/757) Accurately ripped
02 [688cedce] (031/757) Accurately ripped
03 [3765df49] (031/756) Accurately ripped
04 [fd3457b3] (030/756) Accurately ripped
05 [5db00f38] (031/752) Accurately ripped
06 [67a5a7c1] (031/750) Accurately ripped
07 [ea1e90b3] (031/750) Accurately ripped
08 [bf4dcef8] (031/752) Accurately ripped
09 [98517eda] (031/754) Accurately ripped
10 [71944122] (031/754) Accurately ripped
11 [24737701] (031/750) Accurately ripped
12 [32a9a1e0] (031/752) Accurately ripped
13 [39ae1b27] (031/763) Accurately ripped
Offsetted by -132:
01 [952fc4cb] (008/757) Accurately ripped
02 [44c658de] (008/757) Accurately ripped
03 [86c26f95] (008/756) Accurately ripped
04 [14b9cea7] (008/756) Accurately ripped
05 [754c9058] (008/752) Accurately ripped
06 [56b26b31] (008/750) Accurately ripped
07 [ced8cbaa] (008/750) Accurately ripped
08 [cb353e7f] (008/752) Accurately ripped
09 [4636c5f7] (008/754) Accurately ripped
10 [53a8013d] (008/754) Accurately ripped
11 [88b12537] (008/750) Accurately ripped
12 [f5fc1248] (008/752) Accurately ripped
13 [8c6ce037] (007/763) Accurately ripped
Offsetted by -96:
01 [1c0775f4] (003/757) Accurately ripped
02 [6b3c3674] (003/757) Accurately ripped
03 [4aafad51] (003/756) Accurately ripped
04 [9cfd2d85] (003/756) Accurately ripped
05 [ee35c54e] (003/752) Accurately ripped
06 [1607f961] (003/750) Accurately ripped
07 [50ef8a92] (003/750) Accurately ripped
08 [265a1d73] (003/752) Accurately ripped
09 [5bcda6ad] (003/754) Accurately ripped
10 [539d6a7b] (003/754) Accurately ripped
11 [e0825c85] (003/750) Accurately ripped
12 [20376b5e] (003/752) Accurately ripped
13 [7d1d7dcb] (003/763) Accurately ripped
Offsetted by -78:
01 [224743c9] (005/757) Accurately ripped
02 [7a989ba8] (005/757) Accurately ripped
03 [aca64c2f] (005/756) Accurately ripped
04 [696c35da] (005/756) Accurately ripped
05 [16c7ea17] (005/752) Accurately ripped
06 [75b2c079] (005/750) Accurately ripped
07 [95268102] (005/750) Accurately ripped
08 [f8c48c19] (005/752) Accurately ripped
09 [2f3c0e57] (005/754) Accurately ripped
10 [d266b67f] (005/754) Accurately ripped
11 [378d927d] (005/750) Accurately ripped
12 [aeee8ef4] (005/752) Accurately ripped
13 [f6040e54] (005/763) Accurately ripped
Offsetted by -66:
01 [f556c9e2] (005/757) Accurately ripped
02 [2d9fda1f] (004/757) Accurately ripped
03 [edf560c3] (004/756) Accurately ripped
04 [b7f80369] (005/756) Accurately ripped
05 [4a20c20c] (005/752) Accurately ripped
06 [60249a89] (005/750) Accurately ripped
07 [c0565596] (005/750) Accurately ripped
08 [38f4982d] (005/752) Accurately ripped
09 [31cdd7b8] (005/754) Accurately ripped
10 [266626f3] (005/754) Accurately ripped
11 [b8aa9215] (005/750) Accurately ripped
12 [0a71f797] (005/752) Accurately ripped
13 [9a77c1e1] (005/763) Accurately ripped
Offsetted by -36:
01 [5b7c66b0] (009/757) Accurately ripped
02 [e5926061] (009/757) Accurately ripped
03 [913b1435] (009/756) Accurately ripped
04 [addd6533] (009/756) Accurately ripped
05 [23cf86f4] (009/752) Accurately ripped
06 [aa413bb1] (009/750) Accurately ripped
07 [2c0a4890] (009/750) Accurately ripped
08 [06bca5bc] (009/752) Accurately ripped
09 [794b6531] (009/754) Accurately ripped
10 [b08f6690] (009/754) Accurately ripped
11 [7c761c43] (009/750) Accurately ripped
12 [e0bf6c1c] (009/752) Accurately ripped
13 [bbb5ce1f] (009/763) Accurately ripped
Offsetted by -18:
01 [5b1d0f0b] (002/757) Accurately ripped
02 [ea579fe2] (003/757) Accurately ripped
03 [f331b313] (002/756) Accurately ripped
04 [740d4751] (002/756) Accurately ripped
05 [8bd068e4] (002/752) Accurately ripped
06 [09ec02c9] (002/750) Accurately ripped
07 [6eab761d] (002/750) Accurately ripped
08 [1cdc33be] (002/752) Accurately ripped
09 [5a2a0873] (002/754) Accurately ripped
10 [2a68355a] (002/754) Accurately ripped
11 [8fb8c2f1] (002/750) Accurately ripped
12 [57df73e1] (002/752) Accurately ripped
13 [32f19daa] (002/763) Accurately ripped
Offsetted by -12:
01 [178cbdc0] (002/757) Accurately ripped
02 [410bb23d] (002/757) Accurately ripped
03 [13d93d5d] (002/756) Accurately ripped
04 [20655bd6] (002/756) Accurately ripped
05 [2edb3e89] (002/752) Accurately ripped
06 [7f24efd1] (002/750) Accurately ripped
07 [848702f1] (002/750) Accurately ripped
08 [0b3bede9] (002/752) Accurately ripped
09 [aaeedf8f] (002/754) Accurately ripped
10 [53130e14] (002/754) Accurately ripped
11 [5b7a4faf] (002/750) Accurately ripped
12 [7e331f80] (002/752) Accurately ripped
13 [06d63ade] (002/763) Accurately ripped
Offsetted by -6:
01 [792343b6] (028/757) Accurately ripped
02 [9796c33a] (028/757) Accurately ripped
03 [3480c7a7] (028/756) Accurately ripped
04 [946bd982] (027/756) Accurately ripped
05 [bde7fd3f] (027/752) Accurately ripped
06 [f45ddcd9] (027/750) Accurately ripped
07 [99db4c2b] (027/750) Accurately ripped
08 [f7d2d85d] (027/752) Accurately ripped
09 [2c068bb0] (027/754) Accurately ripped
10 [7c3da2cf] (027/754) Accurately ripped
11 [2db68b20] (027/750) Accurately ripped
12 [a3d0ca47] (027/752) Accurately ripped
13 [d9101540] (027/763) Accurately ripped
Offsetted by -1389:
01 [ab2a0dfe] (000/757) No match (V2 was not tested)
02 [b9d23218] (002/757) Accurately ripped
03 [4da6c406] (002/756) Accurately ripped
04 [36f87b80] (000/756) No match
05 [82b2c424] (000/752) No match (V2 was not tested)
06 [e89c7125] (002/750) Accurately ripped
07 [f4f37d32] (002/750) Accurately ripped
08 [4be9b993] (002/752) Accurately ripped
09 [80b43487] (002/754) Accurately ripped
10 [2136f6b4] (002/754) Accurately ripped
11 [2a9ba8c4] (002/750) Accurately ripped
12 [f4569329] (002/752) Accurately ripped
13 [976b3aa5] (000/763) No match (V2 was not tested)
Offsetted by -1328:
01 [ce84f202] (000/757) No match (V2 was not tested)
02 [d3ca68bb] (000/757) No match (V2 was not tested)
03 [19a36ca1] (000/756) No match (V2 was not tested)
04 [a70e7499] (000/756) No match (V2 was not tested)
05 [8f303c72] (000/752) No match (V2 was not tested)
06 [65b485a1] (000/750) No match (V2 was not tested)
07 [27b56102] (000/750) No match (V2 was not tested)
08 [68918485] (000/752) No match (V2 was not tested)
09 [eee696de] (000/754) No match (V2 was not tested)
10 [86b601ff] (000/754) No match (V2 was not tested)
11 [2a6454ac] (000/750) No match (V2 was not tested)
12 [47ee20f4] (000/752) No match
13 [c9323463] (000/763) No match
Offsetted by -1176:
01 [66e95bed] (000/757) No match (V2 was not tested)
02 [8435948c] (000/757) No match (V2 was not tested)
03 [54e27149] (000/756) No match (V2 was not tested)
04 [349f95d0] (000/756) No match (V2 was not tested)
05 [afa633fb] (000/752) No match (V2 was not tested)
06 [aa014fc1] (000/750) No match (V2 was not tested)
07 [fb91402d] (000/750) No match (V2 was not tested)
08 [c9734a87] (000/752) No match (V2 was not tested)
09 [2e22dd37] (000/754) No match (V2 was not tested)
10 [25e85adb] (000/754) No match (V2 was not tested)
11 [9bd1e4e7] (000/750) No match (V2 was not tested)
12 [29a25173] (000/752) No match (V2 was not tested)
13 [51538a7d] (000/763) No match (V2 was not tested)
Offsetted by -742:
01 [eb534532] (000/757) No match (V2 was not tested)
02 [718a5e1a] (000/757) No match (V2 was not tested)
03 [8ee3d987] (000/756) No match (V2 was not tested)
04 [c28a0816] (000/756) No match (V2 was not tested)
05 [29369dfb] (000/752) No match (V2 was not tested)
06 [73c19e59] (000/750) No match (V2 was not tested)
07 [d2ba3643] (000/750) No match (V2 was not tested)
08 [4d5a29e0] (000/752) No match (V2 was not tested)
09 [0bcf646f] (000/754) No match (V2 was not tested)
10 [9ff1fe56] (000/754) No match (V2 was not tested)
11 [511b2274] (000/750) No match (V2 was not tested)
12 [cace33ba] (000/752) No match (V2 was not tested)
13 [87be268d] (000/763) No match (V2 was not tested)
Offsetted by -684:
01 [d16aa0f9] (000/757) No match (V2 was not tested)
02 [65ef57d4] (000/757) No match (V2 was not tested)
03 [ca8cbcfd] (000/756) No match (V2 was not tested)
04 [4b0c33fc] (000/756) No match (V2 was not tested)
05 [15b224a3] (000/752) No match (V2 was not tested)
06 [363d3c51] (000/750) No match (V2 was not tested)
07 [f7a6b20c] (000/750) No match (V2 was not tested)
08 [c63614e6] (000/752) No match (V2 was not tested)
09 [ba64b866] (000/754) No match (V2 was not tested)
10 [2db39369] (000/754) No match (V2 was not tested)
11 [55b133d8] (000/750) No match (V2 was not tested)
12 [7a0b1d77] (000/752) No match (V2 was not tested)
13 [d18506cc] (000/763) No match (V2 was not tested)
Offsetted by -676:
01 [9ef64f2b] (000/757) No match (V2 was not tested)
02 [cd7b9576] (000/757) No match (V2 was not tested)
03 [f616cab5] (000/756) No match (V2 was not tested)
04 [1c123e72] (000/756) No match (V2 was not tested)
05 [9c01afcd] (000/752) No match (V2 was not tested)
06 [7d33cdb1] (000/750) No match (V2 was not tested)
07 [be67868e] (000/750) No match (V2 was not tested)
08 [4fd010d8] (000/752) No match (V2 was not tested)
09 [51b43306] (000/754) No match (V2 was not tested)
10 [2096090d] (000/754) No match (V2 was not tested)
11 [7f0f4afb] (000/750) No match (V2 was not tested)
12 [2b23868c] (000/752) No match (V2 was not tested)
13 [94ac350c] (000/763) No match (V2 was not tested)
Offsetted by -120:
01 [6c6c2f3f] (000/757) No match (V2 was not tested)
02 [fd17a544] (000/757) No match (V2 was not tested)
03 [c8118429] (000/756) No match (V2 was not tested)
04 [5afa805c] (000/756) No match (V2 was not tested)
05 [3c52d3b7] (000/752) No match (V2 was not tested)
06 [41244541] (000/750) No match (V2 was not tested)
07 [fa089f1d] (000/750) No match (V2 was not tested)
08 [910421f0] (000/752) No match (V2 was not tested)
09 [1a549d92] (000/754) No match (V2 was not tested)
10 [a9b8b929] (000/754) No match (V2 was not tested)
11 [be816339] (000/750) No match (V2 was not tested)
12 [5a91875b] (000/752) No match (V2 was not tested)
13 [316ed37b] (000/763) No match (V2 was not tested)
Offsetted by -110:
01 [4a86d765] (000/757) No match
02 [960ce2ff] (000/757) No match
03 [fe7e154f] (000/756) No match
04 [23a267ff] (000/756) No match
05 [d2dfe72a] (000/752) No match
06 [59d87af9] (000/750) No match
07 [745320f1] (000/750) No match (V2 was not tested)
08 [33256659] (000/752) No match
09 [281c0a2d] (000/754) No match
10 [f19e8df7] (000/754) No match
11 [acd4442f] (000/750) No match
12 [03071229] (000/752) No match
13 [e58368f1] (000/763) No match
Offsetted by -84:
01 [2cb774cc] (000/757) No match (V2 was not tested)
02 [20867ad4] (000/757) No match (V2 was not tested)
03 [8bfec1e5] (000/756) No match (V2 was not tested)
04 [a8ae82af] (000/756) No match (V2 was not tested)
05 [7181f240] (000/752) No match (V2 was not tested)
06 [0079d371] (000/750) No match (V2 was not tested)
07 [7e3c6d9a] (000/750) No match (V2 was not tested)
08 [1ae4cf4f] (000/752) No match (V2 was not tested)
09 [545aacab] (000/754) No match (V2 was not tested)
10 [a99c5465] (000/754) No match (V2 was not tested)
11 [1dd565f6] (000/750) No match (V2 was not tested)
12 [800dd949] (000/752) No match (V2 was not tested)
13 [233bf3bf] (000/763) No match (V2 was not tested)
Offsetted by -72:
01 [9ca62e6c] (000/757) No match (V2 was not tested)
02 [d43fbb74] (000/757) No match (V2 was not tested)
03 [cd4dd679] (000/756) No match (V2 was not tested)
04 [3252be1a] (000/756) No match (V2 was not tested)
05 [b1f9d939] (000/752) No match (V2 was not tested)
06 [eaebad81] (000/750) No match (V2 was not tested)
07 [aa7ac96a] (000/750) No match (V2 was not tested)
08 [72afe015] (000/752) No match (V2 was not tested)
09 [de7ccda8] (000/754) No match (V2 was not tested)
10 [fc3290bf] (000/754) No match (V2 was not tested)
11 [fb09bfca] (000/750) No match (V2 was not tested)
12 [dd1343bc] (000/752) No match (V2 was not tested)
13 [c83de810] (000/763) No match (V2 was not tested)
Offsetted by -30:
01 [f7b46577] (000/757) No match (V2 was not tested)
02 [3c9276f6] (000/757) No match (V2 was not tested)
03 [b1e29e7f] (000/756) No match (V2 was not tested)
04 [7c233b52] (000/756) No match (V2 was not tested)
05 [01cd879f] (000/752) No match (V2 was not tested)
06 [1f7a28b9] (000/750) No match (V2 was not tested)
07 [415e918a] (000/750) No match (V2 was not tested)
08 [a70c82c5] (000/752) No match (V2 was not tested)
09 [ef6d6250] (000/754) No match (V2 was not tested)
10 [d9713fac] (000/754) No match (V2 was not tested)
11 [96e2a1d8] (000/750) No match (V2 was not tested)
12 [092d1a37] (000/752) No match (V2 was not tested)
13 [8f0c2a22] (000/763) No match (V2 was not tested)
Offsetted by -24:
01 [fa826d29] (000/757) No match (V2 was not tested)
02 [937e8c22] (000/757) No match (V2 was not tested)
03 [d28a28c9] (000/756) No match (V2 was not tested)
04 [a3dbff9a] (000/756) No match (V2 was not tested)
05 [d04c7f01] (000/752) No match (V2 was not tested)
06 [94b315c1] (000/750) No match (V2 was not tested)
07 [5848a5a6] (000/750) No match (V2 was not tested)
08 [2ec90ff9] (000/752) No match (V2 was not tested)
09 [3a383415] (000/754) No match (V2 was not tested)
10 [024018a3] (000/754) No match (V2 was not tested)
11 [1017db15] (000/750) No match (V2 was not tested)
12 [30d9c770] (000/752) No match (V2 was not tested)
13 [60298269] (000/763) No match (V2 was not tested)
Offsetted by 6:
01 [4ca6035e] (000/757) No match (V2 was not tested)
02 [4401e10e] (000/757) No match (V2 was not tested)
03 [75cfdc3b] (000/756) No match (V2 was not tested)
04 [728dc1d0] (000/756) No match (V2 was not tested)
05 [b1bc40d5] (000/752) No match (V2 was not tested)
06 [decfb6e9] (000/750) No match (V2 was not tested)
07 [c6a0ed94] (000/750) No match (V2 was not tested)
08 [00f1f035] (000/752) No match (V2 was not tested)
09 [0a151adc] (000/754) No match (V2 was not tested)
10 [ce61cba6] (000/754) No match (V2 was not tested)
11 [6bb8a3bf] (000/750) No match (V2 was not tested)
12 [ecce1d34] (000/752) No match (V2 was not tested)
13 [7ea04c39] (000/763) No match (V2 was not tested)
Offsetted by 30:
01 [91411d5f] (000/757) No match (V2 was not tested)
02 [9a100aee] (000/757) No match (V2 was not tested)
03 [f86e0563] (000/756) No match (V2 was not tested)
04 [93ebec18] (000/756) No match (V2 was not tested)
05 [b73a95dd] (000/752) No match (V2 was not tested)
06 [b3b36b09] (000/750) No match (V2 was not tested)
07 [1e0f2257] (000/750) No match (V2 was not tested)
08 [b207b0d4] (000/752) No match (V2 was not tested)
09 [4ab614e2] (000/754) No match (V2 was not tested)
10 [6e1cf6ba] (000/754) No match (V2 was not tested)
11 [64666181] (000/750) No match (V2 was not tested)
12 [7438b772] (000/752) No match (V2 was not tested)
13 [cadd3cc9] (000/763) No match (V2 was not tested)

Track Peak [ CRC32 ] [W/O NULL] [ LOG ]
– 99,8 [114FA3CB] [EFFD7912] CRC32
01 97,8 [26682372] [9D053818]
02 99,8 [3EA66F93] [B0ADF0DD]
03 93,2 [8EA4009C] [464242EC]
04 97,0 [FA276084] [9D5D3381]
05 91,1 [D2C795AA] [9A1F0E3C]
06 99,8 [EA836A93] [2C77CB40]
07 98,6 [76ECA1D2] [9E6AC019]
08 93,5 [7AA7D35B] [DDB0A778]
09 98,9 [FF72074F] [93DF61F4]
10 96,9 [64151F8A] [416BA9F1]
11 91,1 [44C94696] [027D6AB0]
12 93,8 [BDB5E811] [F3F652BF]
13 93,7 [F79C9A07] [15A0977F]

Norah Jones - Not Too Late (2007) {Deluxe Edition}

Track List DVD:

01. Thinking About You (Music Video) [03:20]
02. Until The End (Music Video) [04:01]
03. Sinkin' Soon (Music Video) [04:47]
04. Interview With Norah [10:39]
05. Thinking About You (Behind The Scenes At The Video Shoot) [02:41]
06. Sinkin' Soon (Behind The Scenes At The Video Shoot) [05:28]
07. Until The End (Live) [04:16]
08. Sinkin' Soon (Live) [04:25]

General
Complete name : L:\_DOWNLOAD\Norah Jones - Not Too Late (2007){Deluxe Edition, 0946 3 87844 2 5}\DVD\VIDEO_TS\VTS_02_1.VOB
Format : MPEG-PS
File size : 1 024 MiB
Duration : 19 min 29 s
Overall bit rate mode : Variable
Overall bit rate : 7 344 kb/s

Video
ID : 224 (0xE0)
Format : MPEG Video
Format version : Version 2
Format profile : Main@Main
Format settings : CustomMatrix / BVOP
Format settings, BVOP : Yes
Format settings, Matrix : Custom
Format settings, GOP : M=3, N=15
Format settings, picture structure : Frame
Duration : 19 min 29 s
Bit rate mode : Variable
Bit rate : 5 662 kb/s
Maximum bit rate : 8 000 kb/s
Width : 720 pixels
Height : 480 pixels
Display aspect ratio : 4:3
Frame rate : 29.970 (30000/1001) FPS
Standard : NTSC
Color space : YUV
Chroma subsampling : 4:2:0
Bit depth : 8 bits
Scan type : Interlaced
Scan order : Top Field First
Compression mode : Lossy
Bits/(Pixel*Frame) : 0.547
Time code of first frame : 00:59:59:00
Time code source : Group of pictures header
GOP, Open/Closed : Closed
Stream size : 789 MiB (77%)

Audio
ID : 189 (0xBD)-160 (0xA0)
Format : PCM
Format settings : Big / Signed
Muxing mode : DVD-Video
Duration : 19 min 29 s
Bit rate mode : Constant
Bit rate : 1 536 kb/s
Channel(s) : 2 channels
Sampling rate : 48.0 kHz
Bit depth : 16 bits
Stream size : 214 MiB (21%)

Menu

General
Complete name : L:\_DOWNLOAD\Norah Jones - Not Too Late (2007){Deluxe Edition, 0946 3 87844 2 5}\DVD\VIDEO_TS\VTS_02_2.VOB
Format : MPEG-PS
File size : 1 024 MiB
Duration : 20 min 2 s
Overall bit rate mode : Variable
Overall bit rate : 7 143 kb/s

Video
ID : 224 (0xE0)
Format : MPEG Video
Format version : Version 2
Format profile : Main@Main
Format settings : CustomMatrix / BVOP
Format settings, BVOP : Yes
Format settings, Matrix : Custom
Format settings, GOP : M=3, N=15
Format settings, picture structure : Frame
Duration : 20 min 2 s
Bit rate mode : Variable
Bit rate : 5 465 kb/s
Maximum bit rate : 8 000 kb/s
Width : 720 pixels
Height : 480 pixels
Display aspect ratio : 4:3
Frame rate : 29.970 (30000/1001) FPS
Standard : NTSC
Color space : YUV
Chroma subsampling : 4:2:0
Bit depth : 8 bits
Scan type : Interlaced
Scan order : Top Field First
Compression mode : Lossy
Bits/(Pixel*Frame) : 0.528
Time code of first frame : 01:04:34;08
Time code source : Group of pictures header
GOP, Open/Closed : Closed
Stream size : 783 MiB (76%)

Audio
ID : 189 (0xBD)-160 (0xA0)
Format : PCM
Format settings : Big / Signed
Muxing mode : DVD-Video
Duration : 20 min 2 s
Bit rate mode : Constant
Bit rate : 1 536 kb/s
Channel(s) : 2 channels
Sampling rate : 48.0 kHz
Bit depth : 16 bits
Delay relative to video : -510 ms
Stream size : 220 MiB (22%)

Menu

General
Complete name : L:\_DOWNLOAD\Norah Jones - Not Too Late (2007){Deluxe Edition, 0946 3 87844 2 5}\DVD\VIDEO_TS\VTS_02_3.VOB
Format : MPEG-PS
File size : 33.1 MiB
Duration : 47 s 481 ms
Overall bit rate mode : Variable
Overall bit rate : 5 848 kb/s

Video
ID : 224 (0xE0)
Format : MPEG Video
Format version : Version 2
Format profile : Main@Main
Format settings : CustomMatrix / BVOP
Format settings, BVOP : Yes
Format settings, Matrix : Custom
Format settings, GOP : M=3, N=15
Format settings, picture structure : Frame
Duration : 46 s 847 ms
Bit rate mode : Variable
Bit rate : 4 196 kb/s
Maximum bit rate : 8 000 kb/s
Width : 720 pixels
Height : 480 pixels
Display aspect ratio : 4:3
Frame rate : 29.970 (30000/1001) FPS
Standard : NTSC
Color space : YUV
Chroma subsampling : 4:2:0
Bit depth : 8 bits
Scan type : Interlaced
Scan order : Top Field First
Compression mode : Lossy
Bits/(Pixel*Frame) : 0.405
Time code of first frame : 01:04:11;03
Time code source : Group of pictures header
GOP, Open/Closed : Closed
Stream size : 23.4 MiB (71%)

Audio
ID : 189 (0xBD)-160 (0xA0)
Format : PCM
Format settings : Big / Signed
Muxing mode : DVD-Video
Duration : 47 s 481 ms
Bit rate mode : Constant
Bit rate : 1 536 kb/s
Channel(s) : 2 channels
Sampling rate : 48.0 kHz
Bit depth : 16 bits
Delay relative to video : -669 ms
Stream size : 8.69 MiB (26%)

Menu

Norah Jones - Not Too Late (2007) {Deluxe Edition}

Norah Jones - Not Too Late (2007) {Deluxe Edition}

Norah Jones - Not Too Late (2007) {Deluxe Edition}

Norah Jones - Not Too Late (2007) {Deluxe Edition}

Norah Jones - Not Too Late (2007) {Deluxe Edition}

Norah Jones - Not Too Late (2007) {Deluxe Edition}


All thanks go to sergych

>>> Norah Jones in my Blog <<<

DOWNLOAD: