Norman Brown - Let It Go (2017) {Shanachie}

Posted By: tiburon
Norman Brown - Let It Go (2017) {Shanachie}

Norman Brown - Let It Go (2017) {Shanachie}
EAC 1.3 | FLAC Image level 6 | Cue+Log | Full Scans 400dpi | 371MB + 5% Recovery
Genre: Smooth Jazz, Jazz-Funk, R&B

Let It Go, Norman Brown's inspired 2017 debut album for Shanachie Records, has something for everyone, whether an R&B fan or a jazz aficionado. From "Holding You," his sensuous collaboration with R&B great Chanté Moore and Norman's re-imagining of the Five Stairsteps classic "Ooh Child" to the smoothly grooving "Remember Who You Are" and the serenely inspired "Let It Go," Let It Go is Norman Brown at his best.
Track List
01. Lessons Of The Spirit 0:41
02. It Keeps Coming Back 4:09
03. Let It Go 6:18
04. Ooh Child 5:16
05. Conversations 5:52
06. Living Out Your Destiny 4:36
07. Holding You 4:00
08. The North Star 4:52
09. Very Woman 4:42
10. Liberated 4:39
11. Remember Who You Are 5:14
12. Man In the Mirror 5:10


Exact Audio Copy V1.3 from 2. September 2016

Отчёт EAC об извлечении, выполненном 4. октября 2017, 1:26

Norman Brown / Let It Go

Дисковод: Optiarc DVD RW AD-7240S Adapter: 1 ID: 1

Режим чтения : Достоверность
Использование точного потока : Да
Отключение кэша аудио : Да
Использование указателей C2 : Нет

Коррекция смещения при чтении : 6
Способность читать области Lead-in и Lead-out : Нет
Заполнение пропущенных сэмплов тишиной : Да
Удаление блоков с тишиной в начале и конце : Нет
При вычислениях CRC использовались нулевые сэмплы : Да
Интерфейс : Встроенный Win32-интерфейс для Win NT/2000

Выходной формат : Пользовательский кодировщик
Выбранный битрейт : 768 kBit/s
Качество : Высокий
Добавление ID3-тега : Нет
Утилита сжатия : C:\Program Files (x86)\Exact Audio Copy\FLAC\FLAC.EXE
Дополнительные параметры : -6 -V -T "ARTIST=%artist%" -T "TITLE=%title%" -T "ALBUM=%albumtitle%" -T "DATE=%year%" -T "TRACKNUMBER=%tracknr%" -T "GENRE=%genre%" -T "COMMENT=%comment%" -T "BAND=%albuminterpret%" -T "ALBUMARTIST=%albuminterpret%" -T "COMPOSER=%composer%" %haslyrics%–tag-from-file=LYRICS="%lyricsfile%"%haslyrics% -T "DISCNUMBER=%cdnumber%" -T "TOTALDISCS=%totalcds%" -T "TOTALTRACKS=%numtracks%" %hascover%–picture="%coverfile%"%hascover% %source% -o %dest%


TOC извлечённого CD

Трек | Старт | Длительность | Начальный сектор | Конечный сектор
––––––––––––––––––––––––––––––––––-
1 | 0:00.00 | 0:41.53 | 0 | 3127
2 | 0:41.53 | 4:09.23 | 3128 | 21825
3 | 4:51.01 | 6:18.28 | 21826 | 50203
4 | 11:09.29 | 5:15.73 | 50204 | 73901
5 | 16:25.27 | 5:51.60 | 73902 | 100286
6 | 22:17.12 | 4:36.15 | 100287 | 121001
7 | 26:53.27 | 4:00.01 | 121002 | 139002
8 | 30:53.28 | 4:52.00 | 139003 | 160902
9 | 35:45.28 | 4:42.52 | 160903 | 182104
10 | 40:28.05 | 4:39.25 | 182105 | 203054
11 | 45:07.30 | 5:13.67 | 203055 | 226596
12 | 50:21.22 | 5:10.01 | 226597 | 249847


Характеристики диапазона извлечения и сообщения об ошибках

Выбранный диапазон

Имя файла C:\Users\PENTIUM\Desktop\Norman Brown - Let It Go 2017 55'33''\Norman Brown - Let It Go.wav

Пиковый уровень 99.4 %
Скорость извлечения 4.0 X
Качество диапазона 99.9 %
CRC теста A78DA145
CRC копии A78DA145
Копирование… OK

Ошибок не произошло

Конец отчёта

–– CUETools DB Plugin V2.1.6

[CTDB TOCID: yVvw_gvkaEy67weafBTm2zSWaVo-] found
Submit result: yVvw_gvkaEy67weafBTm2zSWaVo- has been confirmed
Track | CTDB Status
1 | (11/11) Accurately ripped
2 | (11/11) Accurately ripped
3 | (11/11) Accurately ripped
4 | (11/11) Accurately ripped
5 | (11/11) Accurately ripped
6 | (11/11) Accurately ripped
7 | (11/11) Accurately ripped
8 | (11/11) Accurately ripped
9 | (11/11) Accurately ripped
10 | (11/11) Accurately ripped
11 | (11/11) Accurately ripped
12 | (11/11) Accurately ripped


==== Контрольная сумма отчёта D0B61E743FFDF197F312BADBC6D2E8CD50604D28B90FF7434957B500A59562AD ====


––––––––––––––––––––––––––––––––––––––––
Analyzed: Norman Brown / Let It Go
––––––––––––––––––––––––––––––––––––––––

DR Peak RMS Duration Track
––––––––––––––––––––––––––––––––––––––––
DR10 -0.12 dB -12.04 dB 0:42 01-Lessons Of The Spirit
DR9 -0.12 dB -10.59 dB 4:09 02-It Keeps Coming Back
DR6 -0.12 dB -7.77 dB 6:18 03-Let It Go
DR7 -0.12 dB -8.61 dB 5:16 04-Ooh Child
DR8 -0.12 dB -9.30 dB 5:52 05-Conversations
DR9 -0.12 dB -10.48 dB 4:36 06-Living Out Your Destiny
DR8 -0.13 dB -9.42 dB 4:00 07-Holding You
DR8 -0.12 dB -9.42 dB 4:52 08-The North Star
DR9 -0.05 dB -10.49 dB 4:43 09-Very Woman
DR8 -0.12 dB -9.33 dB 4:39 10-Liberated
DR8 -0.12 dB -9.70 dB 5:14 11-Remember Who You Are
DR10 -0.12 dB -11.76 dB 5:10 12-Man In the Mirror
––––––––––––––––––––––––––––––––––––––––

Number of tracks: 12
Official DR value: DR8

Samplerate: 44100 Hz
Channels: 2
Bits per sample: 16
Bitrate: 889 kbps
Codec: FLAC
================================================================================

Norman Brown - Let It Go (2017) {Shanachie}
Norman Brown - Let It Go (2017) {Shanachie}
Norman Brown - Let It Go (2017) {Shanachie}


Thanks to the original ripper