Subcategories

Norman Connors - Take It To The Limit (1980) & Mr. C (1981) [2010, Reissue]

Posted By: BlondStyle
Norman Connors - Take It To The Limit (1980) & Mr. C (1981) [2010, Reissue]

Norman Connors - Take It To The Limit (1980) & Mr. C (1981) [2010, Reissue]
R&B, Funk/Soul, Quiet Storm, Disco | XLD Rip | FLAC, Tracks+CUE + LOG + Scans (booklet)-400dpi (JPEG) | 70:01 Min | 534,51 Mb
Label: Expansion Records (UK) / Arista (USA) | Released: 2010, July, 20

This Expansion release from 2010 combines and on one compact disc. These were two of ' star-studded Arista-era albums, built on dancefloor R&B and quiet storm, highlighted by (featuring ), (), a cover of 's (), and This is a straightforward reissue of the two albums. There are no bonus tracks.

Norman Connors - Take It To The Limit (1980) & Mr. C (1981) [2010, Reissue]


Release of those albums: "Take It To The Limit" (1980) [LP Arista, Cat.# [url="http://www.discogs.com/Norman-Connors-Take-It-To-The-Limit/release/1292308"]AL 9534, USA] / "Mr. C" (1981) [LP Arista, Cat.# [url="http://www.discogs.com/Norman-Connors-Mr-C/release/569718"]AL 9575, USA]
Release of this CD: 2010, July, 20 [CD Expansion (UK), Cat.# [url="http://www.discogs.com/Norman-Connors-Take-It-To-The-Limit-Mr-C/release/2326773"]EXP2CD 07 / UPC: 5019421600725]

Norman Connors - Drums, Percussion, Vocals
Jerry Peters - Keyboards
Onaje Allan Gumbs - Synthesizer
Bobby Lyles - Piano
Ndugu Chancler - Drums
Billy McCoy - Keyboards
Dorothy Ashby - Harp
John Barnes - Keyboards
Bill Green - Woodwind
Marlo Henderson - Guitar
Pee Wee Ford - Bass
Jones Girls - Vocals
Glenn Jones - Vocals
Leon Ware - Vocals
Jean Carne - Vocals
Marion Meadows - Saxophone
Gary Bartz - Saxophone
Freddie Hubbard - Flugelhorn
Jerry Peterson - Saxophone
David Walker - Guitar
Gary Coleman - Percussion
Sonny Burke - Keyboards
Paulinho Da Costa - Percussion


Tracklist:

"Take It To The Limit" (1980):

01. Take It To The Limit (03:56)
(Phyllis St. James)
02. Melancholy Fire (04:00)
(David DeMarco)
03. You've Been On My Mind (04:24)
(Shelby Flint)
04. I Don't Need Nobody Else (03:53)
(Lou Courtney)
05. Justify (03:51)
(David Lasley)
06. Black Cow (04:58)
(Donald Fagen, Walter Becker)
07. You Bring Me Joy (03:39)
(David Lasley)
08. Everywhere Inside Of Me (04:50)
(Leon Ware)

"Mr. C" (1981):

01. She's Gone (04:56)
(Nigel Martinez)
02. Party Town (05:04)
(Len Ron Hanks, Zane Grey, Quentin Bernard Jennings)
03. Keep Doin' It (05:25)
(Nigel Martinez)
04. Stay With Me (03:18)
(Nigel Martinez)
05. Anyway You Want (03:27)
(Sandy Torano)
06. Sing A Love Song (05:20)
(Jacques Burvick, Marion Meadows)
07. Love's In Your Corner (04:34)
(Paul Smith)
08. Mr. C (04:26)
(The Starship Orchestra)

X Lossless Decoder version 20110528 (134.0)

XLD extraction logfile from 2011-06-06 19:57:16 +0200

Norman Connors / Take It To The Limit / Mr. C

Used drive : HL-DT-ST DVDRW GA11N (revision JA18)

Ripper mode : XLD Secure Ripper
Disable audio cache : OK for the drive with a cache less than 1375KiB
Make use of C2 pointers : NO
Read offset correction : 667
Max retry count : 100
Gap status : Analyzed, Appended

TOC of the extracted CD
Track | Start | Length | Start sector | End sector
––––––––––––––––––––––––––––-
1 | 00:00:00 | 03:56:15 | 0 | 17714
2 | 03:56:15 | 04:00:37 | 17715 | 35751
3 | 07:56:52 | 04:24:25 | 35752 | 55576
4 | 12:21:02 | 03:53:43 | 55577 | 73094
5 | 16:14:45 | 03:51:27 | 73095 | 90446
6 | 20:05:72 | 04:58:10 | 90447 | 112806
7 | 25:04:07 | 03:39:25 | 112807 | 129256
8 | 28:43:32 | 04:50:63 | 129257 | 151069
9 | 33:34:20 | 04:56:47 | 151070 | 173316
10 | 38:30:67 | 05:04:05 | 173317 | 196121
11 | 43:34:72 | 05:25:10 | 196122 | 220506
12 | 49:00:07 | 03:18:53 | 220507 | 235409
13 | 52:18:60 | 03:27:57 | 235410 | 250991
14 | 55:46:42 | 05:20:25 | 250992 | 275016
15 | 61:06:67 | 04:34:03 | 275017 | 295569
16 | 65:40:70 | 04:26:57 | 295570 | 315576

AccurateRip Summary
Disc not found in AccurateRip DB.

All Tracks
Album gain : -7.95 dB
Peak : 0.999878
Statistics
Read error : 0
Jitter error (maybe fixed) : 0
Retry sector count : 0
Damaged sector count : 0

Track 01
Filename : /Volumes/FlacBack/XLD-decoded/Norman Connors - Take It To The Limit / Mr. C [1980][FLAC]/01 Norman Connors - Take It To The Limit.flac
Pre-gap length : 00:02:00

Track gain : -8.23 dB
Peak : 0.999878
CRC32 hash (test run) : C102867C
CRC32 hash : C102867C
CRC32 hash (skip zero) : F5BF1326
AccurateRip signature : BCC5356B
->Track not present in AccurateRip database.
Statistics
Read error : 0
Jitter error (maybe fixed) : 0
Retry sector count : 0
Damaged sector count : 0

Track 02
Filename : /Volumes/FlacBack/XLD-decoded/Norman Connors - Take It To The Limit / Mr. C [1980][FLAC]/02 Norman Connors - Melancholy Fire.flac
Pre-gap length : 00:01:00

Track gain : -7.01 dB
Peak : 0.999847
CRC32 hash (test run) : DFB652D1
CRC32 hash : DFB652D1
CRC32 hash (skip zero) : 03D008FF
AccurateRip signature : 3FD5290E
->Track not present in AccurateRip database.
Statistics
Read error : 0
Jitter error (maybe fixed) : 0
Retry sector count : 0
Damaged sector count : 0

Track 03
Filename : /Volumes/FlacBack/XLD-decoded/Norman Connors - Take It To The Limit / Mr. C [1980][FLAC]/03 Norman Connors - You've Been On My Mind.flac
Pre-gap length : 00:01:00

Track gain : -6.40 dB
Peak : 0.991730
CRC32 hash (test run) : 21E27AEE
CRC32 hash : 21E27AEE
CRC32 hash (skip zero) : 21B6D92E
AccurateRip signature : 1E2AB574
->Track not present in AccurateRip database.
Statistics
Read error : 0
Jitter error (maybe fixed) : 0
Retry sector count : 0
Damaged sector count : 0

Track 04
Filename : /Volumes/FlacBack/XLD-decoded/Norman Connors - Take It To The Limit / Mr. C [1980][FLAC]/04 Norman Connors - I Don't Need Nobody Else.flac
Pre-gap length : 00:01:00

Track gain : -7.33 dB
Peak : 0.993652
CRC32 hash (test run) : 227C8B41
CRC32 hash : 227C8B41
CRC32 hash (skip zero) : 8734C57F
AccurateRip signature : 806A41B7
->Track not present in AccurateRip database.
Statistics
Read error : 0
Jitter error (maybe fixed) : 0
Retry sector count : 0
Damaged sector count : 0

Track 05
Filename : /Volumes/FlacBack/XLD-decoded/Norman Connors - Take It To The Limit / Mr. C [1980][FLAC]/05 Norman Connors - Justify.flac
Pre-gap length : 00:01:00

Track gain : -8.56 dB
Peak : 0.998627
CRC32 hash (test run) : 52F032A5
CRC32 hash : 52F032A5
CRC32 hash (skip zero) : 464313EA
AccurateRip signature : 05C71ECA
->Track not present in AccurateRip database.
Statistics
Read error : 0
Jitter error (maybe fixed) : 0
Retry sector count : 0
Damaged sector count : 0

Track 06
Filename : /Volumes/FlacBack/XLD-decoded/Norman Connors - Take It To The Limit / Mr. C [1980][FLAC]/06 Norman Connors - Black Cow.flac
Pre-gap length : 00:01:00

Track gain : -6.54 dB
Peak : 0.999878
CRC32 hash (test run) : 1D12382A
CRC32 hash : 1D12382A
CRC32 hash (skip zero) : 4EF019B9
AccurateRip signature : 77E0ED32
->Track not present in AccurateRip database.
Statistics
Read error : 0
Jitter error (maybe fixed) : 0
Retry sector count : 0
Damaged sector count : 0

Track 07
Filename : /Volumes/FlacBack/XLD-decoded/Norman Connors - Take It To The Limit / Mr. C [1980][FLAC]/07 Norman Connors - You Bring Me Joy.flac
Pre-gap length : 00:01:00

Track gain : -6.91 dB
Peak : 0.999878
CRC32 hash (test run) : F8060481
CRC32 hash : F8060481
CRC32 hash (skip zero) : 6B9FCF07
AccurateRip signature : 2B17EB55
->Track not present in AccurateRip database.
Statistics
Read error : 0
Jitter error (maybe fixed) : 0
Retry sector count : 0
Damaged sector count : 0

Track 08
Filename : /Volumes/FlacBack/XLD-decoded/Norman Connors - Take It To The Limit / Mr. C [1980][FLAC]/08 Norman Connors - Everywhere Inside Of Me.flac
Pre-gap length : 00:01:00

Track gain : -5.95 dB
Peak : 0.994995
CRC32 hash (test run) : 19AE55D0
CRC32 hash : 19AE55D0
CRC32 hash (skip zero) : CA76BD9D
AccurateRip signature : FCA8E4D0
->Track not present in AccurateRip database.
Statistics
Read error : 0
Jitter error (maybe fixed) : 0
Retry sector count : 0
Damaged sector count : 0

Track 09
Filename : /Volumes/FlacBack/XLD-decoded/Norman Connors - Take It To The Limit / Mr. C [1981][FLAC]/09 Norman Connors - She's Gone.flac
Pre-gap length : 00:01:00

Track gain : -7.90 dB
Peak : 0.999878
CRC32 hash (test run) : 538D96EE
CRC32 hash : 538D96EE
CRC32 hash (skip zero) : 082A8E6A
AccurateRip signature : 5B9AD8DD
->Track not present in AccurateRip database.
Statistics
Read error : 0
Jitter error (maybe fixed) : 0
Retry sector count : 0
Damaged sector count : 0

Track 10
Filename : /Volumes/FlacBack/XLD-decoded/Norman Connors - Take It To The Limit / Mr. C [1981][FLAC]/10 Norman Connors - Party Town.flac
Pre-gap length : 00:01:00

Track gain : -9.18 dB
Peak : 0.999786
CRC32 hash (test run) : 21A54596
CRC32 hash : 21A54596
CRC32 hash (skip zero) : 062C34CB
AccurateRip signature : 620B2E66
->Track not present in AccurateRip database.
Statistics
Read error : 0
Jitter error (maybe fixed) : 0
Retry sector count : 0
Damaged sector count : 0

Track 11
Filename : /Volumes/FlacBack/XLD-decoded/Norman Connors - Take It To The Limit / Mr. C [1981][FLAC]/11 Norman Connors - Keep Doin' It.flac
Pre-gap length : 00:01:00

Track gain : -8.28 dB
Peak : 0.999817
CRC32 hash (test run) : FD03F083
CRC32 hash : FD03F083
CRC32 hash (skip zero) : CE23012D
AccurateRip signature : CA15DBAB
->Track not present in AccurateRip database.
Statistics
Read error : 0
Jitter error (maybe fixed) : 0
Retry sector count : 0
Damaged sector count : 0

Track 12
Filename : /Volumes/FlacBack/XLD-decoded/Norman Connors - Take It To The Limit / Mr. C [1981][FLAC]/12 Norman Connors - Stay With Me.flac
Pre-gap length : 00:01:00

Track gain : -8.00 dB
Peak : 0.994049
CRC32 hash (test run) : 56DD47D3
CRC32 hash : 56DD47D3
CRC32 hash (skip zero) : 8228D50E
AccurateRip signature : 513D08C4
->Track not present in AccurateRip database.
Statistics
Read error : 0
Jitter error (maybe fixed) : 0
Retry sector count : 0
Damaged sector count : 0

Track 13
Filename : /Volumes/FlacBack/XLD-decoded/Norman Connors - Take It To The Limit / Mr. C [1981][FLAC]/13 Norman Connors - Anyway You Want.flac
Pre-gap length : 00:01:00

Track gain : -8.54 dB
Peak : 0.998901
CRC32 hash (test run) : 56193E49
CRC32 hash : 56193E49
CRC32 hash (skip zero) : AB9385CE
AccurateRip signature : 9BAB0AED
->Track not present in AccurateRip database.
Statistics
Read error : 0
Jitter error (maybe fixed) : 0
Retry sector count : 0
Damaged sector count : 0

Track 14
Filename : /Volumes/FlacBack/XLD-decoded/Norman Connors - Take It To The Limit / Mr. C [1981][FLAC]/14 Norman Connors - Sing A Love Song.flac
Pre-gap length : 00:01:00

Track gain : -8.51 dB
Peak : 0.994720
CRC32 hash (test run) : 766FE839
CRC32 hash : 766FE839
CRC32 hash (skip zero) : 94080112
AccurateRip signature : D9CDE188
->Track not present in AccurateRip database.
Statistics
Read error : 0
Jitter error (maybe fixed) : 0
Retry sector count : 0
Damaged sector count : 0

Track 15
Filename : /Volumes/FlacBack/XLD-decoded/Norman Connors - Take It To The Limit / Mr. C [1981][FLAC]/15 Norman Connors - Love's In Your Corner.flac
Pre-gap length : 00:01:00

Track gain : -7.94 dB
Peak : 0.996948
CRC32 hash (test run) : 067D56CB
CRC32 hash : 067D56CB
CRC32 hash (skip zero) : 3C62A61B
AccurateRip signature : 7D08177F
->Track not present in AccurateRip database.
Statistics
Read error : 0
Jitter error (maybe fixed) : 0
Retry sector count : 0
Damaged sector count : 0

Track 16
Filename : /Volumes/FlacBack/XLD-decoded/Norman Connors - Take It To The Limit / Mr. C [1981][FLAC]/16 Norman Connors - Mr. C..flac
Pre-gap length : 00:01:00

Track gain : -7.21 dB
Peak : 0.999878
CRC32 hash (test run) : 5E757399
CRC32 hash : 5E757399
CRC32 hash (skip zero) : 86100D13
AccurateRip signature : BDBA57E8
->Track not present in AccurateRip database.
Statistics
Read error : 0
Jitter error (maybe fixed) : 0
Retry sector count : 0
Damaged sector count : 0

No errors occurred

End of status report

foobar2000 1.3.7 / Dynamic Range Meter 1.1.1
log date: 2015-03-18 19:19:03

––––––––––––––––––––––––––––––––––––––––
Analyzed: Norman Connors / Take It To The Limit / Mr. C
––––––––––––––––––––––––––––––––––––––––

DR Peak RMS Duration Track
––––––––––––––––––––––––––––––––––––––––
DR8 0.00 dB -10.09 dB 3:56 01-Take It To The Limit
DR9 0.00 dB -11.17 dB 4:00 02-Melancholy Fire
DR10 -0.07 dB -12.55 dB 4:24 03-You've Been On My Mind
DR9 -0.06 dB -10.32 dB 3:54 04-I Don't Need Nobody Else
DR8 -0.01 dB -10.72 dB 3:51 05-Justify
DR10 0.00 dB -12.85 dB 4:58 06-Black Cow
DR10 0.00 dB -12.88 dB 3:39 07-You Bring Me Joy
DR10 -0.04 dB -12.69 dB 4:51 08-Everywhere Inside Of Me
DR8 0.00 dB -10.76 dB 4:57 09-She's Gone
DR8 0.00 dB -9.79 dB 5:04 10-Party Town
DR8 0.00 dB -10.63 dB 5:25 11-Keep Doin' It
DR9 -0.05 dB -11.39 dB 3:19 12-Stay With Me
DR9 -0.01 dB -10.55 dB 3:28 13-Anyway You Want
DR8 -0.05 dB -10.26 dB 5:20 14-Sing A Love Song
DR9 -0.03 dB -11.33 dB 4:34 15-Love's In Your Corner
DR10 0.00 dB -10.74 dB 4:27 16-Mr. C.
––––––––––––––––––––––––––––––––––––––––

Number of tracks: 16
Official DR value: DR9

Samplerate: 44100 Hz
Channels: 2
Bits per sample: 16
Bitrate: 949 kbps
Codec: FLAC
================================================================================


All thanks to Zapp4Miles
Nitroflare

password: BlondStyle

Uploadable