Noveller - A Pink Sunset for No One (2017)

Posted By: Pisulik
Noveller - A Pink Sunset for No One (2017)

Noveller - A Pink Sunset for No One (2017)
EAC Rip | FLAC (Tracks) +cue, log - 202 MB | 00:38:39
Guitar, Experimental, Ambient, Instrumental | Label: Fire Records

One of the most adept guitarists of our time, Lipstate returns with her signature breathtaking cinematic, experimental soundscapes. Eloquent and striking, her instrumentals evoke colourful and otherworldly imagery. Lipstate writes in majestic, emotional strokes with pieces ranging from remarkably tense environments to shimmering psychedelic rock or unravelling into something darker.

TRACKLIST

01. Deep Shelter
02. Rituals
03. A Pink Sunset For No One
04. Lone Victory Tonight
05. Trails and Trials
06. Another Dark Hour
07. Corridors
08. The Unveiling
09. Emergence

Exact Audio Copy V1.3 from 2. September 2016

EAC extraction logfile from 24. July 2017, 20:26

Noveller / A Pink Sunset For No One

Used drive : PLEXTOR DVDR PX-716A Adapter: 1 ID: 0

Read mode : Secure
Utilize accurate stream : Yes
Defeat audio cache : Yes
Make use of C2 pointers : No

Read offset correction : 30
Overread into Lead-In and Lead-Out : Yes
Fill up missing offset samples with silence : Yes
Delete leading and trailing silent blocks : No
Null samples used in CRC calculations : Yes
Used interface : Native Win32 interface for Win NT & 2000
Gap handling : Appended to previous track

Used output format : User Defined Encoder
Selected bitrate : 128 kBit/s
Quality : High
Add ID3 tag : No
Command line compressor : C:\Program Files (x86)\Exact Audio Copy\Flac\flac.exe
Additional command line options : -8 -V -T "ARTIST=%artist%" -T "TITLE=%title%" -T "ALBUM=%albumtitle%" -T "DATE=%year%" -T "TRACKNUMBER=%tracknr%" -T "GENRE=%genre%" -T "PERFORMER=%albuminterpret%" -T "COMPOSER=%composer%" %haslyrics%–tag-from-file=LYRICS="%lyricsfile%"%haslyrics% -T "ALBUMARTIST=%albumartist%" -T "DISCNUMBER=%cdnumber%" -T "TOTALDISCS=%totalcds%" -T "TOTALTRACKS=%numtracks%" -T "COMMENT=%comment%" %source% -o %dest%


TOC of the extracted CD

Track | Start | Length | Start sector | End sector
––––––––––––––––––––––––––––-
1 | 0:00.00 | 5:33.19 | 0 | 24993
2 | 5:33.19 | 5:11.61 | 24994 | 48379
3 | 10:45.05 | 4:17.66 | 48380 | 67720
4 | 15:02.71 | 5:20.00 | 67721 | 91720
5 | 20:22.71 | 4:23.33 | 91721 | 111478
6 | 24:46.29 | 3:27.25 | 111479 | 127028
7 | 28:13.54 | 2:55.28 | 127029 | 140181
8 | 31:09.07 | 4:11.12 | 140182 | 159018
9 | 35:20.19 | 3:22.00 | 159019 | 174168


Track 1

Filename E:\EACRips\01 Deep Shelter.wav

Pre-gap length 0:00:02.00

Peak level 100.0 %
Extraction speed 8.6 X
Track quality 100.0 %
Test CRC 3ACBD0ED
Copy CRC 3ACBD0ED
Accurately ripped (confidence 5) [C4C8A5FC] (AR v2)
Copy OK

Track 2

Filename E:\EACRips\02 Rituals.wav

Peak level 96.3 %
Extraction speed 9.8 X
Track quality 100.0 %
Test CRC D61BDE3C
Copy CRC D61BDE3C
Accurately ripped (confidence 5) [0D638288] (AR v2)
Copy OK

Track 3

Filename E:\EACRips\03 A Pink Sunset For No One.wav

Peak level 100.0 %
Extraction speed 10.7 X
Track quality 100.0 %
Test CRC 2E844823
Copy CRC 2E844823
Accurately ripped (confidence 5) [92A00E7F] (AR v2)
Copy OK

Track 4

Filename E:\EACRips\04 Lone Victory Tonight.wav

Peak level 100.0 %
Extraction speed 10.5 X
Track quality 99.9 %
Test CRC B576BE36
Copy CRC B576BE36
Accurately ripped (confidence 5) [AF24735C] (AR v2)
Copy OK

Track 5

Filename E:\EACRips\05 Trails And Trials.wav

Peak level 99.9 %
Extraction speed 12.3 X
Track quality 100.0 %
Test CRC B75BB7B4
Copy CRC B75BB7B4
Accurately ripped (confidence 5) [A56164B8] (AR v2)
Copy OK

Track 6

Filename E:\EACRips\06 Another Dark Hour.wav

Peak level 96.2 %
Extraction speed 12.8 X
Track quality 100.0 %
Test CRC 24550D28
Copy CRC 24550D28
Accurately ripped (confidence 5) [6C429583] (AR v2)
Copy OK

Track 7

Filename E:\EACRips\07 Corridors.wav

Peak level 96.2 %
Extraction speed 13.2 X
Track quality 100.0 %
Test CRC 928AFC86
Copy CRC 928AFC86
Accurately ripped (confidence 5) [566E3086] (AR v2)
Copy OK

Track 8

Filename E:\EACRips\08 The Unveiling.wav

Peak level 100.0 %
Extraction speed 13.9 X
Track quality 100.0 %
Test CRC BCC86BC6
Copy CRC BCC86BC6
Accurately ripped (confidence 5) [796E76F5] (AR v2)
Copy OK

Track 9

Filename E:\EACRips\09 Emergence.wav

Peak level 100.0 %
Extraction speed 14.9 X
Track quality 100.0 %
Test CRC C2F709CF
Copy CRC C2F709CF
Accurately ripped (confidence 5) [A839A0A0] (AR v2)
Copy OK


All tracks accurately ripped

No errors occurred

End of status report

–– CUETools DB Plugin V2.1.6

[CTDB TOCID: UC5jQAP4ffoH3pWw0rOBwzo5vbw-] found
Submit result: UC5jQAP4ffoH3pWw0rOBwzo5vbw- has been confirmed
Track | CTDB Status
1 | (6/6) Accurately ripped
2 | (6/6) Accurately ripped
3 | (6/6) Accurately ripped
4 | (6/6) Accurately ripped
5 | (6/6) Accurately ripped
6 | (6/6) Accurately ripped
7 | (6/6) Accurately ripped
8 | (6/6) Accurately ripped
9 | (6/6) Accurately ripped


==== Log checksum 898736D71C0E905921D53C33245AAE8D35ACA05760336B24EFDDF04CAE9B6292 ====


All thanks go to the original releaser