Tags
Language
Tags

Nusrat Fateh Ali Khan - Reverence: Traditional Sufi Qawwalis (2008) 4 CD Box Set [Re-Up]

Posted By: Designol
Nusrat Fateh Ali Khan - Reverence: Traditional Sufi Qawwalis (2008) 4 CD Box Set [Re-Up]

Nusrat Fateh Ali Khan - Reverence (2008) 4 CD Box Set
EAC | FLAC | Tracks (Cue&Log) ~ 1.14 Gb | Mp3 (CBR320) ~ 595 Mb | Scans ~ 282 Mb
Label: Sony/Navras | # 88697 44795 2 | Time: 04:12:22
Qawwali, World Fusion, Indian Subcontinent Classical

2008 Remastered 4 CD Set Traditional Sufi Qawwalis by Nusrat Fateh Ali Khan, Live At The Kufa Gallery, London, Dec 1989.

Without doubt the most important qawwal is Nusrat Fateh Ali Khan & Party – "Party" is a generic term for a qawwali ensemble but is also used in Sikhism and to describe some classical music ensembles, for example, shehnai maestro Bismillah Khan & Party. Dubbed Shahen-Shah-e-Qawwali (the Brightest Star in Qawwali), he was born on October 13, 1948, in Lyallpur in the Punjab Province of Pakistan. He made his first recording in 1973 in Pakistan and a number of early EMI (Pakistan) albums jointly billed him with his uncle Mubarak Ali Khan. Since these mainly cassette albums were invariably undated and numerous, it is difficult to place them in any more accurate chronological sequence than catalog-number order. Between 1973 and 1993 his recorded output could only be described as prodigious, with more than 50 album releases to his name on numerous Pakistani, British, American, European and Japanese labels. Heavily over-recorded, blighted with a rash of poppy remix albums or albums with Westernized instrumentation or arrangements, his recorded work is a mire to suck in the uninitiated and their money. Converts, however, do not escape scot-free. Although some releases hint at their nature with coded titles such as Volume 4 Punjabi (Oriental Star CD SR013) from 1990 or Ghazals Urdu (Oriental Star CD SR055) from 1992, the chosen language and style is frequently a matter of conjecture or uncertainty. While the Western market is saturated with his work, the Indian market is supersaturated, and his recorded output is in danger of overwhelming any sense of taste.

Real World was the label largely responsible for Khan's breakthrough into a non-Indian audience. It was their marketing skills and the platform provided by the WOMAD organization which introduced him to Westerners. Mustt Mustt (Real World CD RW 15) released in 1990 was a deliberate attempt to target the white market with its non-traditional arrangements, yet it seems positively cherubic beside later abominations. "All these albums are experiments," he told me in 1993. "There are some people who do not understand at all but just like my voice. I add new lyrics and modern instruments to attract the audience. This has been very successful." Success, however, bred indifference to the virtues and values of the original music. Many find the remix albums, the Western and youth-market releases, a source of despair: buyer beware remains the watchword. When singing his traditional work he remains peerless. Many fans regret the dilution of his talent that has occurred with his "experiments." However, in 1994, reportedly tired of unauthorized releases, he took greater control of both his business affairs and his concert and recording activities. With his international renown at an all-time peak, Khan died on August 16, 1997; a seemingly endless procession of posthumous releases appeared in the years to follow.

Ken Hunt, Allmusic.com

Nusrat Fateh Ali Khan - Reverence: Traditional Sufi Qawwalis (2008) 4 CD Box Set [Re-Up]



Nusrat Fateh Ali Khan - Reverence: Traditional Sufi Qawwalis (2008) 4 CD Box Set [Re-Up]


Tracklist:

CD1:

1. An Overture To Raga Bahar - Hazarat Khwaja Sangh Kheliye Dhamar (25:05)
2. Hamd In Raga Mishra-Khamaj - Allah Hoo Allah Hoo Allah Hoo (27:57)
3. Naat I Sharif - Farsuda Janpara Zeh Hijra, Yaar Rassol Alah (19:00)

CD2:

1. Manqabat in Raga Bhairavi - Maula Ali Maula Ali (26:56)
2. Ghazal in Raga Kedar - Kahbren Rasid Im Shabd Ke Nigar Khahi Amad (19:33)
3. Song in Raga Bilawal - Main Jagi Piya Ke Sangh (13:22)
4. Qaul / Qalbana In Raga Bhopali & Yaman Kalyan (9:45)

CD3:

1. Classical Qawwali in Raga Gawoti - Araj Soonli Jho, Khwaja Mori Araj Soonli Jo (9:11)
2. Qawwali in Farsi By Hasrat Amir Khusrau In Raga Khamaj - Nami Danam Chi Manzil Bud Shah Jai Ki Man Budam (7:31)
3. Traditional Qawwali By Hasrat Amir Khusrau In Raga Mishra Kafi - Kirpa Karo Maharaj, Mohinuddin Khwaja (13:50)
4. Modern Qawwali By Allama Iqbal In Raga Bilawal - Shikwa Jawab Shikhwa (20:39)

CD4:

1. Traditional Qawwali In Ragas Marwa & Bhatiyar - Allah Mohammed, Char Yaar, Haji Khwaja Qutb Farid (15:19)
2. Traditional Qawwali (Punjabi) By Baba Buleh Shah In Ragas Tilang & Khamaj - Teri Main Ishq Ne Nachaya, Wai Kadi Thaya Wai (26:04)
3. Traditional Qawwali In Hindi By Hazrat Amir Khusrau In Raga Khamaj - Rang - Aj Rang Hai Hai Maa Rang Hai Morey Mehboob ke Ghar Rang Hai (18:04)


Exact Audio Copy V1.0 beta 1 from 15. November 2010

EAC extraction logfile from 4. April 2011, 19:16

Nusrat Fateh Ali Khan / Reverence - CD 1

Used drive : PLEXTOR CD-R PX-W4012A Adapter: 0 ID: 1

Read mode : Secure
Utilize accurate stream : Yes
Defeat audio cache : Yes
Make use of C2 pointers : No

Read offset correction : 98
Overread into Lead-In and Lead-Out : No
Fill up missing offset samples with silence : Yes
Delete leading and trailing silent blocks : No
Null samples used in CRC calculations : Yes
Used interface : Installed external ASPI interface
Gap handling : Appended to previous track

Used output format : Internal WAV Routines
Sample format : 44.100 Hz; 16 Bit; Stereo


TOC of the extracted CD

Track | Start | Length | Start sector | End sector
––––––––––––––––––––––––––––-
1 | 0:00.00 | 25:05.52 | 0 | 112926
2 | 25:05.52 | 27:57.28 | 112927 | 238729
3 | 53:03.05 | 19:00.70 | 238730 | 324299


Track 1

Filename I:\Wildstrings\01 - An Overture To Raga Bahar - Hazarat Khwaja Sangh…wav

Pre-gap length 0:00:02.00

Peak level 79.4 %
Extraction speed 1.2 X
Track quality 100.0 %
Test CRC 914299FE
Copy CRC 914299FE
Accurately ripped (confidence 2) [E8A2162D]
Copy OK

Track 2

Filename I:\Wildstrings\02 - Hamd In Raga Mishra-Khamaj - Allah Hoo Allah Hoo Allah Hoo.wav

Pre-gap length 0:00:03.17

Peak level 79.4 %
Extraction speed 1.2 X
Track quality 100.0 %
Test CRC DA77A995
Copy CRC DA77A995
Accurately ripped (confidence 2) [22B3651B]
Copy OK

Track 3

Filename I:\Wildstrings\03 - Naat I Sharif - Farsuda Janpara Zeh Hijra, Yaar Rassol Alah.wav

Pre-gap length 0:00:03.63

Peak level 59.0 %
Extraction speed 1.2 X
Track quality 100.0 %
Test CRC 15744AA6
Copy CRC 15744AA6
Track not present in AccurateRip database
Copy OK


2 track(s) accurately ripped
1 track(s) not present in the AccurateRip database

Some tracks could not be verified as accurate

No errors occurred

End of status report

==== Log checksum 0560EBDC09B3283F2C91BC37A424C2A2AE1C1822D23E6D02038A079583E0BA25 ====

foobar2000 1.2 / Dynamic Range Meter 1.1.1
log date: 2015-04-22 21:38:19

––––––––––––––––––––––––––––––––––––––––
Analyzed: Nusrat Fateh Ali Khan / Reverence: Traditional Sufi Qawwalis Live At The Kufa Gallery, London, Dec 1989 - CD 1
––––––––––––––––––––––––––––––––––––––––

DR Peak RMS Duration Track
––––––––––––––––––––––––––––––––––––––––
DR17 -2.00 dB -23.46 dB 25:06 01-An Overture To Raga Bahar - Hazarat Khwaja Sangh Kheliye Dhamar
DR14 -2.00 dB -23.01 dB 27:57 02-Hamd In Raga Mishra-Khamaj - Allah Hoo Allah Hoo Allah Hoo
DR15 -4.58 dB -23.82 dB 19:01 03-Naat I Sharif - Farsuda Janpara Zeh Hijra, Yaar Rassol Alah
––––––––––––––––––––––––––––––––––––––––

Number of tracks: 3
Official DR value: DR16

Samplerate: 44100 Hz
Channels: 2
Bits per sample: 16
Bitrate: 604 kbps
Codec: FLAC
================================================================================


Exact Audio Copy V1.0 beta 1 from 15. November 2010

EAC extraction logfile from 4. April 2011, 20:29

Nusrat Fateh Ali Khan / Reverence - CD 2

Used drive : SONY DVD RW DRU-880S Adapter: 2 ID: 1

Read mode : Secure
Utilize accurate stream : Yes
Defeat audio cache : Yes
Make use of C2 pointers : No

Read offset correction : 48
Overread into Lead-In and Lead-Out : No
Fill up missing offset samples with silence : Yes
Delete leading and trailing silent blocks : No
Null samples used in CRC calculations : Yes
Used interface : Installed external ASPI interface
Gap handling : Appended to previous track

Used output format : Internal WAV Routines
Sample format : 44.100 Hz; 16 Bit; Stereo


TOC of the extracted CD

Track | Start | Length | Start sector | End sector
––––––––––––––––––––––––––––-
1 | 0:00.32 | 26:56.08 | 32 | 121239
2 | 26:56.40 | 19:33.15 | 121240 | 209229
3 | 46:29.55 | 13:22.67 | 209230 | 269446
4 | 59:52.47 | 9:45.15 | 269447 | 313336


Track 1

Filename I:\Wildstrings\01 - Manqabat in Raga Bhairavi - Maula Ali Maula Ali.wav

Pre-gap length 0:00:02.32

Peak level 100.0 %
Extraction speed 3.6 X
Track quality 100.0 %
Test CRC DD3AFDAA
Copy CRC DD3AFDAA
Accurately ripped (confidence 2) [A8F2D700]
Copy OK

Track 2

Filename I:\Wildstrings\02 - Ghazal in Raga Kedar - Kahbren Rasid Im Shabd Ke Nigar…wav

Pre-gap length 0:00:03.00

Peak level 100.0 %
Extraction speed 4.8 X
Track quality 100.0 %
Test CRC 33FC35DF
Copy CRC 33FC35DF
Accurately ripped (confidence 2) [69F53C47]
Copy OK

Track 3

Filename I:\Wildstrings\03 - Song in Raga Bilawal - Main Jagi Piya Ke Sangh.wav

Pre-gap length 0:00:03.20

Peak level 98.7 %
Extraction speed 5.2 X
Track quality 99.9 %
Test CRC 5FBB6812
Copy CRC 5FBB6812
Cannot be verified as accurate (confidence 2) [A68B758D], AccurateRip returned [3D355D0A]
Copy OK

Track 4

Filename I:\Wildstrings\04 - Qaul-Qalbana In Raga Bhopali & Yaman Kalyan.wav

Pre-gap length 0:00:01.35

Peak level 86.4 %
Extraction speed 5.7 X
Track quality 100.0 %
Test CRC 9ADA8152
Copy CRC 9ADA8152
Accurately ripped (confidence 2) [A5A842FB]
Copy OK


3 track(s) accurately ripped
1 track(s) could not be verified as accurate

Some tracks could not be verified as accurate

No errors occurred

End of status report

==== Log checksum 114028522BAF091074E07E3B2183044D1D54F09DE43C3CC68D7F66A11E6FF8C3 ====

foobar2000 1.2 / Dynamic Range Meter 1.1.1
log date: 2015-04-22 21:38:46

––––––––––––––––––––––––––––––––––––––––
Analyzed: Nusrat Fateh Ali Khan / Reverence: Traditional Sufi Qawwalis Live At The Kufa Gallery, London, Dec 1989 - CD 2
––––––––––––––––––––––––––––––––––––––––

DR Peak RMS Duration Track
––––––––––––––––––––––––––––––––––––––––
DR16 0.00 dB -20.08 dB 26:56 01-Manqabat in Raga Bhairavi - Maula Ali Maula Ali
DR14 0.00 dB -18.23 dB 19:33 02-Ghazal in Raga Kedar - Kahbren Rasid Im Shabd Ke Nigar Khahi Amad
DR16 -0.11 dB -19.58 dB 13:23 03-Song in Raga Bilawal - Main Jagi Piya Ke Sangh
DR15 -1.26 dB -21.00 dB 9:45 04-Qaul / Qalbana In Raga Bhopali & Yaman Kalyan
––––––––––––––––––––––––––––––––––––––––

Number of tracks: 4
Official DR value: DR15

Samplerate: 44100 Hz
Channels: 2
Bits per sample: 16
Bitrate: 630 kbps
Codec: FLAC
================================================================================


Exact Audio Copy V1.0 beta 1 from 15. November 2010

EAC extraction logfile from 4. April 2011, 20:49

Nusrat Fateh Ali Khan / Reverence - CD 3

Used drive : PLEXTOR CD-R PX-W4012A Adapter: 0 ID: 1

Read mode : Secure
Utilize accurate stream : Yes
Defeat audio cache : Yes
Make use of C2 pointers : No

Read offset correction : 98
Overread into Lead-In and Lead-Out : No
Fill up missing offset samples with silence : Yes
Delete leading and trailing silent blocks : No
Null samples used in CRC calculations : Yes
Used interface : Installed external ASPI interface
Gap handling : Appended to previous track

Used output format : Internal WAV Routines
Sample format : 44.100 Hz; 16 Bit; Stereo


TOC of the extracted CD

Track | Start | Length | Start sector | End sector
––––––––––––––––––––––––––––-
1 | 0:00.00 | 9:11.64 | 0 | 41388
2 | 9:11.64 | 7:31.01 | 41389 | 75214
3 | 16:42.65 | 13:50.00 | 75215 | 137464
4 | 30:32.65 | 20:39.49 | 137465 | 230438


Track 1

Filename I:\Wildstrings\01 - Classical Qawwali in Raga Gawoti - Araj Soonli Jho.wav

Pre-gap length 0:00:02.00

Peak level 100.0 %
Extraction speed 5.1 X
Track quality 99.9 %
Test CRC CD61E79D
Copy CRC CD61E79D
Track not present in AccurateRip database
Copy OK

Track 2

Filename I:\Wildstrings\02 - Qawwali in Farsi By Hasrat Amir Khusrau In Raga Khamaj - Nami Danam.wav

Peak level 100.0 %
Extraction speed 6.3 X
Track quality 100.0 %
Test CRC 51ECAD19
Copy CRC 51ECAD19
Track not present in AccurateRip database
Copy OK

Track 3

Filename I:\Wildstrings\03 - Traditional Qawwali By Hasrat Amir Khusrau In Raga Mishra Kafi - Kirpa Karo.wav

Peak level 100.0 %
Extraction speed 7.5 X
Track quality 100.0 %
Test CRC 6A761E84
Copy CRC 6A761E84
Track not present in AccurateRip database
Copy OK

Track 4

Filename I:\Wildstrings\04 - Modern QawwaliBy Allama Iqbal In Raga Bilawal - Shikwa Jawab Shikhwa.wav

Peak level 100.0 %
Extraction speed 8.9 X
Track quality 100.0 %
Test CRC D3986CC0
Copy CRC D3986CC0
Track not present in AccurateRip database
Copy OK


None of the tracks are present in the AccurateRip database

No errors occurred

End of status report

==== Log checksum 3266088DC2E99D970CFEFD76F5AF43FAC59D2E0E5A6E4A61ACFDED739528C000 ====

foobar2000 1.2 / Dynamic Range Meter 1.1.1
log date: 2015-04-22 21:39:02

––––––––––––––––––––––––––––––––––––––––
Analyzed: Nusrat Fateh Ali Khan / Reverence: Traditional Sufi Qawwalis Live At The Kufa Gallery, London, Dec 1989 - CD 3
––––––––––––––––––––––––––––––––––––––––

DR Peak RMS Duration Track
––––––––––––––––––––––––––––––––––––––––
DR12 0.00 dB -16.10 dB 9:12 01-Classical Qawwali in Raga Gawoti - Araj Soonli Jho, Khwaja Mori Araj Soonli Jo
DR11 0.00 dB -14.60 dB 7:31 02-Qawwali in Farsi By Hasrat Amir Khusrau In Raga Khamaj - Nami Danam Chi Manzil Bud Shah Jai Ki Man Budam
DR11 0.00 dB -14.80 dB 13:50 03-Traditional Qawwali By Hasrat Amir Khusrau In Raga Mishra Kafi - Kirpa Karo Maharaj, Mohinuddin Khwaja
DR10 0.00 dB -13.65 dB 20:40 04-Modern Qawwali By Allama Iqbal In Raga Bilawal - Shikwa Jawab Shikhwa
––––––––––––––––––––––––––––––––––––––––

Number of tracks: 4
Official DR value: DR11

Samplerate: 44100 Hz
Channels: 2
Bits per sample: 16
Bitrate: 761 kbps
Codec: FLAC
================================================================================


Exact Audio Copy V1.0 beta 1 from 15. November 2010

EAC extraction logfile from 4. April 2011, 21:15

Nusrat Fateh Ali Khan / Reverence - CD 4

Used drive : PLEXTOR CD-R PX-W4012A Adapter: 0 ID: 1

Read mode : Secure
Utilize accurate stream : Yes
Defeat audio cache : Yes
Make use of C2 pointers : No

Read offset correction : 98
Overread into Lead-In and Lead-Out : No
Fill up missing offset samples with silence : Yes
Delete leading and trailing silent blocks : No
Null samples used in CRC calculations : Yes
Used interface : Installed external ASPI interface
Gap handling : Appended to previous track

Used output format : Internal WAV Routines
Sample format : 44.100 Hz; 16 Bit; Stereo


TOC of the extracted CD

Track | Start | Length | Start sector | End sector
––––––––––––––––––––––––––––-
1 | 0:00.32 | 15:19.10 | 32 | 68966
2 | 15:19.42 | 26:04.03 | 68967 | 186269
3 | 41:23.45 | 18:04.72 | 186270 | 267641


Track 1

Filename I:\Wildstrings\01 - Qawwali In Ragas Marwa & Bhatiyar - Allah Mohammed…wav

Pre-gap length 0:00:02.32

Peak level 81.9 %
Extraction speed 5.9 X
Track quality 99.9 %
Test CRC A977AD95
Copy CRC A977AD95
Accurately ripped (confidence 2) [7AF2066C]
Copy OK

Track 2

Filename I:\Wildstrings\02 - Qawwali By Baba Buleh Shah In Ragas Tilang & Khamaj - Teri Main Ishq…wav

Pre-gap length 0:00:04.50

Peak level 100.0 %
Extraction speed 8.7 X
Track quality 100.0 %
Test CRC 37595804
Copy CRC 37595804
Accurately ripped (confidence 2) [6964218E]
Copy OK

Track 3

Filename I:\Wildstrings\03 - Qawwali In Hindi By Hazrat Amir Khusrau In Raga Khamaj - Aj Rang Hai…wav

Pre-gap length 0:00:20.00

Peak level 100.0 %
Extraction speed 10.5 X
Track quality 100.0 %
Test CRC 83955B3B
Copy CRC 83955B3B
Accurately ripped (confidence 2) [8E031340]
Copy OK


All tracks accurately ripped

No errors occurred

End of status report

==== Log checksum DEE1632264FE8C8B59C8DE396AFA1B1C3F45C31B72CF75AE88434C28FA34A80F ====

foobar2000 1.2 / Dynamic Range Meter 1.1.1
log date: 2015-04-22 21:39:20

––––––––––––––––––––––––––––––––––––––––
Analyzed: Nusrat Fateh Ali Khan / Reverence: Traditional Sufi Qawwalis Live At The Kufa Gallery, London, Dec 1989 - CD 4
––––––––––––––––––––––––––––––––––––––––

DR Peak RMS Duration Track
––––––––––––––––––––––––––––––––––––––––
DR15 -1.73 dB -21.41 dB 15:19 01-Traditional Qawwali In Ragas Marwa & Bhatiyar - Allah Mohammed, Char Yaar, Haji Khwaja Qutb Farid
DR15 0.00 dB -19.18 dB 26:04 02-Traditional Qawwali (Punjabi) By Baba Buleh Shah In Ragas Tilang & Khamaj - Teri Main Ishq Ne Nachaya, Wai Kadi Thaya Wai
DR16 0.00 dB -20.34 dB 18:05 03-Traditional Qawwali In Hindi By Hazrat Amir Khusrau In Raga Khamaj - Rang - Aj Rang Hai Hai Maa Rang Hai Morey Mehboob ke Ghar Rang Hai
––––––––––––––––––––––––––––––––––––––––

Number of tracks: 3
Official DR value: DR15

Samplerate: 44100 Hz
Channels: 2
Bits per sample: 16
Bitrate: 591 kbps
Codec: FLAC
================================================================================

Nusrat Fateh Ali Khan - Reverence: Traditional Sufi Qawwalis (2008) 4 CD Box Set [Re-Up]

All thanks to original releaser - Wildstrings

More interesting music in My Blog