Subcategories

Nymphs - Nymphs (1991) [Repost]

Posted By: Designol
Nymphs - Nymphs (1991) [Repost]

Nymphs - Nymphs (1991)
EAC | FLAC | Tracks (Cue&Log) ~ 385 Mb (incl 5%) | Mp3 (CBR320/Stereo) ~ 164 Mb (incl 5%) | Scans included
Genre: Alternative Rock, Punk Rock | Label: David Geffen Company | # DGCD-24366 | Time: 00:42:15

Since Nirvana's Nevermind pretty much killed glam-metal, the Nymphs' self-titled (and only) album might well be the last great glam-metal album. Released the same year as Nevermind, female lead singer Inger Lorre shares Kurt Cobain's sense of angst, a sense that was absent from most glam. In "Wasting My Days," Lorre sings, "Talk to myself, cuz I'm the only one that understands," deviating from typical male glam topics like sex and partying. Like Nevermind, this album has a punk rock influence (Iggy Pop even makes a cameo on "Supersonic"), but guitarists Jet and Sam Merrick don't hesitate to play effects-heavy riffs. The music matches Lorre's lyrics: the druggy world of "Sad and Damned"; the condemnation of sycophants in "2 Cats"; and her love/hate relationship with Christianity in "The River" and "Heaven." This album could have reached the success level of Jane's Addiction, possibly, if the group hadn't disbanded right after the records release. Unfortunately, Nymphs has achieved a level of obscurity it never should have.

Review by Brian Flota, Allmusic.com
Nymphs - Nymphs (1991) [Repost]



Tracklist:

01. Just One Happy Day (03:02)
02. Cold (02:19)
03. Cats (02:54)
04. Imitating Angels (04:29)
05. Wasting My Days (04:04)
06. Heaven (03:39)
07. Supersonic (03:26)
08. Sad And Damned (02:59)
09. Death Of A Scenester (04:02)
10. The River (03:41)
11. Revolt (02:03)
12. The Highway (05:31)


Exact Audio Copy V1.0 beta 1 from 15. November 2010

EAC extraction logfile from 20. September 2014, 14:39

Nymphs / Nymphs

Used drive : TSSTcorpCDDVDW SH-224DB Adapter: 1 ID: 0

Read mode : Secure
Utilize accurate stream : Yes
Defeat audio cache : Yes
Make use of C2 pointers : No

Read offset correction : 6
Overread into Lead-In and Lead-Out : No
Fill up missing offset samples with silence : Yes
Delete leading and trailing silent blocks : No
Null samples used in CRC calculations : Yes
Used interface : Native Win32 interface for Win NT & 2000
Gap handling : Appended to previous track

Used output format : User Defined Encoder
Selected bitrate : 896 kBit/s
Quality : High
Add ID3 tag : No
Command line compressor : C:\Program Files\Exact Audio Copy\Flac\flac.exe
Additional command line options : -6 -V -T "ARTIST=%a" -T "TITLE=%t" -T "ALBUM=%g" -T "DATE=%y" -T "TRACKNUMBER=%n" -T "GENRE=%m" -T "COMMENT=%e" %s -o %d


TOC of the extracted CD

Track | Start | Length | Start sector | End sector
––––––––––––––––––––––––––––-
1 | 0:00.32 | 3:02.25 | 32 | 13706
2 | 3:02.57 | 2:19.73 | 13707 | 24204
3 | 5:22.55 | 2:54.00 | 24205 | 37254
4 | 8:16.55 | 4:29.10 | 37255 | 57439
5 | 12:45.65 | 4:04.10 | 57440 | 75749
6 | 16:50.00 | 3:39.47 | 75750 | 92221
7 | 20:29.47 | 3:26.53 | 92222 | 107724
8 | 23:56.25 | 2:59.35 | 107725 | 121184
9 | 26:55.60 | 4:02.57 | 121185 | 139391
10 | 30:58.42 | 3:41.50 | 139392 | 156016
11 | 34:40.17 | 2:03.48 | 156017 | 165289
12 | 36:43.65 | 5:31.32 | 165290 | 190146


Track 1

Filename C:\New Folder\01 - Just One Happy Day.wav

Pre-gap length 0:00:02.32

Peak level 100.0 %
Extraction speed 1.9 X
Track quality 100.0 %
Test CRC 802AA8F4
Copy CRC 802AA8F4
Accurately ripped (confidence 4) [C1115077]
Copy OK

Track 2

Filename C:\New Folder\02 - Cold.wav

Peak level 100.0 %
Extraction speed 1.8 X
Track quality 100.0 %
Test CRC 3811EB8F
Copy CRC 3811EB8F
Accurately ripped (confidence 4) [1FD2849C]
Copy OK

Track 3

Filename C:\New Folder\03 - Cats.wav

Peak level 100.0 %
Extraction speed 1.6 X
Track quality 99.9 %
Test CRC 35CFDFCD
Copy CRC 35CFDFCD
Accurately ripped (confidence 4) [9CCB28A6]
Copy OK

Track 4

Filename C:\New Folder\04 - Imitating Angels.wav

Pre-gap length 0:00:00.01

Peak level 100.0 %
Extraction speed 2.1 X
Track quality 100.0 %
Test CRC 162260F6
Copy CRC 162260F6
Accurately ripped (confidence 4) [D878C530]
Copy OK

Track 5

Filename C:\New Folder\05 - Wasting My Days.wav

Pre-gap length 0:00:01.13

Peak level 100.0 %
Extraction speed 2.1 X
Track quality 100.0 %
Test CRC BD5860B8
Copy CRC BD5860B8
Accurately ripped (confidence 4) [862C4D6D]
Copy OK

Track 6

Filename C:\New Folder\06 - Heaven.wav

Peak level 100.0 %
Extraction speed 2.0 X
Track quality 100.0 %
Test CRC F9AAFD10
Copy CRC F9AAFD10
Accurately ripped (confidence 4) [88C4B9AA]
Copy OK

Track 7

Filename C:\New Folder\07 - Supersonic.wav

Pre-gap length 0:00:00.02

Peak level 100.0 %
Extraction speed 2.0 X
Track quality 100.0 %
Test CRC B526EE6F
Copy CRC B526EE6F
Accurately ripped (confidence 4) [FDFB459C]
Copy OK

Track 8

Filename C:\New Folder\08 - Sad And Damned.wav

Pre-gap length 0:00:00.23

Peak level 100.0 %
Extraction speed 2.0 X
Track quality 100.0 %
Test CRC BBFF3040
Copy CRC BBFF3040
Accurately ripped (confidence 4) [247F929A]
Copy OK

Track 9

Filename C:\New Folder\09 - Death Of A Scenester.wav

Peak level 100.0 %
Extraction speed 1.8 X
Track quality 99.9 %
Test CRC D24DC6EE
Copy CRC D24DC6EE
Accurately ripped (confidence 4) [B042DAD1]
Copy OK

Track 10

Filename C:\New Folder\10 - The River.wav

Pre-gap length 0:00:00.30

Peak level 99.9 %
Extraction speed 2.0 X
Track quality 100.0 %
Test CRC 82B99AEB
Copy CRC 82B99AEB
Accurately ripped (confidence 4) [81CD7A8A]
Copy OK

Track 11

Filename C:\New Folder\11 - Revolt.wav

Pre-gap length 0:00:01.00

Peak level 100.0 %
Extraction speed 1.9 X
Track quality 100.0 %
Test CRC 19C83194
Copy CRC 19C83194
Accurately ripped (confidence 4) [BE3F2EE8]
Copy OK

Track 12

Filename C:\New Folder\12 - The Highway.wav

Pre-gap length 0:00:00.10

Peak level 100.0 %
Extraction speed 2.0 X
Track quality 99.9 %
Test CRC B1361253
Copy CRC B1361253
Accurately ripped (confidence 4) [9A70ADC7]
Copy OK


All tracks accurately ripped

No errors occurred

End of status report

==== Log checksum 0C6C33A6EF68F38F51F40BDA6FE3CB922ED8515A62F5C8BF7DB7BE32AD859E92 ====

foobar2000 1.2 / Dynamic Range Meter 1.1.1
log date: 2014-09-28 16:27:00

––––––––––––––––––––––––––––––––––––––––
Analyzed: Nymphs / Nymphs
––––––––––––––––––––––––––––––––––––––––

DR Peak RMS Duration Track
––––––––––––––––––––––––––––––––––––––––
DR10 0.00 dB -11.22 dB 3:02 01-Just One Happy Day
DR11 0.00 dB -12.46 dB 2:20 02-Cold
DR11 0.00 dB -11.91 dB 2:54 03-Cats
DR10 0.00 dB -10.95 dB 4:29 04-Imitating Angels
DR10 0.00 dB -10.95 dB 4:04 05-Wasting My Days
DR10 0.00 dB -12.33 dB 3:40 06-Heaven
DR10 0.00 dB -11.15 dB 3:27 07-Supersonic
DR10 0.00 dB -11.24 dB 2:59 08-Sad And Damned
DR10 0.00 dB -10.59 dB 4:03 09-Death Of A Scenester
DR11 0.00 dB -12.00 dB 3:42 10-The River
DR10 0.00 dB -10.89 dB 2:04 11-Revolt
DR10 0.00 dB -10.89 dB 5:31 12-The Highway
––––––––––––––––––––––––––––––––––––––––

Number of tracks: 12
Official DR value: DR10

Samplerate: 44100 Hz
Channels: 2
Bits per sample: 16
Bitrate: 1031 kbps
Codec: FLAC
================================================================================

Nymphs - Nymphs (1991) [Repost]

Nymphs - Nymphs (1991) [Repost]

All thanks to original releaser - alekow

More interesting music in My Blog