Subcategories

Oasis: Singles Collection part. 01 (1994-2003) [Japanese Ed.]

Posted By: v3122
Oasis: Singles Collection part. 01 (1994-2003) [Japanese Ed.]

Oasis: Singles Collection part. 01 (1994-2003)
EAC | Flac(Image) + Cue + Log & MP3 CBR 320Kbps
6CD | Epic | ~ 956 or 382 Mb | Scans(jpg) -> 62 Mb
Rock / Britpop / Neo-psychedelia

Oasis were an English rock band formed in Manchester in 1991. Developed from an earlier group, the Rain, the band originally consisted of Liam Gallagher (vocals and tambourine), Paul "Bonehead" Arthurs (guitar), Paul "Guigsy" McGuigan (bass guitar), and Tony McCarroll (drums, percussion). They were later joined by Liam's older brother Noel Gallagher (lead guitar and vocals) as a fifth member, becoming the band's settled line-up until April 1995.

Oasis signed to independent record label Creation Records in 1993 and released their record-setting debut album Definitely Maybe (1994). The following year the band recorded (What's the Story) Morning Glory? (1995) with drummer Alan White, in the midst of a chart rivalry with Britpop peers Blur. Along with Suede, Pulp, Blur and others, Oasis came to be regarded as one of the major bands of the Britpop movement, and in many respects, eclipsed their peers in terms of commercial success and their influence on British culture, with What's the Story? going on to sell 22 million copies worldwide and the Gallagher brothers being featured regularly in tabloid newspapers for their sibling disputes and wild lifestyles. In 1996, Oasis performed two nights at Knebworth for an audience of 125,000 each night, at the time the largest outdoor concerts in UK history (2.5 million people applied for tickets, to this day the highest demand for a show in British history). In 1997 Oasis released their third album, Be Here Now (1997), and although it was the fastest-selling album in UK chart history, the album's popularity tapered off quickly, but not before selling 8 million copies.

McGuigan and Arthurs left Oasis in 1999 as the band released Standing on the Shoulder of Giants (2000). After their departures, they were replaced by former Heavy Stereo guitarist/frontman Gem Archer and former Ride guitarist/frontman Andy Bell. Their fifth studio album Heathen Chemistry was released in 2002. In 2004 drummer Alan White left the band leaving them as a four-piece with addition of the Who drummer Zak Starkey as recording and touring unofficial fifth member and found renewed success and popularity with Don't Believe the Truth (2005). Following the recording of the band's seventh album Dig Out Your Soul in May 2008, after being made official member during sessions, Starkey departed the band and with Chris Sharrock as touring member, Oasis did their last tour as a collective band. During the tour the brothers' increasingly deteriorating relationship ultimately led to Noel Gallagher announcing in August 2009 that he would be leaving the band after a backstage altercation with Liam before a festival appearance. The band, comprising the remaining members of Oasis and led by Liam Gallagher, decided to continue working together under the name Beady Eye until breaking up in 2014, while Noel went on to form his solo project Noel Gallagher's High Flying Birds.

As well as singing in Mancunian accents and references to British culture in their lyrics, Oasis were influenced by British guitar bands from the past. They have had eight UK number-one singles and eight UK number-one albums, and won seventeen NME Awards, nine Q Awards, four MTV Europe Music Awards and six Brit Awards, including one in 2007 for Outstanding Contribution to Music and one for the Best Album of the Last 30 Years as voted by BBC Radio 2 listeners; they have been nominated for three Grammy Awards. As of 2009 Oasis have sold over 85 million records worldwide. The band were listed in the Guinness World Records book in 2010 for "Longest Top 10 UK Chart Run by a Group" after an unprecedented run of 22 top 10 hits in the UK. The band also holds the Guinness World Record for being the most successful act in the UK between the years 1995 and 2005, spending 765 weeks in the top 75 singles and albums charts…

~ wiki
Oasis: Singles Collection part. 01 (1994-2003) [Japanese Ed.]


Oasis: Singles Collection part. 01 (1994-2003):

Oasis: Singles Collection part. 01 (1994-2003) [Japanese Ed.]

Tracklist CD1 - 1994 - Supersonic (ESCA 6025):

01. Supersonic (4:42)
02. Shakermaker (5:13)
03. Columbia (White Label Demo) (5:28)
04. Alive (8 Track Demo) (3:57)
05. D'Yer Wanna Be A Spaceman? (2:42)
06. I Will Believe (Live) (3:48)

Exact Audio Copy V1.0 beta 3 from 29. August 2011

EAC extraction logfile from 17. July 2014, 16:15

Oasis / Supersonic (ESCA 6025)

Used drive : ASUS DRW-24F1ST Adapter: 3 ID: 0

Read mode : Secure
Utilize accurate stream : Yes
Defeat audio cache : Yes
Make use of C2 pointers : No

Read offset correction : 6
Overread into Lead-In and Lead-Out : No
Fill up missing offset samples with silence : Yes
Delete leading and trailing silent blocks : No
Null samples used in CRC calculations : Yes
Used interface : Native Win32 interface for Win NT & 2000

Used output format : Internal WAV Routines
Sample format : 44.100 Hz; 16 Bit; Stereo


TOC of the extracted CD

Track | Start | Length | Start sector | End sector
––––––––––––––––––––––––––––-
1 | 0:00.00 | 4:42.22 | 0 | 21171
2 | 4:42.22 | 5:13.15 | 21172 | 44661
3 | 9:55.37 | 5:27.53 | 44662 | 69239
4 | 15:23.15 | 3:57.05 | 69240 | 87019
5 | 19:20.20 | 2:42.37 | 87020 | 99206
6 | 22:02.57 | 3:47.38 | 99207 | 116269


Range status and errors

Selected range

Filename D:\Le Snow\Oasis - Supersonic (ESCA 6025).wav

Peak level 99.7 %
Extraction speed 2.4 X
Range quality 100.0 %
Test CRC AEFD641B
Copy CRC AEFD641B
Copy OK

No errors occurred


AccurateRip summary

Track 1 cannot be verified as accurate (confidence 6) [73562BC4], AccurateRip returned [3E769B86] (AR v2)
Track 2 cannot be verified as accurate (confidence 6) [0C244495], AccurateRip returned [182D6795] (AR v2)
Track 3 cannot be verified as accurate (confidence 6) [42A98F53], AccurateRip returned [389080DC] (AR v2)
Track 4 cannot be verified as accurate (confidence 6) [A23383EB], AccurateRip returned [58071C90] (AR v2)
Track 5 cannot be verified as accurate (confidence 6) [4CFE4BBA], AccurateRip returned [8B2C269B] (AR v2)
Track 6 cannot be verified as accurate (confidence 6) [665282FB], AccurateRip returned [83A00948] (AR v2)

No tracks could be verified as accurate
You may have a different pressing from the one(s) in the database

End of status report

==== Log checksum F02BEA06DDD4E4C14BDE66CFB51E766697FFC051748C5FDDF14CD9EFDCEF9CA6 ====


[CUETools log; Date: 03.02.2018 8:50:42; Version: 2.1.5]
[CTDB TOCID: s0UEtwk7c8hF67IUCcXrNuIOQyY-] found.
Track | CTDB Status
1 | (21/21) Accurately ripped
2 | (21/21) Accurately ripped
3 | (21/21) Accurately ripped
4 | (21/21) Accurately ripped
5 | (21/21) Accurately ripped
6 | (21/21) Accurately ripped
[AccurateRip ID: 0006ad43-00230eb3-49060e06] found.
Track [ CRC | V2 ] Status
01 [ace75a39|73562bc4] (00+00/11) No match
02 [d0289b95|0c244495] (00+00/11) No match
03 [55bbadf1|42a98f53] (00+00/11) No match
04 [2e7e02bd|a23383eb] (00+00/11) No match
05 [92a11939|4cfe4bba] (00+00/11) No match
06 [b4136813|665282fb] (00+00/11) No match
Offsetted by 981:
01 [dfdc37b5] (03/11) Accurately ripped
02 [672b8846] (03/11) Accurately ripped
03 [ebcf319f] (03/11) Accurately ripped
04 [1445c396] (03/11) Accurately ripped
05 [a0208268] (03/11) Accurately ripped
06 [f09c56ed] (03/11) Accurately ripped

Track Peak [ CRC32 ] [W/O NULL] [ LOG ]
– 99,7 [AEFD641B] [2361FEB2] CRC32
01 97,8 [48627A1C] [343479D5]
02 96,9 [C82951AE] [AFA795E5]
03 97,8 [49D844A7] [7CC3FD89]
04 99,7 [A629D1A2] [7E660EC7]
05 71,3 [CBAAEC3B] [925526B1]
06 97,8 [3195F8F5] [F8BEFCE5]


Oasis: Singles Collection part. 01 (1994-2003) [Japanese Ed.]

Tracklist CD2 - Whatever (ESCA 6127):

01. Whatever (6:21)
02. (It's Good) To Be Free (4:21)
03. Fade Away (4:14)
04. Listen Up (6:40)
05. Half The World Away (4:23)
06. I Am The Walrus (Live At Glasgow Cathouse June '94) (8:16)

Exact Audio Copy V1.0 beta 3 from 29. August 2011

EAC extraction logfile from 29. September 2014, 16:41

Oasis / Whatever (ESCA 6127)

Used drive : ASUS DRW-24F1ST Adapter: 2 ID: 1

Read mode : Secure
Utilize accurate stream : Yes
Defeat audio cache : Yes
Make use of C2 pointers : No

Read offset correction : 6
Overread into Lead-In and Lead-Out : No
Fill up missing offset samples with silence : Yes
Delete leading and trailing silent blocks : No
Null samples used in CRC calculations : Yes
Used interface : Native Win32 interface for Win NT & 2000

Used output format : Internal WAV Routines
Sample format : 44.100 Hz; 16 Bit; Stereo


TOC of the extracted CD

Track | Start | Length | Start sector | End sector
––––––––––––––––––––––––––––-
1 | 0:00.00 | 6:20.57 | 0 | 28556
2 | 6:20.57 | 4:21.23 | 28557 | 48154
3 | 10:42.05 | 4:14.07 | 48155 | 67211
4 | 14:56.12 | 6:40.18 | 67212 | 97229
5 | 21:36.30 | 4:23.12 | 97230 | 116966
6 | 25:59.42 | 8:16.33 | 116967 | 154199


Range status and errors

Selected range

Filename D:\Le Snow\Oasis - Whatever (ESCA 6127).wav

Peak level 99.4 %
Extraction speed 2.6 X
Range quality 100.0 %
Test CRC 73A6F284
Copy CRC 73A6F284
Copy OK

No errors occurred


AccurateRip summary

Track 1 accurately ripped (confidence 17) [4E27070D] (AR v2)
Track 2 accurately ripped (confidence 17) [0FFD77EA] (AR v2)
Track 3 accurately ripped (confidence 17) [7F1CF5D7] (AR v2)
Track 4 accurately ripped (confidence 17) [B2330FF2] (AR v2)
Track 5 accurately ripped (confidence 17) [A303B0C4] (AR v2)
Track 6 accurately ripped (confidence 17) [2B8BE290] (AR v2)

All tracks accurately ripped

End of status report

==== Log checksum 1D80F149EA5A69C55B2D04A96AFB20F48FE631364C5A89C9CBCD8E63E32E8048 ====


[CUETools log; Date: 03.02.2018 8:51:09; Version: 2.1.5]
[CTDB TOCID: yRqjPr5DCAa.nVATSudGzkSeYzk-] found.
Track | CTDB Status
1 | (118/120) Accurately ripped
2 | (119/120) Accurately ripped
3 | (120/120) Accurately ripped
4 | (120/120) Accurately ripped
5 | (119/120) Accurately ripped
6 | (119/120) Accurately ripped
[AccurateRip ID: 0007d141-0029c674-57080806] found.
Track [ CRC | V2 ] Status
01 [8bd41a2d|4e27070d] (14+27/41) Accurately ripped
02 [a76d1b78|0ffd77ea] (14+27/41) Accurately ripped
03 [58a3899e|7f1cf5d7] (14+28/42) Accurately ripped
04 [94aecd52|b2330ff2] (14+28/42) Accurately ripped
05 [34132d6c|a303b0c4] (14+28/42) Accurately ripped
06 [c0b50818|2b8be290] (14+28/42) Accurately ripped

Track Peak [ CRC32 ] [W/O NULL] [ LOG ]
– 99,4 [73A6F284] [3100397A] CRC32
01 79,3 [FFBBA25D] [907D0DB5]
02 79,3 [CCC0A5BA] [18D59028]
03 97,8 [E19ED079] [C7A08F87]
04 97,8 [1D5E621D] [AEF2835D]
05 99,4 [AC0BFD34] [A3E78228]
06 97,8 [607B9656] [E3F2C6FA]


Oasis: Singles Collection part. 01 (1994-2003) [Japanese Ed.]

Tracklist CD3 - 1995 - Some Might Say (ESCA 6251):

01. Some Might Say (5:28)
02. Talk Tonight (4:22)
03. Acquiesce (4:24)
04. Headshrinker (4:40)
05. Some Might Say (Demo Version) (6:47)
06. You've Got To Hide Your Love Away (2:16)

Exact Audio Copy V1.0 beta 3 from 29. August 2011

EAC extraction logfile from 24. July 2014, 19:50

Oasis / Some Might Say (ESCA 6251)

Used drive : ASUS DRW-24F1ST Adapter: 3 ID: 0

Read mode : Secure
Utilize accurate stream : Yes
Defeat audio cache : Yes
Make use of C2 pointers : No

Read offset correction : 6
Overread into Lead-In and Lead-Out : No
Fill up missing offset samples with silence : Yes
Delete leading and trailing silent blocks : No
Null samples used in CRC calculations : Yes
Used interface : Native Win32 interface for Win NT & 2000

Used output format : Internal WAV Routines
Sample format : 44.100 Hz; 16 Bit; Stereo


TOC of the extracted CD

Track | Start | Length | Start sector | End sector
––––––––––––––––––––––––––––-
1 | 0:00.00 | 5:27.45 | 0 | 24569
2 | 5:27.45 | 4:21.50 | 24570 | 44194
3 | 9:49.20 | 4:24.30 | 44195 | 64024
4 | 14:13.50 | 4:39.62 | 64025 | 85011
5 | 18:53.37 | 6:47.00 | 85012 | 115536
6 | 25:40.37 | 2:16.13 | 115537 | 125749


Range status and errors

Selected range

Filename D:\Le Snow\Oasis - Some Might Say (ESCA 6251).wav

Peak level 95.2 %
Extraction speed 2.5 X
Range quality 100.0 %
Test CRC 9012BC43
Copy CRC 9012BC43
Copy OK

No errors occurred


AccurateRip summary

Track 1 accurately ripped (confidence 9) [828D8199] (AR v2)
Track 2 accurately ripped (confidence 9) [F83768DA] (AR v2)
Track 3 accurately ripped (confidence 9) [B55C8DB2] (AR v2)
Track 4 accurately ripped (confidence 9) [463A18DF] (AR v2)
Track 5 accurately ripped (confidence 9) [6B22DF5F] (AR v2)
Track 6 accurately ripped (confidence 9) [CD40CBE4] (AR v2)

All tracks accurately ripped

End of status report

==== Log checksum C594607C16D348B4012CDA30A2CD193C4712E84F1F988F4DB0E8B7E75816630E ====


[CUETools log; Date: 03.02.2018 8:51:28; Version: 2.1.5]
[CTDB TOCID: BVRPXPP5g17M_y6dh3adACCfeV8-] found.
Track | CTDB Status
1 | (39/39) Accurately ripped
2 | (39/39) Accurately ripped
3 | (39/39) Accurately ripped
4 | (39/39) Accurately ripped
5 | (39/39) Accurately ripped
6 | (39/39) Accurately ripped
[AccurateRip ID: 00070151-00252d06-47068c06] found.
Track [ CRC | V2 ] Status
01 [3a4d752c|828d8199] (10+16/26) Accurately ripped
02 [8b5ba1e5|f83768da] (10+16/26) Accurately ripped
03 [2c0ca4ac|b55c8db2] (10+16/26) Accurately ripped
04 [fdaa82e7|463a18df] (10+16/26) Accurately ripped
05 [3a4f8b4b|6b22df5f] (11+15/26) Accurately ripped
06 [db0e6713|cd40cbe4] (11+16/27) Accurately ripped

Track Peak [ CRC32 ] [W/O NULL] [ LOG ]
– 95,2 [9012BC43] [884EC3C2] CRC32
01 85,1 [5C03F9C3] [D6BADE89]
02 83,5 [54B77162] [0D1BD888]
03 85,1 [2C11451A] [F04FBDF3]
04 84,5 [B4591D59] [0BE15C29]
05 95,2 [383FB5C7] [046081A0]
06 77,6 [813500FC] [0B864FB5]


Oasis: Singles Collection part. 01 (1994-2003) [Japanese Ed.]

Tracklist CD4 - 2000 - Go Let It Out! (ESCA 8114):

01. Go Let It Out! (4:41)
02. (As Long As They've Got) Cigaretts In Hell (4:23)
03. Helter Skelter (5:54)

Exact Audio Copy V1.0 beta 3 from 29. August 2011

EAC extraction logfile from 29. September 2014, 16:58

Oasis / Go Let It Out! (ESCA 8114)

Used drive : ASUS DRW-24F1ST Adapter: 2 ID: 1

Read mode : Secure
Utilize accurate stream : Yes
Defeat audio cache : Yes
Make use of C2 pointers : No

Read offset correction : 6
Overread into Lead-In and Lead-Out : No
Fill up missing offset samples with silence : Yes
Delete leading and trailing silent blocks : No
Null samples used in CRC calculations : Yes
Used interface : Native Win32 interface for Win NT & 2000

Used output format : Internal WAV Routines
Sample format : 44.100 Hz; 16 Bit; Stereo


TOC of the extracted CD

Track | Start | Length | Start sector | End sector
––––––––––––––––––––––––––––-
1 | 0:00.00 | 4:40.42 | 0 | 21041
2 | 4:40.42 | 4:23.28 | 21042 | 40794
3 | 9:03.70 | 5:54.27 | 40795 | 67371


Range status and errors

Selected range

Filename D:\Le Snow\Oasis - Go Let It Out! (ESCA 8114).wav

Peak level 100.0 %
Extraction speed 2.1 X
Range quality 100.0 %
Test CRC A42C55B6
Copy CRC A42C55B6
Copy OK

No errors occurred


AccurateRip summary

Track 1 accurately ripped (confidence 2) [F687043C] (AR v2)
Track 2 accurately ripped (confidence 2) [5951F543] (AR v2)
Track 3 accurately ripped (confidence 2) [3736D0E8] (AR v2)

All tracks accurately ripped

End of status report

==== Log checksum 3BA5B690E6C835B148E4ABD87A4590B713BF2F87A36B541FC24469F0893C54B6 ====


[CUETools log; Date: 03.02.2018 8:51:48; Version: 2.1.5]
[CTDB TOCID: glSgO9vdjKuytSLRyWDYV_qN0aM-] found.
Track | CTDB Status
1 | (10/10) Accurately ripped
2 | (10/10) Accurately ripped
3 | (10/10) Accurately ripped
[AccurateRip ID: 0001f8b9-00069f26-1c038203] found.
Track [ CRC | V2 ] Status
01 [e710c547|f687043c] (2+4/6) Accurately ripped
02 [72b1a8cc|5951f543] (2+5/7) Accurately ripped
03 [fa2112a6|3736d0e8] (2+5/7) Accurately ripped

Track Peak [ CRC32 ] [W/O NULL] [ LOG ]
– 99,9 [A42C55B6] [18157992] CRC32
01 99,9 [2C02D233] [0158E0F9]
02 99,9 [387C5358] [F4066F07]
03 97,9 [FA0B2205] [3E5FF35F]


Oasis: Singles Collection part. 01 (1994-2003) [Japanese Ed.]

Tracklist CD5 - 2000 - Who Feels Love? (ESCA 8133):

01. Who Feels Love? (5:44)
02. One Way Road (4:03)
03. Gas Panic! (Demo) (6:39)

Exact Audio Copy V1.0 beta 3 from 29. August 2011

EAC extraction logfile from 1. November 2014, 18:24

Oasis / Who Feels Love? (ESCA 8133)

Used drive : ASUS DRW-24F1ST Adapter: 2 ID: 1

Read mode : Secure
Utilize accurate stream : Yes
Defeat audio cache : Yes
Make use of C2 pointers : No

Read offset correction : 6
Overread into Lead-In and Lead-Out : No
Fill up missing offset samples with silence : Yes
Delete leading and trailing silent blocks : No
Null samples used in CRC calculations : Yes
Used interface : Native Win32 interface for Win NT & 2000

Used output format : Internal WAV Routines
Sample format : 44.100 Hz; 16 Bit; Stereo


TOC of the extracted CD

Track | Start | Length | Start sector | End sector
––––––––––––––––––––––––––––-
1 | 0:00.00 | 5:44.05 | 0 | 25804
2 | 5:44.05 | 4:03.35 | 25805 | 44064
3 | 9:47.40 | 6:39.07 | 44065 | 73996


Range status and errors

Selected range

Filename D:\Le Snow\Oasis - Who Feels Love (ESCA 8133).wav

Peak level 97.9 %
Extraction speed 2.2 X
Range quality 100.0 %
Test CRC 11A1669C
Copy CRC 11A1669C
Copy OK

No errors occurred


AccurateRip summary

Track 1 accurately ripped (confidence 1) [A631CFEB] (AR v2)
Track 2 accurately ripped (confidence 1) [4FC4D442] (AR v2)
Track 3 accurately ripped (confidence 1) [B7F70E79] (AR v2)

All tracks accurately ripped

End of status report

==== Log checksum 87B6E3E16B4A9ACDDAD9A2274D9F826AE7F1A8AE1B0CB3B9A5FCD033AB943A3F ====


[CUETools log; Date: 03.02.2018 8:52:14; Version: 2.1.5]
[CTDB TOCID: 0gp3YQF2NUi_IG146beOZ6FUhHc-] found.
Track | CTDB Status
1 | (8/8) Accurately ripped
2 | (8/8) Accurately ripped
3 | (8/8) Accurately ripped
[AccurateRip ID: 000231fb-00075232-2503da03] found.
Track [ CRC | V2 ] Status
01 [7f06febf|a631cfeb] (0+1/1) Accurately ripped
02 [2919219a|4fc4d442] (0+1/1) Accurately ripped
03 [6439ee22|b7f70e79] (0+1/1) Accurately ripped

Track Peak [ CRC32 ] [W/O NULL] [ LOG ]
– 97,9 [11A1669C] [FD3198F3] CRC32
01 92,5 [A4514F47] [1A2B740B]
02 92,4 [C2ED0791] [1B825A28]
03 97,9 [14E8BECF] [286D238F]


Oasis: Singles Collection part. 01 (1994-2003) [Japanese Ed.]

Tracklist CD6 - 2003 - Songbird (EICP 194):

01. Songbird (2:09)
02. Songbird (Demo) (2:45)
03. Columbia (Live) (4:47)

Exact Audio Copy V1.1 from 23. June 2015

EAC extraction logfile from 23. March 2016, 15:45

Oasis / Songbird (EICP 194)

Used drive : ASUS DRW-24F1ST Adapter: 2 ID: 1

Read mode : Secure
Utilize accurate stream : Yes
Defeat audio cache : Yes
Make use of C2 pointers : No

Read offset correction : 6
Overread into Lead-In and Lead-Out : No
Fill up missing offset samples with silence : Yes
Delete leading and trailing silent blocks : No
Null samples used in CRC calculations : Yes
Used interface : Installed external ASPI interface

Used output format : Internal WAV Routines
Sample format : 44.100 Hz; 16 Bit; Stereo


TOC of the extracted CD

Track | Start | Length | Start sector | End sector
––––––––––––––––––––––––––––-
1 | 0:00.00 | 2:08.73 | 0 | 9672
2 | 2:08.73 | 2:44.47 | 9673 | 22019
3 | 4:53.45 | 4:47.12 | 22020 | 43556


Range status and errors

Selected range

Filename D:\Le Snow\Oasis - Songbird (EICP 194).wav

Peak level 100.0 %
Extraction speed 2.0 X
Range quality 100.0 %
Test CRC 7D6A7866
Copy CRC 7D6A7866
Copy OK

No errors occurred


AccurateRip summary

Track 1 accurately ripped (confidence 1) [1D277E39] (AR v2)
Track 2 accurately ripped (confidence 1) [4121580E] (AR v2)
Track 3 accurately ripped (confidence 1) [6A9E6510] (AR v2)

All tracks accurately ripped

End of status report

==== Log checksum 52691BF40E6C5BAF264247478488919BF46E5BFC31BC43C13CE1F6FBEF74378C ====


[CUETools log; Date: 03.02.2018 8:52:33; Version: 2.1.5]
[CTDB TOCID: SecYyTlzYGA0tFSWtwywhKh3Rnk-] found.
Track | CTDB Status
1 | (5/5) Accurately ripped
2 | (5/5) Accurately ripped
3 | (5/5) Accurately ripped
[AccurateRip ID: 000125f2-0003f633-16024403] found.
Track [ CRC | V2 ] Status
01 [9adb17a3|1d277e39] (0+1/1) Accurately ripped
02 [fa31d605|4121580e] (0+1/1) Accurately ripped
03 [c8c9e570|6a9e6510] (0+1/1) Accurately ripped

Track Peak [ CRC32 ] [W/O NULL] [ LOG ]
– 100,0 [7D6A7866] [B44C17CB] CRC32
01 100,0 [5B111CF4] [4E41B95E]
02 99,9 [2A4AF3FE] [737D164D]
03 100,0 [D6AF62B7] [FE0E18BC]



All thanks go to the original releaser

Oasis in my Blog

Download Oasis: Singles Collection part. 01 (1994-2003):