Subcategories

Olivia Newton-John: Christmas Wish (2008 Edition with Bonus Track)

Posted By: BlondStyle
Olivia Newton-John: Christmas Wish (2008 Edition with Bonus Track)

Olivia Newton-John: Christmas Wish (2008 Edition with Bonus Track)
Easy Listening, Christmas, Traditional, Vocal | EAC Rip | APE + CUE + LOG + Covers | 66 Min | 414,63 Mb
MP3 | 320 Kbps | Covers | 140,71 Mb
Label: Compass/ONJ Productions | Released: 2008

Four-time Grammy Award winner Olivia Newton-John returns with a beautiful holiday CD simply titled, Christmas Wish. The 23-track CD features thirteen glorious vocals and ten musical interludes, as well as performances by Grammy winners and nominees, Barry Manilow, Michael McDonald, Jon Secada, David Foster and JimBrickman, to name a few.

TrackList

01. O Come, All Ye Faithful - 4:53
02. Angels We Have Heard On High (Interlude) - 1:13
03. Everytime It Snows [featuring Jon Secada] - 3:52
04. Away In A Manger (Interlude) - 1:12
05. We Three Kings - 4:46
06. The First Noel (Interlude) - 1:10
07. A Mother’s Christmas Wish [featuring Jim Brickman] - 3:43
08. Jesu Joy Of Man’s Desiring (Interlude) - 1:22
09. Angels In The Snow - 3:18
10. What Child Is This? (Interlude) [featuring Pavlo] - 1:38
11. Silent Night [featuring Jann Arden] - 4:56
12. O Come Emmanuel (Interlude) - 1:30
13. All Through The Night [featuring Michael McDonald] - 3:29
14. Little Drummer Boy (Interlude) - 1:03
15. Underneath The Same Sky - 3:12
16. O Christmas Tree (Interlude) - 1:33
17. Little Star of Bethlehem - 4:41
18. Deck The Halls (Interlude) - 0:57
19. Instrument of Peace [featuring Marc Jordan] - 4:13
20. We Wish You A Merry Christmas (Interlude) - 1:40
21. Christmas On My Radio - 3:53
22. A Gift Of Love [featuring Barry Manilow] - 2:30

Bonus Track

23. In The Bleak Midwinter - 5:13

Exact Audio Copy V0.99 prebeta 4 from 23. January 2008

Отчёт EAC об извлечении, выполненном 25. декабря 2009, 22:43

Olivia Newton-John / Christmas Wish

Дисковод: ATAPI DVD DW 8X16X8X16 Adapter: 0 ID: 2

Режим чтения : Достоверность
Использование точного потока : Да
Отключение кэша аудио : Да
Использование указателей C2 : Нет

Коррекция смещения при чтении : 618
Способность читать области Lead-in и Lead-out : Нет
Заполнение пропущенных сэмплов тишиной : Да
Удаление блоков с тишиной в начале и конце : Нет
При вычислениях CRC использовались нулевые сэмплы : Да
Интерфейс : Встроенный Win32-интерфейс для Win NT/2000

Выходной формат : Внутренние WAV-операции
Формат сэмплов : 44.100 Гц; 16 бит; стерео


TOC извлечённого CD

Трек | Старт | Длительность | Начальный сектор | Конечный сектор
––––––––––––––––––––––––––––––––––-
1 | 0:00.00 | 4:54.06 | 0 | 22055
2 | 4:54.06 | 1:14.01 | 22056 | 27606
3 | 6:08.07 | 3:52.05 | 27607 | 45011
4 | 10:00.12 | 1:13.05 | 45012 | 50491
5 | 11:13.17 | 4:47.33 | 50492 | 72049
6 | 16:00.50 | 1:11.40 | 72050 | 77414
7 | 17:12.15 | 3:45.69 | 77415 | 94358
8 | 20:58.09 | 1:24.00 | 94359 | 100658
9 | 22:22.09 | 3:19.73 | 100659 | 115656
10 | 25:42.07 | 1:41.18 | 115657 | 123249
11 | 27:23.25 | 4:58.08 | 123250 | 145607
12 | 32:21.33 | 1:32.14 | 145608 | 152521
13 | 33:53.47 | 3:30.35 | 152522 | 168306
14 | 37:24.07 | 1:05.21 | 168307 | 173202
15 | 38:29.28 | 3:14.41 | 173203 | 187793
16 | 41:43.69 | 1:35.04 | 187794 | 194922
17 | 43:18.73 | 4:41.38 | 194923 | 216035
18 | 48:00.36 | 0:58.68 | 216036 | 220453
19 | 48:59.29 | 4:14.22 | 220454 | 239525
20 | 53:13.51 | 1:43.54 | 239526 | 247304
21 | 54:57.30 | 3:56.35 | 247305 | 265039
22 | 58:53.65 | 2:29.21 | 265040 | 276235
23 | 61:23.11 | 5:13.65 | 276236 | 299775


Характеристики диапазона извлечения и сообщения об ошибках

Выбранный диапазон

Имя файла C:\Documents and Settings\OEM\Мои документы\Мои аудиозаписи\Olivia Newton-John - Christmas Wish.wav

Пиковый уровень 98.9 %
Качество диапазона 100.0 %
CRC копии 316C4A09
Копирование… OK

Ошибок не произошло


AccurateRip: сводка

Трек 1 точное извлечение (доверие 1) [906A7D12]
Трек 2 точное извлечение (доверие 1) [8FC58DB2]
Трек 3 точное извлечение (доверие 1) [5A3BEDB4]
Трек 4 точное извлечение (доверие 1) [5357553F]
Трек 5 точное извлечение (доверие 1) [253A6966]
Трек 6 точное извлечение (доверие 1) [5F1A86CD]
Трек 7 точное извлечение (доверие 1) [0F071491]
Трек 8 точное извлечение (доверие 1) [94E65169]
Трек 9 точное извлечение (доверие 1) [7C31FEBE]
Трек 10 точное извлечение (доверие 1) [06134299]
Трек 11 точное извлечение (доверие 1) [5DA1BDA2]
Трек 12 точное извлечение (доверие 1) [EA2E68E2]
Трек 13 точное извлечение (доверие 1) [3F815344]
Трек 14 точное извлечение (доверие 1) [A1F87555]
Трек 15 точное извлечение (доверие 1) [D68698D4]
Трек 16 точное извлечение (доверие 1) [7BD76F9A]
Трек 17 точное извлечение (доверие 1) [530AC53E]
Трек 18 точное извлечение (доверие 1) [11759E66]
Трек 19 точное извлечение (доверие 1) [6A4E3186]
Трек 20 точное извлечение (доверие 1) [F841C76F]
Трек 21 точное извлечение (доверие 1) [B9075407]
Трек 22 точное извлечение (доверие 1) [6DD01B8B]
Трек 23 точное извлечение (доверие 1) [369534F5]

Все треки извлечены точно

Конец отчёта


All Download Links
are Here


Password: www.AvaxHome.ru

P.S.
Sorry guys for this secrecy but such way will help to save the links from deleting
and it much more better than crappy and greedy so called "linkprotectors".

No Mirror Please