Tags
Language
Tags

Olivia Newton-John - Great Hits: First Impressions (1974) [1998, Digitally Remastered]

Posted By: BlondStyle
Olivia Newton-John - Great Hits: First Impressions (1974) [1998, Digitally Remastered]

Olivia Newton-John - Great Hits: First Impressions (1974) [1998, Digitally Remastered]
Pop/Rock, Soft Rock, Country | EAC Rip | FLAC, Img+CUE+LOG+Scans (PNG) | 38:43 | 419,35 Mb
Label: Festival Records Pty Ltd. (AU) | Cat.# D35375 (D21048) | Released: 1998-10-05 (1974)
Olivia Newton-John - Great Hits: First Impressions (1974) [1998, Digitally Remastered]

"Great Hits: First Impressions" is the first greatest hits album by Olivia Newton-John. It was released in 1974 by Festival Records/Interfusion. Compilation featuring 12 of her early '70s hits, including'If Not for You', 'Let Me Be There', 'I Honestly Love You' &'If You Love Me Let Me Know'.
Olivia Newton-John - Great Hits: First Impressions (1974) [1998, Digitally Remastered]

Olivia Newton-John - Great Hits: First Impressions (1974) [1998, Digitally Remastered]

Olivia Newton-John - Great Hits: First Impressions (1974) [1998, Digitally Remastered]




Release of the album: 1974 [LP Festival Records/Interfusion, Cat.# C-35375, AU]
Release of this CD: 1998, October, 5 [CD Festival Records Pty Ltd. (AU), Cat.# D35375 (D21048) / UPC: 9399603537527]
℗ 1974 Festival Records International, London.
© 1998 Festival Records Pty Ltd. (Aust).
Made In Australia By Festival Records Pty Ltd.

Tracklist:

01. If Not For You /1971/ (02:53)
(Bob Dylan)
02. Banks Of The Ohio /1971/ (03:16)
(Traditional)
03. Winterwood /1972/ (02:48)
(Don McLean)
04. Take Me Home Country Roads /1973/ (03:22)
(Bill Danoff, John Denver, Taffy Novert)
05. Amoureuse /1973/ (03:41)
(Gary Osborne, Veronique Sanson)
06. Let Me Be There /1973/ (03:04)
(John Rostill)
07. I Love You, I Honestly Love You /1974/ (03:37) - 1974
(Jeff Barry, Peter Allen)
08. Long Live Love /1974/ (02:47)
(Harold Spiro, Valerie Avon)
09. If You Love Me (Let Me Know) /1974/ (03:14)
(John Rostill)
10. What Is Life? /1972/ (03:22)
(George Harrison)
11. If We Try /1973/ (03:24)
(Don McLean)
12. Music Makes My Day /1973/ (03:15)
(John Farrar)

Exact Audio Copy V1.3 from 2. September 2016

EAC extraction logfile from 19. October 2019, 21:15

Olivia Newton-John / Great Hits - First Impressions

Used drive : PIONEER BD-RW BDR-208D Adapter: 1 ID: 0

Read mode : Secure
Utilize accurate stream : Yes
Defeat audio cache : Yes
Make use of C2 pointers : No

Read offset correction : 667
Overread into Lead-In and Lead-Out : No
Fill up missing offset samples with silence : Yes
Delete leading and trailing silent blocks : No
Null samples used in CRC calculations : Yes
Used interface : Native Win32 interface for Win NT & 2000

Used output format : Internal WAV Routines
Sample format : 44.100 Hz; 16 Bit; Stereo


TOC of the extracted CD

Track | Start | Length | Start sector | End sector
––––––––––––––––––––––––––––-
1 | 0:00.00 | 2:53.12 | 0 | 12986
2 | 2:53.12 | 3:16.18 | 12987 | 27704
3 | 6:09.30 | 2:48.02 | 27705 | 40306
4 | 8:57.32 | 3:21.38 | 40307 | 55419
5 | 12:18.70 | 3:40.70 | 55420 | 71989
6 | 15:59.65 | 3:03.65 | 71990 | 85779
7 | 19:03.55 | 3:37.07 | 85780 | 102061
8 | 22:40.62 | 2:47.00 | 102062 | 114586
9 | 25:27.62 | 3:14.13 | 114587 | 129149
10 | 28:42.00 | 3:21.62 | 129150 | 144286
11 | 32:03.62 | 3:23.63 | 144287 | 159574
12 | 35:27.50 | 3:15.22 | 159575 | 174221


Range status and errors

Selected range

Filename D:\BlondStyle\Great Hits - First Impressions.wav

Peak level 99.9 %
Extraction speed 6.3 X
Range quality 100.0 %
Test CRC 2CAD4017
Copy CRC 2CAD4017
Copy OK

No errors occurred


AccurateRip summary

Track 1 accurately ripped (confidence 5) [25E207EE] (AR v2)
Track 2 accurately ripped (confidence 5) [668675D5] (AR v2)
Track 3 accurately ripped (confidence 5) [43CE2E09] (AR v2)
Track 4 accurately ripped (confidence 5) [0F935B45] (AR v2)
Track 5 accurately ripped (confidence 5) [CA971CC0] (AR v2)
Track 6 accurately ripped (confidence 5) [C55A20DE] (AR v2)
Track 7 accurately ripped (confidence 5) [C5B2F423] (AR v2)
Track 8 accurately ripped (confidence 5) [4DC52879] (AR v2)
Track 9 accurately ripped (confidence 5) [E8D7D92A] (AR v2)
Track 10 accurately ripped (confidence 5) [A976D804] (AR v2)
Track 11 accurately ripped (confidence 4) [F5B6627E] (AR v2)
Track 12 accurately ripped (confidence 5) [14E49613] (AR v2)

All tracks accurately ripped

End of status report

–– CUETools DB Plugin V2.1.6

[CTDB TOCID: kW5ktO3SDJVacJzMEmhKEYEgDSs-] found
Submit result: already submitted
Track | CTDB Status
1 | (10/10) Accurately ripped
2 | (10/10) Accurately ripped
3 | (10/10) Accurately ripped
4 | (10/10) Accurately ripped
5 | (10/10) Accurately ripped
6 | (10/10) Accurately ripped
7 | (10/10) Accurately ripped
8 | (10/10) Accurately ripped
9 | (10/10) Accurately ripped
10 | (10/10) Accurately ripped
11 | (10/10) Accurately ripped
12 | (10/10) Accurately ripped


==== Log checksum 3E1EB231A3D2C8FB2AB5FF0255B36DD30D18F26F47334424FF35A6BE421D4AED ====

[Disc ID: 00110f78-00a00118-9b09120c]
Track [ CRC ] Status
01 [0590d028] (05/10) Accurately ripped as in pressing(s) #1
02 [bea5b5f9] (05/10) Accurately ripped as in pressing(s) #1
03 [f7e8876c] (05/10) Accurately ripped as in pressing(s) #1
04 [f6c7df4f] (05/10) Accurately ripped as in pressing(s) #1
05 [02df397d] (05/10) Accurately ripped as in pressing(s) #1
06 [25ca7350] (05/10) Accurately ripped as in pressing(s) #1
07 [8a30173a] (05/10) Accurately ripped as in pressing(s) #1
08 [3d438a6e] (05/10) Accurately ripped as in pressing(s) #1
09 [7234d91e] (05/10) Accurately ripped as in pressing(s) #1
10 [9aa47616] (05/10) Accurately ripped as in pressing(s) #1
11 [6c67ffbb] (05/09) Accurately ripped as in pressing(s) #1
12 [3bed1b8b] (05/10) Accurately ripped as in pressing(s) #1

––––––––––––––––––––––––––––––––––––––––
Analyzed: Olivia Newton-John / Great Hits - First Impressions
––––––––––––––––––––––––––––––––––––––––

DR Peak RMS Duration Track
––––––––––––––––––––––––––––––––––––––––
DR8 -2.02 dB -11.72 dB 2:53 01-If Not For You
DR6 -0.87 dB -9.55 dB 3:16 02-Banks Of The Ohio
DR7 -1.09 dB -10.04 dB 2:48 03-Winterwood
DR7 -0.37 dB -9.51 dB 3:22 04-Take Me Home Country Roads
DR8 -0.47 dB -12.15 dB 3:41 05-Amoureuse
DR7 -0.77 dB -9.68 dB 3:04 06-Let Me Be There
DR8 -1.19 dB -13.42 dB 3:37 07-I Love You, I Honestly Love You
DR8 -0.04 dB -9.93 dB 2:47 08-Long Live Love
DR7 -0.52 dB -9.74 dB 3:14 09-If You Love Me (Let Me Know)
DR7 -0.42 dB -9.28 dB 3:22 10-What Is Life
DR7 -0.81 dB -10.13 dB 3:24 11-If We Try
DR8 0.00 dB -9.98 dB 3:15 12-Music Makes My Day
––––––––––––––––––––––––––––––––––––––––

Number of tracks: 12
Official DR value: DR7

Samplerate: 44100 Hz
Channels: 2
Bits per sample: 16
Bitrate: 950 kbps
Codec: FLAC
================================================================================

See also:

♫~Welcome To My Blog~♫

password: BlondStyle