Subcategories

Omar Hakim & Rachel Z - The Trio Of Oz (2010)

Posted By: tiburon
Omar Hakim & Rachel Z - The Trio Of Oz (2010)

Omar Hakim & Rachel Z - The Trio Of Oz (2010)
EAC 1.0b3 | FLAC tracks level 8 | Cue+Log+M3U | Full Scans 300dpi | 411MB + 5% Recovery
Genre: Jazz, Fusion, Post-Bop

Legendary drummer Omar Hakim from Weather Report, Sting, Miles Davis and Chic has teamed up with pianist extraordinaire Rachel Z; whose work with such artists as Wayne Shorter, Steps Ahead, and Peter Gabriel has earned her international recognition and acclaim from her peers and fans alike. This exciting musical partnership features the tasteful virtuosity and sensitivity of these Grammy Award winning musicians as they take you on an exciting journey performing some of the most creative and unique arrangements of jazz standards and chart topping rock hits of the past 30 years.
Track List
01. Angry Chair 6:08
02. Sour Girl 5:07
03. Det Tar Tid 4:08
04. I Will Possess Your Heart 6:37
05. Lost 6:14
06. When You Were Young 6:07
07. In Your Room 7:24
08. Bizarre Love Triangle 4:24
09. There Is A Light 5:13
10. King Of Pain 7:31

musicians
Rachel Z - piano
Omar Hakim - drums
Maeve Royce - acoustic bass

Produced by Omar Hakim


Exact Audio Copy V1.0 beta 3 from 29. August 2011

EAC extraction logfile from 21. January 2013, 15:14

Omar Hakim & Rachel Z / The Trio Of Oz

Used drive : HL-DT-STDVDRAM GH20NS10 Adapter: 2 ID: 1

Read mode : Secure
Utilize accurate stream : Yes
Defeat audio cache : Yes
Make use of C2 pointers : No

Read offset correction : 667
Overread into Lead-In and Lead-Out : No
Fill up missing offset samples with silence : Yes
Delete leading and trailing silent blocks : No
Null samples used in CRC calculations : Yes
Used interface : Native Win32 interface for Win NT & 2000
Gap handling : Appended to previous track

Used output format : User Defined Encoder
Selected bitrate : 1024 kBit/s
Quality : High
Add ID3 tag : No
Command line compressor : C:\Program Files\Exact Audio Copy\Flac\flac.exe
Additional command line options : -8 -V -T "ARTIST=%artist%" -T "TITLE=%title%" -T "ALBUM=%albumtitle%" -T "DATE=%year%" -T "TRACKNUMBER=%tracknr%" -T "TOTALTRACKS=%numtracks%" -T "GENRE=%genre%" -T "ALBUMARTIST=%albumartist%" -T "ALBUM ARTIST=%albumartist%" -T "COMMENT=EAC Secure Mode, Test & Copy, AccurateRip, FLAC -8" %source%


TOC of the extracted CD

Track | Start | Length | Start sector | End sector
––––––––––––––––––––––––––––-
1 | 0:00.00 | 6:08.46 | 0 | 27645
2 | 6:08.46 | 5:07.18 | 27646 | 50688
3 | 11:15.64 | 4:08.45 | 50689 | 69333
4 | 15:24.34 | 6:37.53 | 69334 | 99161
5 | 22:02.12 | 6:14.24 | 99162 | 127235
6 | 28:16.36 | 6:07.68 | 127236 | 154828
7 | 34:24.29 | 7:24.59 | 154829 | 188187
8 | 41:49.13 | 4:24.19 | 188188 | 208006
9 | 46:13.32 | 5:13.31 | 208007 | 231512
10 | 51:26.63 | 7:31.36 | 231513 | 265373


Track 1

Filename D:\Omar Hakim & Rachel Z - The Trio Of Oz (2010) [FLAC]\01 - Angry Chair.wav

Pre-gap length 0:00:02.00

Peak level 88.1 %
Extraction speed 5.1 X
Track quality 100.0 %
Test CRC 9ABA06BA
Copy CRC 9ABA06BA
Track not present in AccurateRip database
Copy OK

Track 2

Filename D:\Omar Hakim & Rachel Z - The Trio Of Oz (2010) [FLAC]\02 - Sour Girl.wav

Peak level 100.0 %
Extraction speed 5.5 X
Track quality 100.0 %
Test CRC 422DF42E
Copy CRC 422DF42E
Track not present in AccurateRip database
Copy OK

Track 3

Filename D:\Omar Hakim & Rachel Z - The Trio Of Oz (2010) [FLAC]\03 - Det Tar Tid.wav

Peak level 100.0 %
Extraction speed 5.6 X
Track quality 100.0 %
Test CRC 448756B6
Copy CRC 448756B6
Track not present in AccurateRip database
Copy OK

Track 4

Filename D:\Omar Hakim & Rachel Z - The Trio Of Oz (2010) [FLAC]\04 - I Will Possess Your Heart.wav

Peak level 100.0 %
Extraction speed 5.2 X
Track quality 99.9 %
Test CRC 770EA4B5
Copy CRC 770EA4B5
Track not present in AccurateRip database
Copy OK

Track 5

Filename D:\Omar Hakim & Rachel Z - The Trio Of Oz (2010) [FLAC]\05 - Lost.wav

Peak level 100.0 %
Extraction speed 6.6 X
Track quality 100.0 %
Test CRC E9B36F36
Copy CRC E9B36F36
Track not present in AccurateRip database
Copy OK

Track 6

Filename D:\Omar Hakim & Rachel Z - The Trio Of Oz (2010) [FLAC]\06 - When You Were Young.wav

Peak level 100.0 %
Extraction speed 7.4 X
Track quality 100.0 %
Test CRC B98FC87A
Copy CRC B98FC87A
Track not present in AccurateRip database
Copy OK

Track 7

Filename D:\Omar Hakim & Rachel Z - The Trio Of Oz (2010) [FLAC]\07 - In Your Room.wav

Peak level 100.0 %
Extraction speed 7.9 X
Track quality 100.0 %
Test CRC 19963072
Copy CRC 19963072
Track not present in AccurateRip database
Copy OK

Track 8

Filename D:\Omar Hakim & Rachel Z - The Trio Of Oz (2010) [FLAC]\08 - Bizarre Love Triangle.wav

Peak level 100.0 %
Extraction speed 6.6 X
Track quality 99.9 %
Test CRC 3673EAB4
Copy CRC 3673EAB4
Track not present in AccurateRip database
Copy OK

Track 9

Filename D:\Omar Hakim & Rachel Z - The Trio Of Oz (2010) [FLAC]\09 - There Is A Light.wav

Peak level 100.0 %
Extraction speed 7.2 X
Track quality 99.9 %
Test CRC 970416AF
Copy CRC 970416AF
Track not present in AccurateRip database
Copy OK

Track 10

Filename D:\Omar Hakim & Rachel Z - The Trio Of Oz (2010) [FLAC]\10 - King Of Pain.wav

Peak level 91.2 %
Extraction speed 9.0 X
Track quality 100.0 %
Test CRC 2C9BAE5E
Copy CRC 2C9BAE5E
Track not present in AccurateRip database
Copy OK


None of the tracks are present in the AccurateRip database

No errors occurred

End of status report

==== Log checksum AE8425FA84FC156BFA88985063D5BB856F3812CB4E60144079284FF28782A368 ====


––––––––––––––––––––––––––––––––––––––––
Analyzed: Omar Hakim & Rachel Z / The Trio Of Oz
––––––––––––––––––––––––––––––––––––––––

DR Peak RMS Duration Track
––––––––––––––––––––––––––––––––––––––––
DR7 -1.09 dB -10.23 dB 6:09 01-Angry Chair
DR10 0.00 dB -12.47 dB 5:07 02-Sour Girl
DR9 0.00 dB -10.25 dB 4:09 03-Det Tar Tid
DR8 0.00 dB -10.04 dB 6:38 04-I Will Possess Your Heart
DR10 0.00 dB -12.47 dB 6:14 05-Lost
DR9 0.00 dB -10.55 dB 6:08 06-When You Were Young
DR9 0.00 dB -10.04 dB 7:25 07-In Your Room
DR12 0.00 dB -14.55 dB 4:24 08-Bizarre Love Triangle
DR12 0.00 dB -14.22 dB 5:13 09-There Is A Light
DR9 -0.79 dB -12.36 dB 7:31 10-King of Pain
––––––––––––––––––––––––––––––––––––––––

Number of tracks: 10
Official DR value: DR9

Samplerate: 44100 Hz
Channels: 2
Bits per sample: 16
Bitrate: 823 kbps
Codec: FLAC
================================================================================

Omar Hakim & Rachel Z - The Trio Of Oz (2010)
Omar Hakim & Rachel Z - The Trio Of Oz (2010)
Omar Hakim & Rachel Z - The Trio Of Oz (2010)


Rip by tiburon