Subcategories

Omar Sosa - Eggun (2013) {World Village}

Posted By: tiburon
Omar Sosa - Eggun (2013) {World Village}

Omar Sosa - Eggun (2013) {World Village}
EAC 1.0b3 | FLAC tracks level 8 | Cue+Log+M3U | Full Scans 300dpi | 449MB + 5% Recovery
MP3 CBR 320 Kbps | 182MB + 5% Recovery
Genre: Jazz, Latin Jazz, Fusion

EGGUN: The Afri-Lectric Experience began as an Omar Sosa commission from the Barcelona Jazz Festival in 2009. The assignment: to compose and produce a tribute performance to Miles Davis’ classic recording, Kind Of Blue, on the occasion of its 50th anniversary. Inspired by various musical elements and motifs from Kind Of Blue, Omar wrote a suite of music honoring the spirit of freedom in Davis’ seminal work.
Track List
01. Alejet 7:26
02. El Alba 8:49
03. Interludio I 0:56
04. Alternativo Sketches 9:04
05. Interludio II 0:36
06. Madre Mia (trad.) 8:47
07. Interludio III 0:50
08. So All Freddie 8:23
09. Interludio IV 0:57
10. Rumba Connection 9:19
11. Interludio V 1:05
12. Angustiado 7:42
13. Angustiado Reprise 2:43
14. Interludio VI 0:33
15. Calling Eggún 6:22

All compositions written and arranged by Omar Sosa

musicians
Omar Sosa - piano, Fender Rhodes, electronics, samples, vocals
Marque Gilmore - electronic percussions, EFX programming
Childo Tomas - electric bass, kalimba, vocals
Joo Kraus - trumpet, flugelhorn, electronic EFX
Leandro Saint-Hill - alto sax, clarinet and flute
Peter Apfelbaum - saxes, Melodica, caxixi
Lionel Loueke - electro acoustic guitar and vocals on tracks 4, 8, 10, 12, 13
Marvin Sewell - guitars on tracks 1, 3-7, 9, 15
Gustavo Ovalles - Afro-Venezuelan percussions (Quitiplas, Culo'e Puya, Maracas) on tracks 1, 3-7, 9, 11
Pedro Martínez - Afro-Cuban percussions on tracks 6, 8, 15
John Santos - clave, Chekere, Waterphone, panderetas, tambora, Güiro and Quijada on tracks 2, 12, 13, 15
Lázaro Montalvo - Yoruba prayer on track 15

Produced by Omar Sosa


Exact Audio Copy V1.0 beta 3 from 29. August 2011

EAC extraction logfile from 22. February 2013, 21:30

Omar Sosa / Eggun [World Village WVF479079]

Used drive : PLEXTOR DVDR PX-L890SA Adapter: 2 ID: 1

Read mode : Secure
Utilize accurate stream : Yes
Defeat audio cache : Yes
Make use of C2 pointers : No

Read offset correction : 6
Overread into Lead-In and Lead-Out : No
Fill up missing offset samples with silence : Yes
Delete leading and trailing silent blocks : No
Null samples used in CRC calculations : Yes
Used interface : Native Win32 interface for Win NT & 2000
Gap handling : Appended to previous track

Used output format : User Defined Encoder
Selected bitrate : 256 kBit/s
Quality : High
Add ID3 tag : No
Command line compressor : C:\Program Files (x86)\Exact Audio Copy\FLAC\FLAC.EXE
Additional command line options : -8 -V -T "ARTIST=%artist%" -T "TITLE=%title%" -T "ALBUM=%albumtitle%" -T "DATE=%year%" -T "TRACKNUMBER=%tracknr%" -T "TOTALTRACKS=%numtracks%" -T "GENRE=%genre%" -T "ALBUMARTIST=%albumartist%" -T "ALBUM ARTIST=%albumartist%" -T "COMMENT=EAC Secure Mode, Test & Copy, AccurateRip, FLAC -8" %source%


TOC of the extracted CD

Track | Start | Length | Start sector | End sector
––––––––––––––––––––––––––––-
1 | 0:00.00 | 7:27.24 | 0 | 33548
2 | 7:27.24 | 8:49.21 | 33549 | 73244
3 | 16:16.45 | 0:56.35 | 73245 | 77479
4 | 17:13.05 | 9:04.25 | 77480 | 118304
5 | 26:17.30 | 0:36.55 | 118305 | 121059
6 | 26:54.10 | 8:47.32 | 121060 | 160616
7 | 35:41.42 | 0:50.44 | 160617 | 164410
8 | 36:32.11 | 8:23.03 | 164411 | 202138
9 | 44:55.14 | 0:57.53 | 202139 | 206466
10 | 45:52.67 | 9:19.70 | 206467 | 248461
11 | 55:12.62 | 1:05.63 | 248462 | 253399
12 | 56:18.50 | 7:42.22 | 253400 | 288071
13 | 64:00.72 | 2:44.02 | 288072 | 300373
14 | 66:44.74 | 0:33.72 | 300374 | 302920
15 | 67:18.71 | 6:22.56 | 302921 | 331626


Track 1

Filename F:\Flac Rips\01 - Alejet.wav

Pre-gap length 0:00:02.00

Peak level 98.9 %
Extraction speed 4.3 X
Track quality 100.0 %
Test CRC 51151AC9
Copy CRC 51151AC9
Track not present in AccurateRip database
Copy OK

Track 2

Filename F:\Flac Rips\02 - El Alba.wav

Peak level 98.9 %
Extraction speed 5.2 X
Track quality 100.0 %
Test CRC C9EEA7FE
Copy CRC C9EEA7FE
Track not present in AccurateRip database
Copy OK

Track 3

Filename F:\Flac Rips\03 - Interludio I.wav

Peak level 88.6 %
Extraction speed 3.4 X
Track quality 100.0 %
Test CRC 82CBDA35
Copy CRC 82CBDA35
Track not present in AccurateRip database
Copy OK

Track 4

Filename F:\Flac Rips\04 - Alternativo Sketches.wav

Peak level 98.9 %
Extraction speed 6.0 X
Track quality 100.0 %
Test CRC EC64F13C
Copy CRC EC64F13C
Track not present in AccurateRip database
Copy OK

Track 5

Filename F:\Flac Rips\05 - Interludio II.wav

Peak level 87.0 %
Extraction speed 3.3 X
Track quality 100.0 %
Test CRC 3E538CD6
Copy CRC 3E538CD6
Track not present in AccurateRip database
Copy OK

Track 6

Filename F:\Flac Rips\06 - Madre Mia.wav

Peak level 98.9 %
Extraction speed 6.7 X
Track quality 100.0 %
Test CRC A375E204
Copy CRC A375E204
Track not present in AccurateRip database
Copy OK

Track 7

Filename F:\Flac Rips\07 - Interludio III.wav

Peak level 98.8 %
Extraction speed 4.2 X
Track quality 100.0 %
Test CRC 18C461DF
Copy CRC 18C461DF
Track not present in AccurateRip database
Copy OK

Track 8

Filename F:\Flac Rips\08 - So All Freddie.wav

Peak level 98.9 %
Extraction speed 7.2 X
Track quality 100.0 %
Test CRC 89848AFF
Copy CRC 89848AFF
Track not present in AccurateRip database
Copy OK

Track 9

Filename F:\Flac Rips\09 - Interludio IV.wav

Peak level 98.8 %
Extraction speed 4.8 X
Track quality 100.0 %
Test CRC 3F186A93
Copy CRC 3F186A93
Track not present in AccurateRip database
Copy OK

Track 10

Filename F:\Flac Rips\10 - Rumba Connection.wav

Peak level 98.9 %
Extraction speed 7.9 X
Track quality 100.0 %
Test CRC 20245135
Copy CRC 20245135
Track not present in AccurateRip database
Copy OK

Track 11

Filename F:\Flac Rips\11 - Interludio V.wav

Peak level 90.9 %
Extraction speed 5.5 X
Track quality 100.0 %
Test CRC EA0F2315
Copy CRC EA0F2315
Track not present in AccurateRip database
Copy OK

Track 12

Filename F:\Flac Rips\12 - Angustiado.wav

Peak level 98.9 %
Extraction speed 8.2 X
Track quality 100.0 %
Test CRC E555FD92
Copy CRC E555FD92
Track not present in AccurateRip database
Copy OK

Track 13

Filename F:\Flac Rips\13 - Angustiado Reprise.wav

Peak level 98.8 %
Extraction speed 5.4 X
Track quality 99.9 %
Test CRC 7BC46D7F
Copy CRC 7BC46D7F
Track not present in AccurateRip database
Copy OK

Track 14

Filename F:\Flac Rips\14 - Interludio VI.wav

Peak level 58.3 %
Extraction speed 4.2 X
Track quality 100.0 %
Test CRC 2CEA8C29
Copy CRC 2CEA8C29
Track not present in AccurateRip database
Copy OK

Track 15

Filename F:\Flac Rips\15 - Calling Eggun.wav

Peak level 98.8 %
Extraction speed 8.6 X
Track quality 100.0 %
Test CRC 542917CB
Copy CRC 542917CB
Track not present in AccurateRip database
Copy OK


None of the tracks are present in the AccurateRip database

No errors occurred

End of status report

==== Log checksum 4616FD8243147CABEBD54616D773AA582163789415ACC2D7003E7202DC2EBDE5 ====


––––––––––––––––––––––––––––––––––––––––
Analyzed: Omar Sosa / Eggun [World Village WVF479079]
––––––––––––––––––––––––––––––––––––––––

DR Peak RMS Duration Track
––––––––––––––––––––––––––––––––––––––––
DR7 -0.10 dB -8.80 dB 7:27 01-Alejet
DR8 -0.10 dB -10.39 dB 8:49 02-El Alba
DR12 -1.05 dB -14.37 dB 0:56 03-Interludio I
DR7 -0.10 dB -8.82 dB 9:04 04-Alternativo Sketches
DR10 -1.20 dB -13.75 dB 0:37 05-Interludio II
DR6 -0.10 dB -8.33 dB 8:47 06-Madre Mia
DR10 -0.10 dB -13.62 dB 0:51 07-Interludio III
DR8 -0.10 dB -9.89 dB 8:23 08-So All Freddie
DR10 -0.10 dB -13.02 dB 0:58 09-Interludio IV
DR7 -0.10 dB -9.04 dB 9:20 10-Rumba Connection
DR8 -0.82 dB -10.36 dB 1:06 11-Interludio V
DR7 -0.10 dB -9.50 dB 7:42 12-Angustiado
DR12 -0.10 dB -15.91 dB 2:44 13-Angustiado Reprise
DR9 -4.68 dB -18.15 dB 0:34 14-Interludio VI
DR10 -0.10 dB -12.36 dB 6:23 15-Calling Eggun
––––––––––––––––––––––––––––––––––––––––

Number of tracks: 15
Official DR value: DR9

Samplerate: 44100 Hz
Channels: 2
Bits per sample: 16
Bitrate: 722 kbps
Codec: FLAC
================================================================================

Omar Sosa - Eggun (2013) {World Village}
Omar Sosa - Eggun (2013) {World Village}
Omar Sosa - Eggun (2013) {World Village}


Thanks to the original ripper