Subcategories

Omega - Idõrabló (Timerobber) (1977) [Reissue 2002]

Posted By: gribovar
Omega - Idõrabló (Timerobber) (1977) [Reissue 2002]

Omega - Idõrabló (Timerobber) (1977) [Reissue 2002]
EAC Rip | FLAC (image+.cue+log) - 501 MB | MP3 CBR 320 kbps (LAME 3.93) - 182 MB | Covers included
Genre: Progressive Rock | RAR 3% Rec. | Label: MEGA (MCDA 87617), Remastered

The seventh Hungarian release marks the attempt of Omega to shift their sound into more space-rock defined style. The album was released in two versions: one with Hungarian vocals, the other in English. The opening tri-partite title track only suggests the expansion of their sound, with repetitive guitar chords and synth background, but never really gets anywhere. Add to this Kobor's vocals spoiled with ugly echo effects and you get dissappointed right away. At best it can be described as close to better moments of Jane, Uriah Heep or Yugoslavian contemporaries Drugi Nacin.
The following two tracks are even worse, pretty mediocre and dull hard rock, that sound very much like fillers of album space. What saves Idorablo and actually pushes it into the class of good, decent prog albums, are the next two tracks. They contain valuable elements of space-rock a la Floyd or Eloy (Nelkuled) and of symphonic rock sound (Ejfeli koncert) that can justify its purchase by prog community. This by no means should be understood as a praise of the album as a whole. Just, it means it is worthy of a spin or two, especially the phenomenal ballad Nelkuled!
Progarchives
Tracklist:

Hungarian version:
01. Napot Hoztam, Csillago
02. Idõrabló
03. Ablakok
04. A Névtelen Utazó
05. A Könyvelõ álma
06. Nélküled
07. Éjféli Koncert

English version:
08. House Of Cards Part I
09. Timerobber
10. House Of Cards Part II
11. Invitation
12. Don't Keep Me Waiting
13. An Accountant's Dream
14. Late Night Show

Total time: 01:09:41

Exact Audio Copy V0.99 prebeta 1 from 25. May 2007

Отчёт EAC об извлечении, выполненном 31. августа 2008, 11:12

Omega / Idorablo (Timerobber)

Дисковод: PIONEER DVD-RW DVR-212D Adapter: 1 ID: 1

Режим чтения : Достоверность
Использование точного потока : Да
Отключение кэша аудио : Да
Использование указателей C2 : Нет

Коррекция смещения при чтении : 48
Способность читать области Lead-in и Lead-out : Нет
Заполнение пропущенных сэмплов тишиной : Да
Удаление блоков с тишиной в начале и конце : Нет
Интерфейс : Установленный внешний ASPI-интерфейс

Выходной формат : Пользовательский кодировщик
Выбранный битрейт : 768 kBit/s
Качество : Высокий
Добавление ID3-тэга : Нет
Утилита сжатия : C:\Program Files\Exact Audio Copy\FLAC\FLAC.EXE
Дополнительные параметры : -6 -V -T "ARTIST=%a" -T "TITLE=%t" -T "ALBUM=%g" -T "DATE=%y" -T "TRACKNUMBER=%n" -T "GENRE=%m" -T "COMMENT=%e" %s -o %d


TOC извлечённого CD

Трек | Старт | Длительность | Начальный сектор | Конечный сектор
––––––––––––––––––––––––––––––––––-
1 | 0:00.00 | 5:39.25 | 0 | 25449
2 | 5:39.25 | 2:56.66 | 25450 | 38715
3 | 8:36.16 | 3:26.31 | 38716 | 54196
4 | 12:02.47 | 5:24.01 | 54197 | 78497
5 | 17:26.48 | 3:39.53 | 78498 | 94975
6 | 21:06.26 | 7:04.54 | 94976 | 126829
7 | 28:11.05 | 5:49.10 | 126830 | 153014
8 | 34:00.15 | 5:46.68 | 153015 | 179032
9 | 39:47.08 | 2:57.47 | 179033 | 192354
10 | 42:44.55 | 3:40.68 | 192355 | 208922
11 | 46:25.48 | 5:42.13 | 208923 | 234585
12 | 52:07.61 | 7:21.43 | 234586 | 267703
13 | 59:29.29 | 3:37.36 | 267704 | 284014
14 | 63:06.65 | 6:33.54 | 284015 | 313543


Характеристики диапазона извлечения и сообщения об ошибках

Выбранный диапазон

Имя файла E:\TORRENT\Omega (1977) - VII\Omega - Idorablo (Timerobber).wav

Пиковый уровень 100.0 %
Качество диапазона 100.0 %
CRC теста 03AE3AFA
CRC копии 03AE3AFA
Копирование… OK


AccurateRip: сводка

Трек 1 нет в базе данных
Трек 2 нет в базе данных
Трек 3 нет в базе данных
Трек 4 нет в базе данных
Трек 5 нет в базе данных
Трек 6 нет в базе данных
Трек 7 нет в базе данных
Трек 8 нет в базе данных
Трек 9 нет в базе данных
Трек 10 нет в базе данных
Трек 11 нет в базе данных
Трек 12 нет в базе данных
Трек 13 нет в базе данных
Трек 14 нет в базе данных

Ошибок не произошло

Конец отчёта

[CUETools log; Date: 26.11.2015 19:36:54; Version: 2.1.4]
[CTDB TOCID: J.hqjZDskxESw00KJ7xpefNuvvQ-] found.
Track | CTDB Status
1 | (9/9) Accurately ripped
2 | (9/9) Accurately ripped
3 | (9/9) Accurately ripped
4 | (9/9) Accurately ripped
5 | (9/9) Accurately ripped
6 | (9/9) Accurately ripped
7 | (9/9) Accurately ripped
8 | (9/9) Accurately ripped
9 | (9/9) Accurately ripped
10 | (9/9) Accurately ripped
11 | (9/9) Accurately ripped
12 | (9/9) Accurately ripped
13 | (9/9) Accurately ripped
14 | (9/9) Accurately ripped
[AccurateRip ID: 00225c42-017243c3-d810540e] found.
Track [ CRC | V2 ] Status
01 [05ffc9d9|ef2a925a] (04+08/12) Accurately ripped
02 [bee25683|290b870f] (04+09/15) Accurately ripped
03 [eb013503|d3232e30] (04+09/15) Accurately ripped
04 [a3350618|e933ae0b] (04+09/15) Accurately ripped
05 [b6708f6a|e477e918] (04+09/15) Accurately ripped
06 [bebfc350|d88df91f] (04+09/15) Accurately ripped
07 [b6f090ab|30705aef] (04+09/15) Accurately ripped
08 [2ce79b30|5712796c] (03+09/14) Accurately ripped
09 [d1b45d0d|fe57cb5b] (03+09/14) Accurately ripped
10 [b2d55423|d4a66b68] (03+09/14) Accurately ripped
11 [b243dd2c|ca8849d2] (03+09/14) Accurately ripped
12 [353704e5|742c3a5f] (03+09/14) Accurately ripped
13 [86927cb2|7c33a14a] (03+09/14) Accurately ripped
14 [0e32eee8|bed2a58e] (03+10/15) Accurately ripped
Offsetted by 66:
01 [4a286e19] (00/12) No match (V2 was not tested)
02 [f23a016e] (02/15) Accurately ripped
03 [8d7e2437] (02/15) Accurately ripped
04 [5ea36219] (02/15) Accurately ripped
05 [518339d9] (02/15) Accurately ripped
06 [72346d34] (02/15) Accurately ripped
07 [9d7d8814] (02/15) Accurately ripped
08 [017690ba] (02/14) Accurately ripped
09 [fb84e44e] (02/14) Accurately ripped
10 [4bba607c] (02/14) Accurately ripped
11 [f331f8c6] (02/14) Accurately ripped
12 [ee046c7b] (02/14) Accurately ripped
13 [19ee6084] (02/14) Accurately ripped
14 [498dcbd4] (02/15) Accurately ripped

Track Peak [ CRC32 ] [W/O NULL] [ LOG ]
– 100,0 [0BB2544D] [03AE3AFA] W/O NULL
01 99,9 [D6E9C08B] [4131FDA8]
02 99,9 [7C0FAAEA] [A4E12D9E]
03 99,9 [E1E9974F] [416C4121]
04 99,9 [E3D0488B] [ACB58CE2]
05 99,9 [FAAC297C] [7F8736CC]
06 99,9 [F0D54B0C] [F28A629D]
07 99,9 [8D25BE43] [34E81D37]
08 100,0 [35E2C51C] [3C7C2850]
09 99,9 [751E0CC1] [810C532F]
10 99,9 [60FDAE36] [4F0123A4]
11 100,0 [A4E13915] [D3B41533]
12 99,9 [A3B3C894] [7013AC81]
13 100,0 [467004C8] [94EA68B4]
14 100,0 [BB1F0671] [E71A3928]

Thanks to Fragile59

LOSSLESS:
Nitroflare.com
_______________

MP3 320 kbps:
Nitroflare.com


LOSSLESS:
Depositfiles.com
_______________

MP3 320 kbps:
Depositfiles.com