Tags
Language
Tags

One Shot - Integral 1999/2010 (2015) [5CD Box Set]

Posted By: v3122
One Shot - Integral 1999/2010 (2015) [5CD Box Set]

One Shot - Integral 1999/2010 (2015)
EAC | Flac(Image) + Cue + Log & MP3 CBR 320Kbps
Le Triton, TRI-16530 | ~ 2165 or 735 Mb | Scans(png) -> 367 Mb
Progressive Rock / Fusion / Zeuhl

One Shot was created in 1999 by keyboarder Emmanuel Borghi and guitarist James McGaw, both Ex-Magma musicians. The original duo was completed by bassist Philippe Bussonnet and drummer Daniel Jeand'heur for their first self-titled record, released in 1999. Originally only a demo tape, the record presents classic jazz-rock with strong influences by the Mahavishnu Orchestra. Their second record "Vendredi 13" was recorded live on April 13, 2001 in the "Cave A Musique" in Mâcon (France) and contains long instrumental compositions closer to Magma with a touch of King Crimson. In an interview the band members described their music as 'rock-jazz-progressive' with a special accent on the rock sound. In 2006 the band released their third record "Ewaz Vader" comprised of four long compositions with a harder edge, occasionally approaching metal.

~ Progarchives
One Shot - Integral 1999/2010 (2015) [5CD Box Set]

One Shot - Integral 1999/2010 (2015):

One Shot - Integral 1999/2010 (2015) [5CD Box Set]

CD1: One Shot - Reforged (1999/2009)
EAC | Flac(Image) + Cue + Log & MP3 CBR 320Kbps
Le Triton | ~ 419 or 142 Mb
Progressive Rock / Fusion / Zeuhl

One Shot is one of those French Zeuhl band that benefits from a semi-legendary status, despite the band being only around for slightly more than a decade. The wild instrumental quartet (lead by American guitarist McGaw, keyboardist Borghi and bassist Bussonet) released their debut album in 99, and followed-up with two more albums throughout the next decade. As the title of the present disc might indicate, the present album is a re- melting of their debut album (the only available version nowadays), some ten years after its original version, because they thought that the recording process was somewhat perfectible, but it's not like we're about to get an over-produced and slickest album, quite the opposite..

OS's instrumental soundscape is a typical Zeuhlian product, one that owes still to the Kobaian band, but clearly shows its personality. You will instantly recognize the French paw, despite a certain propensity of McGaw at splashing his incendiary guitar solos at the forefront. Aside McGaw's guitar pyrotechnics, you can only be impressed at Bussonet's pulsing bass and Borghi's excellent Hammond and Rhodes exhibitions, while Jeandheur's drumming is aptly responding at his musical pals' adventures. Despite the renovation of the original recording, the album has kept a very immediate in-your-face almost-jammy rawness that characterizes One Shot, much of it, courtesy of McGaw's bleeding guitar. Generally the music flies around the speed of sound, but there is a fairly welcome rest in the 10-mins with Un Jour Dans l'Est, where Borghi's Rhodes reigns king above all, before Bussonet's Riff Fantom just sends the album into Neptune's orbit, especially with Jeandheur's awesome drumming performance. Added as a bonus on this remixed, remastered and repackaged Reforged version of the album, Fleuve is a cool bonus track (a real one), but definitely jazzier and "cleaner" in terms of sonics.

Clearly Soleil Zeuhl's captain Alain has again dropped a very timely bomb in the Zeuhl microcosm (he just stroke another major blow with the reissue of eider Stellaire's debut album), but it's not like the very-involved nature of One Shot's Zeuhl music will draw big sales. Nothing to revolutionize the Zeuhlian world, but along with early Eskaton or Stellaire, this is the kind of album that perpetuates the legend of the genre, but beware that this gem is un-carved.

by Sean Trane, Progarchives
Tracklist:

1 M.D.M. 8:25
2 Monsieur G. 4:37
3 Trente Trois 5:24
4 One Shot 10:10
5 La Main Du Diable 11:26
6 Un Jour Dans L'est 10:00
7 Riff Fantom 9:23

Exact Audio Copy V1.1 from 23. June 2015

EAC extraction logfile from 19. March 2016, 11:33

One Shot / Reforged

Used drive : PIONEER BD-RW BDR-XD04 Adapter: 1 ID: 0

Read mode : Secure
Utilize accurate stream : Yes
Defeat audio cache : Yes
Make use of C2 pointers : No

Read offset correction : 667
Overread into Lead-In and Lead-Out : No
Fill up missing offset samples with silence : Yes
Delete leading and trailing silent blocks : No
Null samples used in CRC calculations : Yes
Used interface : Native Win32 interface for Win NT & 2000

Used output format : User Defined Encoder
Selected bitrate : 768 kBit/s
Quality : High
Add ID3 tag : No
Command line compressor : C:\Program Files (x86)\Exact Audio Copy\Wavpack\wavpack.exe
Additional command line options : -hm -w "Year=%year%" -w "Genre=%genre%" %source% %dest%


TOC of the extracted CD

Track | Start | Length | Start sector | End sector
––––––––––––––––––––––––––––-
1 | 0:00.00 | 8:26.63 | 0 | 38012
2 | 8:26.63 | 4:43.17 | 38013 | 59254
3 | 13:10.05 | 5:29.57 | 59255 | 83986
4 | 18:39.62 | 10:15.10 | 83987 | 130121
5 | 28:54.72 | 11:32.07 | 130122 | 182028
6 | 40:27.04 | 10:09.15 | 182029 | 227718
7 | 50:36.19 | 9:31.70 | 227719 | 270613


Range status and errors

Selected range

Filename D:\_NL+_\_CD\One Shot - Reforged.wav

Peak level 100.0 %
Extraction speed 1.5 X
Range quality 99.9 %
Test CRC 16C1CECC
Copy CRC 16C1CECC
Copy OK

No errors occurred


AccurateRip summary

Track 1 not present in database
Track 2 not present in database
Track 3 not present in database
Track 4 not present in database
Track 5 not present in database
Track 6 not present in database
Track 7 not present in database

None of the tracks are present in the AccurateRip database

End of status report

–– CUETools DB Plugin V2.1.6

[CTDB TOCID: WmwgaG6Zl3PaCT_Kk1AdzxyzUrU-] disk not present in database
Submit result: WmwgaG6Zl3PaCT_Kk1AdzxyzUrU- has been uploaded


==== Log checksum 7FBD1F8A8B58BE2D45801814A0A4F6986B9BC64470D129A6C044653F551A69CA ====

One Shot - Integral 1999/2010 (2015) [5CD Box Set]

CD2: One Shot - Vendredi 13 (2001)
EAC | Flac(Image) + Cue + Log & MP3 CBR 320Kbps
Le Triton | ~ 421 or 150 Mb
Progressive Rock / Fusion / Zeuhl

4.5 stars. What a lineup ! Former MAGMA members Emmanuel Borghi (Fender Rhodes, synths), James Mac Gaw (guitar), Philippe Bussonnet (bass) and also Daniel Jeand'heur(drums) who also recently played on AMYGDALA's second album are ONE SHOT. This is a live album recorded on Friday the 13th, hence the title in French. This could be described as dark, heavy Jazz with a lot of Zeuhl references.
"I Had A Dream Part 1" is the shortest track at over 6 minutes in length. Drums and keys open as the guitar comes in quickly.The result is a catchy, heavy sound.The bass 2 1/2 minutes in is monstrous to say the least. "I Had A Dream Part 2" is the longest song at 14 minutes. Compared to part 1 this is more adventerous and proggy and I like it better. Lots of atmosphere to open as different sounds come and go. We get a melody 2 minutes in. I love the way the guitar plays over top. More excellent guitar before 5 minutes with very chunky bass lines. The drumming is amazing in this intense section. Huge bass after 10 minutes. When it settles down after 11 minutes the crowd cheers at the sheer intensity and brilliant instrumental work that they have just witnessed. The guitar grinds away slowly to end it. "Blue Bug" opens with some deep bass that continues slowly until we start to hear the drums 2 minutes in. It's building slowly, reaching it's peak around 4 minutes before calming back down. It's 7 minutes in before it gets poweful again but settles again quickly. Nice guitar work after 7 1/2 minutes though. The intensity is rising after 9 minutes. Great sound.

"No" is the jazziest tune on here. Uptempo keys and bass 1 1/2 minutes in as the guitar starts to rip it up before 2 minutes. It sounds so impressive 3 minutes in. Jazz heaven 5 1/2 minutes in. More fast paced keys and bass 7 minutes in. "In A Wild Way" opens with some great sounding keys as bass and drums provide an excellent rhythm. The guitar is prominant early. It stays jazzy from before 2 minutes until guitar returns 8 1/2 minutes in. Mac Gaw starts to take over until he's tearing it up 10 minutes in.Nice. "Urm" is the most Zeuhl-like song on the album and my favourite, although it's hard to pick just one. It's dark early as drums pound slowly. It's building. Drums stop before 3 minutes as guitar starts to lead the way. Massive slabs of bass 3 1/2 minutes in as the tempo starts to pick up. Very Zeuhlish 5 1/2 minutes in. Lots of synths as well.The bass is thunderous as it shakes the soundscape to it's core. Killer track !

I can't recommend this high enough to the Zeuhl fans out there. In fact if your into heavy music or bass guitar, this is very much worth checking out. It couldn't be played any better i'll tell you that much.

by Mellotron Storm, Progarchives
Tracklist:

1 I Had A Dream Part 1 6:19
Composed By – E. Borghi
2 I Had A Dream Part 2 13:56
Composed By – E. Borghi
3 Blue Bug 11:19
Composed By – P. Bussonnet
4 No 9:34
Composed By – E. Borghi
5 In A Wild Way 12:11
Composed By – E. Borghi
6 Urm 10:06
Composed By – P. Bussonnet

Exact Audio Copy V1.1 from 23. June 2015

EAC extraction logfile from 19. March 2016, 16:27

One Shot / Vendredi 13

Used drive : PIONEER BD-RW BDR-XD04 Adapter: 1 ID: 0

Read mode : Secure
Utilize accurate stream : Yes
Defeat audio cache : Yes
Make use of C2 pointers : No

Read offset correction : 667
Overread into Lead-In and Lead-Out : No
Fill up missing offset samples with silence : Yes
Delete leading and trailing silent blocks : No
Null samples used in CRC calculations : Yes
Used interface : Native Win32 interface for Win NT & 2000

Used output format : User Defined Encoder
Selected bitrate : 768 kBit/s
Quality : High
Add ID3 tag : No
Command line compressor : C:\Program Files (x86)\Exact Audio Copy\Wavpack\wavpack.exe
Additional command line options : -hm -w "Year=%year%" -w "Genre=%genre%" %source% %dest%


TOC of the extracted CD

Track | Start | Length | Start sector | End sector
––––––––––––––––––––––––––––-
1 | 0:00.00 | 6:21.58 | 0 | 28632
2 | 6:21.58 | 13:58.17 | 28633 | 91499
3 | 20:20.00 | 11:21.63 | 91500 | 142637
4 | 31:41.63 | 9:36.10 | 142638 | 185847
5 | 41:17.73 | 12:13.72 | 185848 | 240894
6 | 53:31.70 | 10:07.53 | 240895 | 286472


Range status and errors

Selected range

Filename D:\_NL+_\_CD\One Shot - Vendredi 13.wav

Peak level 100.0 %
Extraction speed 3.4 X
Range quality 99.9 %
Test CRC EB181D3B
Copy CRC EB181D3B
Copy OK

No errors occurred


AccurateRip summary

Track 1 not present in database
Track 2 not present in database
Track 3 not present in database
Track 4 not present in database
Track 5 not present in database
Track 6 not present in database

None of the tracks are present in the AccurateRip database

End of status report

–– CUETools DB Plugin V2.1.6

[CTDB TOCID: Y60pXoMc_PG1Wjy6EGP8PPydE6w-] disk not present in database
Submit result: Y60pXoMc_PG1Wjy6EGP8PPydE6w- has been uploaded


==== Log checksum 1B004515C2ED88701994B5A4910FFB683FFA2CC15444452D9C2BD950A5203591 ====

One Shot - Integral 1999/2010 (2015) [5CD Box Set]

CD3: One Shot - Ewaz Vader (2006)
EAC | Flac(Image) + Cue + Log & MP3 CBR 320Kbps
Le Triton | ~ 370 or 128 Mb
Progressive Rock / Fusion / Zeuhl

Jazz-Rock from France. Mainly inspired by Mahavishnu Orchestra, but as with seemingly all modern progressive bands from that country, the looming shadow of Magma is unavoidable. Of course, in case of One Shot, that shouldn't surprise anyone. Both the keyboard player Emmanuel Borghi, the guitar player James McGaw and bass sensation Philippe Bussonnet have made regular appearances in the Magma line-up since 2000.
One Shot don't play Zeuhl though, but rather heavily rocking dark instrumental jazz-rock where only the steady rhythms and repetitive bass patterns are reminiscent of Magma. The guitar is much more prominent and also the keyboards add greatly to the sound.

Things start with a blast on Ewaz Vader, a rocking backbeat with drilling Magma bass loops and twirling Fripp guitar riffs. The intensity doesn't drop for a minute on this one. Fat slows the speed to a brooding mid-paced jazz-rock jam with clear Mahavishnu Orcestra influences in the keyboard playing. The track builds up to a wild but controlled chaos. This track has an organic flow and dynamics that most post-rock bands can only dream of. Also I Had A Dream starts in a pensive jazzy mood before it starts shifting gears to its furious finale. Missing Imperator is another one for the Crimson fans, with its abundance of heavy riffs and groovy drum and bass interplay.

Listening to these musicians makes you speechless, so proficient yet playing so tightly together. Why is this band so obscure? I also wouldn't have heard of them if it wasn't for PA's Master Of Dark Prog-Arts Sinkadotentree. Thanks mate!

This album should mesmerise every fan of King Crimson's Red and Mahavishnu Orchestra in a heavy rock-out mood. Also the masses supporting bands like Magma, Guapo and Nebelnest should watch out for this.

by Bonnek, Progarchives
Tracklist:

1 Ewaz Vader 10:32
Written-By – P. Bussonnet
2 Fat 15:38
Written-By – E. Borghi
3 I Had A Dream (Part III & IV) 14:47
Written-By – E. Borghi
4 Missing Imperator 13:11
Written-By – J. Mac Gaw

Exact Audio Copy V1.1 from 23. June 2015

EAC extraction logfile from 19. March 2016, 15:42

One Shot / Ewaz Vader

Used drive : PIONEER BD-RW BDR-XD04 Adapter: 1 ID: 0

Read mode : Secure
Utilize accurate stream : Yes
Defeat audio cache : Yes
Make use of C2 pointers : No

Read offset correction : 667
Overread into Lead-In and Lead-Out : No
Fill up missing offset samples with silence : Yes
Delete leading and trailing silent blocks : No
Null samples used in CRC calculations : Yes
Used interface : Native Win32 interface for Win NT & 2000

Used output format : User Defined Encoder
Selected bitrate : 768 kBit/s
Quality : High
Add ID3 tag : No
Command line compressor : C:\Program Files (x86)\Exact Audio Copy\Wavpack\wavpack.exe
Additional command line options : -hm -w "Year=%year%" -w "Genre=%genre%" %source% %dest%


TOC of the extracted CD

Track | Start | Length | Start sector | End sector
––––––––––––––––––––––––––––-
1 | 0:00.00 | 10:34.25 | 0 | 47574
2 | 10:34.25 | 15:40.17 | 47575 | 118091
3 | 26:14.42 | 14:50.09 | 118092 | 184850
4 | 41:04.51 | 13:11.69 | 184851 | 244244


Range status and errors

Selected range

Filename D:\_NL+_\_CD\One Shot - Ewaz Vader.wav

Peak level 98.8 %
Extraction speed 1.4 X
Range quality 99.9 %
Test CRC 0A1F1F37
Copy CRC 0A1F1F37
Copy OK

No errors occurred


AccurateRip summary

Track 1 not present in database
Track 2 not present in database
Track 3 not present in database
Track 4 not present in database

None of the tracks are present in the AccurateRip database

End of status report

–– CUETools DB Plugin V2.1.6

[CTDB TOCID: VkGx4e7a3K6CJ8g61tD3azMUTzA-] disk not present in database
Submit result: VkGx4e7a3K6CJ8g61tD3azMUTzA- has been uploaded


==== Log checksum 363211B826469D19E9BC9C883736C344751ACE38A8ED85AF041099F2C57C984D ====

One Shot - Integral 1999/2010 (2015) [5CD Box Set]

CD4: One Shot - Dark Shot (2008)
EAC | Flac(Image) + Cue + Log & MP3 CBR 320Kbps
Le Triton | ~ 400 or 130 Mb
Progressive Rock / Fusion / Zeuhl

Three of the four members of this band have a Zeuhl background as they all have played in MAGMA. I'm talking about James Mac Gaw-guitar, Emmanuel Borghi-keyboards and Philippe Bussonnet-bass. Daniel Jeand'heur is one of my favourite drummers as well. He played on AMYGDALA's latest and was simply outstanding. This is truly a band effort as 3 of the 4 members composed 2 songs each, and Mac Gaw composed the other one. These guys are truly brilliant musicians who play a heavy, dark and atmospheric brand of Jazz that I cannot get enough of. This band is one of my top ten of all time favourite bands, which for me really speaks volumes about how I feel about them.
"Black P" is a Bussonnet composition and one of my top three songs on here. The way it opens with the dark keys and bass really brings MAGMA to mind before a full sound takes over quickly. Some feedback from Mac Gaw's guitar as the bass chugs along. Borghi becomes more prominant on keys before 4 minutes. Nice. Incredible sound before 5 minutes. I just can't praise this song enough. "Opus 12" is a Borghi tune. Keys not surprisingly lead the way in this more uptempo song. Again I just love the sound. Bussonnet is a genius on bass. This one is more jazzy than the first track. The tempo slows down 3 minutes in as James solos on his guitar. Philippe takes over on his bass after 5 minutes. "Def MK1" is Daniel's song. This one is darker and slower with keys and bass standing out, although the drums are active they are light at this point. The song gets heavier after 4 1/2 minutes. Great sound. Some angular guitar 6 minutes in starts to rip it up as Bussonnet offers up slabs of heavy bass. Check out the drumming 8 1/2 minutes in !

"Blade" is a Bussonnet composition and the shortest track at just under 5 minutes. It opens with a dark atmospheric soundscape as cymbals clash and keys come in. It ends as it began. A very cool song. "Automate" is Borghi's tune. It opens dramatically.This has a sinister vibe to it as the deep molten bass comes in and drums pound at a mid pace. Keys arrive as haunting guitar sounds come and go. Borghi starts to take a more prominant role before 4 minutes. Themes are repeated. "Downwards" is Mac Gaw's track and one of top three. The guitar fortunately takes a big role in this one. We get a nice heavy backdrop as James just lights it up throughout the 9 minutes. Amazing ! "Nosh Partitas" is Daniel's second tune. Great drum intro as it then settles down quickly as keys and bass take over. Incredible sounding guitar 2 minutes in as it grinds away before turning angular. Keys take over a minute later. The bass is just throbbing.

So hard to pick between this one and their earlier masterpiece "Ewaz Vader". By the way this one comes with a fantastic DVD of them playing in concert earlier this year. With Jannick Top's new record, and this new one from ONE SHOT I feel that 2008 has already been a huge success.

by Mellotron Storm, Progarchives
Tracklist:

1 Black P 9:09
Written-By – Philippe Bussonnet
2 Opus 12 7:52
Written-By – Emmanuel Borghi
3 Def MK1 9:48
Written-By – Daniel Jeand'heur
4 Blade 4:54
Written-By – Philippe Bussonnet
5 Automate 7:29
Written-By – Emmanuel Borghi
6 Downwards 9:10
Written-By – James Mac Gaw
7 Nosh Partitas 5:56
Written-By – Daniel Jeand'heur

Exact Audio Copy V1.1 from 23. June 2015

EAC extraction logfile from 19. March 2016, 17:28

One Shot / Dark Shot

Used drive : PIONEER BD-RW BDR-XD04 Adapter: 1 ID: 0

Read mode : Secure
Utilize accurate stream : Yes
Defeat audio cache : Yes
Make use of C2 pointers : No

Read offset correction : 667
Overread into Lead-In and Lead-Out : No
Fill up missing offset samples with silence : Yes
Delete leading and trailing silent blocks : No
Null samples used in CRC calculations : Yes
Used interface : Native Win32 interface for Win NT & 2000

Used output format : User Defined Encoder
Selected bitrate : 768 kBit/s
Quality : High
Add ID3 tag : No
Command line compressor : C:\Program Files (x86)\Exact Audio Copy\Wavpack\wavpack.exe
Additional command line options : -hm -w "Year=%year%" -w "Genre=%genre%" %source% %dest%


TOC of the extracted CD

Track | Start | Length | Start sector | End sector
––––––––––––––––––––––––––––-
1 | 0:00.00 | 9:14.30 | 0 | 41579
2 | 9:14.30 | 8:00.02 | 41580 | 77581
3 | 17:14.32 | 9:55.53 | 77582 | 122259
4 | 27:10.10 | 4:59.24 | 122260 | 144708
5 | 32:09.34 | 7:34.16 | 144709 | 178774
6 | 39:43.50 | 9:17.35 | 178775 | 220584
7 | 49:01.10 | 5:57.24 | 220585 | 247383


Range status and errors

Selected range

Filename D:\_NL+_\_CD\One Shot - Dark Shot.wav

Peak level 97.7 %
Extraction speed 4.5 X
Range quality 99.9 %
Test CRC 5F5EBC35
Copy CRC 5F5EBC35
Copy OK

No errors occurred


AccurateRip summary

Track 1 not present in database
Track 2 not present in database
Track 3 not present in database
Track 4 not present in database
Track 5 not present in database
Track 6 not present in database
Track 7 not present in database

None of the tracks are present in the AccurateRip database

End of status report

–– CUETools DB Plugin V2.1.6

[CTDB TOCID: 2HNPurwxZY8t7SyXZfM5o1SsXME-] disk not present in database
Submit result: 2HNPurwxZY8t7SyXZfM5o1SsXME- has been uploaded


==== Log checksum E32A039BEFBFED5DAA487B24757A7C5988E844C698D37475C920759879CE69C2 ====

One Shot - Integral 1999/2010 (2015) [5CD Box Set]

CD5: One Shot - Live In Tokyo (2010)
EAC | Flac(Image) + Cue + Log & MP3 CBR 320Kbps
Le Triton | ~ 556 or 184 Mb
Progressive Rock / Fusion / Zeuhl

This live set recorded in Tokyo during One Shot's tour of Japan in 2010 is simply a breathtaking, blistering performance. The sound quality of the recording is absolutely first rate, the separation of the individual instruments remarkable as well as the overall clarity. This recording is our introduction to the newest member of the band, keyboardist Bruno Ruder, and he certainly does not disappoint with his playing throughout the record. While all the musicians deliver outstanding performances, it is worth noting that Daniel Jeand'heur has over the years honed his craft, and evidence of this is fully displayed here - he plays with such ferocious precision that calls to mind the late great Pip Pyle at times. Then of course we have one of the premier modern masters of the bass guitar; Bussonnet does nothing short of giving us one of the finest performances of his career.
This is the one of those records where the only knock on it is it might be too short! While the album is fantastic start to finish, a wonderful highlight for me personally was the performance of Ewaz Vader - the band took what was already a great studio cut to the next level, with an intense, unrelenting rendition.

It's easy to run out of superlatives for this record. One Shot has clearly established themselves at the forefront of modern jazz-rock outfits. For fans of zeuhl and high-energy jazz-rock, this release simply must be obtained. 4.5 stars - I was sorely tempted to round to 5. Highest possible recommendation.

by Padraic, Progarchives
Tracklist:

1 URM 11:34
Composed By – Philippe Bussonnet
2 Black P. 9:26
Composed By – Philippe Bussonnet
3 Def MK1 11:03
Composed By – Daniel Jeand'heur
4 Ewaz Vader 9:43
Composed By – Philippe Bussonnet
5 Missing Imperator 13:05
Composed By – James Mac Gaw
6 Monsieur G. 8:41
Composed By – Daniel Jeand'heur
Guitar – Kido Natsuki

Exact Audio Copy V1.1 from 23. June 2015

EAC extraction logfile from 19. March 2016, 12:09

One Shot / Live In Tokyo

Used drive : PIONEER BD-RW BDR-XD04 Adapter: 1 ID: 0

Read mode : Secure
Utilize accurate stream : Yes
Defeat audio cache : Yes
Make use of C2 pointers : No

Read offset correction : 667
Overread into Lead-In and Lead-Out : No
Fill up missing offset samples with silence : Yes
Delete leading and trailing silent blocks : No
Null samples used in CRC calculations : Yes
Used interface : Native Win32 interface for Win NT & 2000

Used output format : User Defined Encoder
Selected bitrate : 768 kBit/s
Quality : High
Add ID3 tag : No
Command line compressor : C:\Program Files (x86)\Exact Audio Copy\Wavpack\wavpack.exe
Additional command line options : -hm -w "Year=%year%" -w "Genre=%genre%" %source% %dest%


TOC of the extracted CD

Track | Start | Length | Start sector | End sector
––––––––––––––––––––––––––––-
1 | 0:00.00 | 11:35.72 | 0 | 52196
2 | 11:35.72 | 9:27.70 | 52197 | 94791
3 | 21:03.67 | 11:05.37 | 94792 | 144703
4 | 32:09.29 | 9:44.67 | 144704 | 188570
5 | 41:54.21 | 13:07.15 | 188571 | 247610
6 | 55:01.36 | 8:42.28 | 247611 | 286788
7 | 63:43.64 | 14:04.20 | 286789 | 350108


Range status and errors

Selected range

Filename D:\_NL+_\_CD\One Shot - Live In Tokyo.wav

Peak level 97.7 %
Extraction speed 5.0 X
Range quality 100.0 %
Test CRC 2B12D84C
Copy CRC 2B12D84C
Copy OK

No errors occurred


AccurateRip summary

Track 1 not present in database
Track 2 not present in database
Track 3 not present in database
Track 4 not present in database
Track 5 not present in database
Track 6 not present in database
Track 7 not present in database

None of the tracks are present in the AccurateRip database

End of status report

–– CUETools DB Plugin V2.1.6

[CTDB TOCID: XvVwNDDsoGnpt7GKC5NsF2ELUtw-] disk not present in database
Submit result: XvVwNDDsoGnpt7GKC5NsF2ELUtw- has been uploaded


==== Log checksum 60F2DADA654C21A15394CD9E74A2600FC07EE1D69D2AE462391F645346792DD6 ====

One Shot - Integral 1999/2010 (2015) [5CD Box Set]

All thanks go to tatuk

Download One Shot - Integral 1999/2010 (2015):