Tags
Language
Tags

Opeth - Heritage (2011) (Re-up)

Posted By: gribovar
Opeth - Heritage (2011) (Re-up)

Opeth - Heritage (2011)
EAC Rip | FLAC (image+.cue+log) - 284 MB | MP3 CBR 320 kbps (LAME 3.93) - 134 MB | Covers - 143 MB
Genre: Progressive Metal | RAR 3% Rec. | Label: Roadrunner Records (1686-177052)

Heritage, Opeth's tenth studio offering, finds the Swedish band abandoning death metal: no growled vocals, no blistering fast power riffs, no blastbeats. Mixed by Steven Wilson (Porcupine Tree, King Crimson) and engineered by Janne Hansson, Heritage is easily Opeth's most musically adventurous - and indulgent - recording. Written primarily by vocalist/guitarist Mikael Åkerfeldt, these ten songs are drenched in instrumental interludes, knotty key and chord changes, shifting time signatures, clean vocals, and a keyboard-heavy instrumentation that includes Mellotrons, Rhodes pianos, and Hammond organs - ironic since keyboardist Per Wiberg left the band after Heritage was completed. Opening with the title track, a haunting solo piano instrumental, it careens into the explosive "The Devil's Orchard," with spectacular, arpeggiatic guitar work by Fredrik Åkesson and matching drums by Martin Axenrot. With a huge, swirling B-3 in the backdrop, it melds progressive metal to prog rock, with Åkerfeldt's clear, clean singing. "I Feel the Dark" marries Åkerfeldt's classical guitar to piano, flute, a droning Martin Mendez bassline, and double-timed, quietly tense drum kit work. "Slither" sounds like Motörhead meeting early-'70s Deep Purple. "Nepenthe" begins as a ballad but shifts toward jazz-rock in the instrumental break before finding its way back to a middle ground with sparse instrumentation and taut dynamics. "Haxprogress" draws real inspiration from early King Crimson; Mellotrons and nylon-string guitars give way to Åkerfeldt's crooning, thundering basslines, and syncopated drums. At eight-and-a-half minutes, "Famine" is the album's most abstract cut, with guest Alex Acuña adding Latin percussion to the mix, creating spaciousness in a long intro before giving way to colliding prog rock at the seam where King Crimson's "Larks Tongues in Aspic, Pt. 2" meets Jethro Tull's "Thick as a Brick." "The Lines in My Hand" is the set's most aggressive cut, with a deeply satisfying guitar crunch. "Folklore," with its myriad instrumental and vocal parts, complex melody, and breakbeats, comes off as an eight-minute suite before closing with another jazz- and folk-inflected instrumental entitled "Marrow of the Earth." Love it or hate it, Heritage, for its many excesses and sometimes blurry focus, is a brave album. It opens the door for Opeth to pursue many new directions and reinvent themselves as a band.

Tracklist:
01. Heritage
02. The Devil's Orchard
03. I Feel the Dark
04. Slither
05. Nepenthe
06. Haxprocess
07. Famine
08. The Lines in My Hand
09. Folklore
10. Marrow of the Earth

Total time: 57:04

Exact Audio Copy V1.1 from 23. June 2015

EAC extraction logfile from 26. February 2017, 21:24

Opeth / Heritage

Used drive : HL-DT-STBD-RE WH16NS40 Adapter: 6 ID: 0

Read mode : Secure
Utilize accurate stream : Yes
Defeat audio cache : Yes
Make use of C2 pointers : No

Read offset correction : 6
Overread into Lead-In and Lead-Out : No
Fill up missing offset samples with silence : Yes
Delete leading and trailing silent blocks : No
Null samples used in CRC calculations : Yes
Used interface : Installed external ASPI interface

Used output format : Internal WAV Routines
Sample format : 44.100 Hz; 16 Bit; Stereo


TOC of the extracted CD

Track | Start | Length | Start sector | End sector
––––––––––––––––––––––––––––-
1 | 0:00.00 | 2:05.04 | 0 | 9378
2 | 2:05.04 | 6:39.50 | 9379 | 39353
3 | 8:44.54 | 6:40.30 | 39354 | 69383
4 | 15:25.09 | 4:02.73 | 69384 | 87606
5 | 19:28.07 | 5:39.74 | 87607 | 113105
6 | 25:08.06 | 6:57.54 | 113106 | 144434
7 | 32:05.60 | 8:31.73 | 144435 | 182832
8 | 40:37.58 | 3:48.55 | 182833 | 199987
9 | 44:26.38 | 8:19.10 | 199988 | 237422
10 | 52:45.48 | 4:18.67 | 237423 | 256839


Range status and errors

Selected range

Filename Z:\data\hexonut\Seeding\Opeth\2011-Heritage\2011-Heritage [Roadrunner Records, US, 1686-177052]\Heritage.wav

Peak level 99.2 %
Extraction speed 7.6 X
Range quality 100.0 %
Test CRC C1C32A8A
Copy CRC C1C32A8A
Copy OK

No errors occurred


AccurateRip summary

Track 1 accurately ripped (confidence 200) [9E7D06BC] (AR v2)
Track 2 accurately ripped (confidence 200) [7D8219C8] (AR v2)
Track 3 accurately ripped (confidence 200) [328A57F9] (AR v2)
Track 4 accurately ripped (confidence 200) [B33EC260] (AR v2)
Track 5 accurately ripped (confidence 200) [C88D2BD6] (AR v2)
Track 6 accurately ripped (confidence 200) [B5A84B80] (AR v2)
Track 7 accurately ripped (confidence 200) [3861568B] (AR v2)
Track 8 accurately ripped (confidence 200) [1A5BD25E] (AR v2)
Track 9 accurately ripped (confidence 200) [7BBA3276] (AR v2)
Track 10 accurately ripped (confidence 200) [6B201B82] (AR v2)

All tracks accurately ripped

End of status report

==== Log checksum BA5550FEC550C8480249D37B94A2DEB44A964231061360723B9555DCF38ED8AF ====

[CUETools log; Date: 22.11.2021 20:01:51; Version: 2.1.4]
[CTDB TOCID: NFZUGBkpYU6QEbTE6VlID4hsVRI-] found.
Track | CTDB Status
1 | (1491/1493) Accurately ripped
2 | (1487/1493) Accurately ripped
3 | (1489/1493) Accurately ripped
4 | (1489/1493) Accurately ripped
5 | (1489/1493) Accurately ripped
6 | (1487/1493) Accurately ripped
7 | (1487/1493) Accurately ripped
8 | (1486/1493) Accurately ripped
9 | (1483/1493) Accurately ripped
10 | (1489/1493) Accurately ripped
[AccurateRip ID: 001473bd-00a7e8c3-870d600a] found.
Track [ CRC | V2 ] Status
01 [acf9cb1e|9e7d06bc] (071+200/306) Accurately ripped
02 [3cb6da87|7d8219c8] (070+200/306) Accurately ripped
03 [fdc520dd|328a57f9] (071+200/306) Accurately ripped
04 [a0c60acd|b33ec260] (071+200/307) Accurately ripped
05 [80b17314|c88d2bd6] (071+200/307) Accurately ripped
06 [4ba1c840|b5a84b80] (071+200/307) Accurately ripped
07 [a69351e0|3861568b] (070+200/306) Accurately ripped
08 [c640f340|1a5bd25e] (071+200/307) Accurately ripped
09 [d441abff|7bba3276] (071+200/307) Accurately ripped
10 [d021c05d|6b201b82] (071+200/306) Accurately ripped
Offsetted by -132:
01 [796a3f6c] (000/306) No match (V2 was not tested)
02 [3e37b713] (000/306) No match (V2 was not tested)
03 [4d9dfa89] (000/306) No match (V2 was not tested)
04 [77c29f35] (000/307) No match (V2 was not tested)
05 [6723bbb0] (000/307) No match (V2 was not tested)
06 [a1378690] (000/307) No match (V2 was not tested)
07 [3595cf10] (000/306) No match (V2 was not tested)
08 [b2608528] (000/307) No match (V2 was not tested)
09 [7dcd01f3] (000/307) No match (V2 was not tested)
10 [a448466f] (000/306) No match (V2 was not tested)
Offsetted by -66:
01 [1331fcc3] (000/306) No match (V2 was not tested)
02 [f556e02b] (000/306) No match (V2 was not tested)
03 [36b4a1ad] (000/306) No match (V2 was not tested)
04 [0c445501] (000/307) No match (V2 was not tested)
05 [73ea9762] (000/307) No match (V2 was not tested)
06 [766ca768] (000/307) No match (V2 was not tested)
07 [6e149078] (000/306) No match (V2 was not tested)
08 [4bc65d30] (000/307) No match (V2 was not tested)
09 [aa97d2f7] (000/307) No match (V2 was not tested)
10 [3a350be8] (000/306) No match (V2 was not tested)
Offsetted by -12:
01 [79be2ff8] (000/306) No match (V2 was not tested)
02 [95376d60] (000/306) No match (V2 was not tested)
03 [34280734] (000/306) No match (V2 was not tested)
04 [e2dd0105] (000/307) No match (V2 was not tested)
05 [acea6268] (000/307) No match (V2 was not tested)
06 [6aaf6530] (000/307) No match (V2 was not tested)
07 [6dc21770] (000/306) No match (V2 was not tested)
08 [6c002b05] (000/307) No match (V2 was not tested)
09 [cc686c8e] (000/307) No match (V2 was not tested)
10 [fab0e6a3] (000/306) No match (V2 was not tested)
Offsetted by -6:
01 [135bfd79] (000/306) No match (V2 was not tested)
02 [421f6d28] (000/306) No match (V2 was not tested)
03 [18e613e8] (000/306) No match (V2 was not tested)
04 [c1d185e9] (000/307) No match (V2 was not tested)
05 [96cdeabe] (000/307) No match (V2 was not tested)
06 [db2896b8] (000/307) No match (V2 was not tested)
07 [8a2ab4a8] (000/306) No match (V2 was not tested)
08 [85895a55] (000/307) No match (V2 was not tested)
09 [d0510c4e] (000/307) No match (V2 was not tested)
10 [65695392] (000/306) No match (V2 was not tested)
Offsetted by 6:
01 [469798e7] (000/306) No match (V2 was not tested)
02 [d79d6845] (000/306) No match (V2 was not tested)
03 [e3ab2fa3] (000/306) No match (V2 was not tested)
04 [7fba8fb1] (000/307) No match (V2 was not tested)
05 [6a94fb6a] (000/307) No match (V2 was not tested)
06 [bc1af9c8] (000/307) No match (V2 was not tested)
07 [c2fbef18] (000/306) No match (V2 was not tested)
08 [b57022ae] (000/307) No match (V2 was not tested)
09 [d84c4ba1] (000/307) No match (V2 was not tested)
10 [3ada2d04] (000/306) No match (V2 was not tested)

Track Peak [ CRC32 ] [W/O NULL] [ LOG ]
– 99,2 [C1C32A8A] [4F13E4EE] CRC32
01 89,7 [1DE365BB] [6B6A0E61]
02 99,2 [9F6F98B5] [888F9DFD]
03 99,2 [4C7A3DE6] [AA9D9229]
04 99,2 [EB84C8FA] [56E46CFE]
05 99,1 [EF9995C2] [D4AD1C60]
06 99,2 [BFB16349] [397F5369]
07 99,1 [0FA9E56A] [008BE24F]
08 99,2 [82A93371] [297F34CD]
09 99,2 [0909E4AF] [DC226A53]
10 99,1 [647E75AC] [B85CC6FC]

Thanks to hexonut

See also: