Tags
Language
Tags

Opeth - Orchid (1995) [Japanese Edition 2008]

Posted By: gribovar
Opeth - Orchid (1995) [Japanese Edition 2008]

Opeth - Orchid (1995) [Japanese Edition 2008]
EAC Rip | FLAC (image+.cue+log) - 493 MB | MP3 CBR 320 kbps (LAME 3.93) - 169 MB | Covers - 100 MB
Genre: Extreme Progressive Metal | RAR 3% Rec. | Label: Avalon/Marquee Inc. (MICP-10807)

Opeth's debut, Orchid, was quite an audacious release, a far-beyond-epic prog/death monstrosity exuding equal parts beauty and brutality - an album so brilliant, so navel-gazingly pretentious that, in retrospect, Opeth's future greatness was a foregone conclusion. Fact is, these Swedes - with the opening cut, "In Mist She Was Standing," exceeding the 14-minute mark - laid their cards on the table at the beginning of the hand and still took the pot, so ambitious and convincing is the band's artistic vision. And while the record finds the group searching for the razor-sharp focus and prominent emotional hook put forth on the later, classic releases My Arms, Your Hearse, Still Life, and Blackwater Park, Orchid is still an exhilarating listen, with the band meshing double-time death tempos with bleak, frostbitten riffs and moodily expansive, jazz-influenced, melodic instrumental passages sporting an abundance of delicate acoustic guitars and pianos. Mastermind Mikael Akerfeldt's guttural growls puncture the nearly interminable arrangements with the kind of brutality that stops die-hard death and black metal fans from giving up on the lengthy arrangements completely, although with five exorbitant cuts clocking in at ten-plus minutes (three of them over 13 minutes), some fat-trimming would have kept things even remotely manageable. Still, one has to admire Opeth's unwavering adherence to the album's astoundingly depressive tone, Orchid being a near-brilliant ode to misery that would kick the door down for Akerfeldt and his cohorts to claim sole ownership of a well-conceived and, at the time, startlingly unique sound.

Tracklist:
01. In Mist She Was Standing
02. Under The Weeping Moon
03. Silhouette
04. Forest Of October
05. The Twilight Is My Robe
06. Requiem
07. The Apostle In Triumph
08. Into The Frost Of Winter (Bonus track)

Total time: 01:11:50

Exact Audio Copy V1.1 from 23. June 2015

EAC extraction logfile from 2. April 2017, 1:16

Opeth / Orchid [2008, MICP-10807]

Used drive : HL-DT-STDVDRAM GH24NSD0 Adapter: 1 ID: 0

Read mode : Secure
Utilize accurate stream : Yes
Defeat audio cache : Yes
Make use of C2 pointers : No

Read offset correction : 6
Overread into Lead-In and Lead-Out : No
Fill up missing offset samples with silence : Yes
Delete leading and trailing silent blocks : No
Null samples used in CRC calculations : Yes
Used interface : Native Win32 interface for Win NT & 2000

Used output format : User Defined Encoder
Selected bitrate : 768 kBit/s
Quality : High
Add ID3 tag : No
Command line compressor : C:\Program Files (x86)\Exact Audio Copy\FLAC\FLAC.EXE
Additional command line options : -V -8 -T "Genre=%genre%" -T "Artist=%artist%" -T "Title=%title%" -T "Album=%albumtitle%" -T "Date=%year%" -T "Tracknumber=%tracknr%" -T "Comment=%comment%" %source%


TOC of the extracted CD

Track | Start | Length | Start sector | End sector
––––––––––––––––––––––––––––-
1 | 0:00.00 | 14:09.38 | 0 | 63712
2 | 14:09.38 | 9:52.73 | 63713 | 108185
3 | 24:02.36 | 3:07.47 | 108186 | 122257
4 | 27:10.08 | 13:05.02 | 122258 | 181134
5 | 40:15.10 | 11:01.67 | 181135 | 230776
6 | 51:17.02 | 1:11.37 | 230777 | 236138
7 | 52:28.39 | 13:01.18 | 236139 | 294731
8 | 65:29.57 | 6:20.22 | 294732 | 323253


Range status and errors

Selected range

Filename D:\g.y.m\Opeth\1995. Orchid [2008, MICP-10807]\Opeth - Orchid [2008, MICP-10807].wav

Peak level 98.8 %
Extraction speed 8.2 X
Range quality 100.0 %
Test CRC 3239DCCB
Copy CRC 3239DCCB
Copy OK

No errors occurred


AccurateRip summary

Track 1 cannot be verified as accurate (confidence 30) [9BD2669D], AccurateRip returned [C83B33FA] (AR v2)
Track 2 cannot be verified as accurate (confidence 30) [EE3EDCE5], AccurateRip returned [FBD3778D] (AR v2)
Track 3 cannot be verified as accurate (confidence 30) [B38ABFC1], AccurateRip returned [07CE5FCF] (AR v2)
Track 4 cannot be verified as accurate (confidence 30) [35541EE4], AccurateRip returned [01B1FAE7] (AR v2)
Track 5 cannot be verified as accurate (confidence 30) [8D4F3C3D], AccurateRip returned [F90760B9] (AR v2)
Track 6 cannot be verified as accurate (confidence 30) [77DAABC3], AccurateRip returned [712D8030] (AR v2)
Track 7 cannot be verified as accurate (confidence 30) [D06260ED], AccurateRip returned [835D8717] (AR v2)
Track 8 cannot be verified as accurate (confidence 30) [8885D967], AccurateRip returned [E028CD4B] (AR v2)

No tracks could be verified as accurate
You may have a different pressing from the one(s) in the database

End of status report

==== Log checksum 7147189595DF59AE72F078133DFBF3018ABB4A1FF8BF42202F5EE16E50F3CFB4 ====

[CUETools log; Date: 01.12.2021 18:12:13; Version: 2.1.4]
[CTDB TOCID: iZ0WQCwb.aVbDxRszqlqchW_Sz4-] found.
Track | CTDB Status
1 | (662/679) Accurately ripped, or (12/679) differs in 3 samples @00:24:58
2 | (675/679) Accurately ripped
3 | (675/679) Accurately ripped
4 | (674/679) Accurately ripped
5 | (672/679) Accurately ripped
6 | (673/679) Accurately ripped
7 | (666/679) Accurately ripped, or (2/679) differs in 420 samples @12:00:32-12:00:33,12:08:60-12:08:61,12:10:14-12:10:15,12:18:01-12:18:02,12:23:45-12:23:46,12:25:21,12:25:63,12:33:08-12:33:09,12:36:35,12:40:71-12:40:72,12:41:17-12:41:18,12:44:44-12:44:45,12:46:63,12:47:29-12:47:30,12:47:50-12:47:51,12:47:72,12:49:27,12:49:68,12:50:15,12:50:36,12:50:57,12:51:45,12:54:09,12:54:30-12:54:31,12:56:28,12:56:49
8 | (663/679) Accurately ripped, or (2/679) differs in 7 samples @03:50:73,03:51:63
[AccurateRip ID: 0017ce82-009ae62d-6310d608] found.
Track [ CRC | V2 ] Status
01 [3bfc64be|9bd2669d] (000+003/396) Accurately ripped
02 [a297f0bb|ee3edce5] (000+003/397) Accurately ripped
03 [1757a3fe|b38abfc1] (000+003/394) Accurately ripped
04 [c8a6c5a2|35541ee4] (000+003/393) Accurately ripped
05 [1ba333b6|8d4f3c3d] (000+003/393) Accurately ripped
06 [da48db47|77daabc3] (000+003/394) Accurately ripped
07 [fc970d76|d06260ed] (000+003/389) Accurately ripped
08 [552fd97e|8885d967] (000+003/379) Accurately ripped
Offsetted by 18:
01 [c83b33fa] (030/396) Accurately ripped
02 [fbd3778d] (030/397) Accurately ripped
03 [07ce5fcf] (030/394) Accurately ripped
04 [01b1fae7] (030/393) Accurately ripped
05 [f90760b9] (030/393) Accurately ripped
06 [712d8030] (030/394) Accurately ripped
07 [835d8717] (030/389) Accurately ripped
08 [e028cd4b] (030/379) Accurately ripped
Offsetted by 628:
01 [756f4d96] (005/396) Accurately ripped
02 [767bdeaf] (005/397) Accurately ripped
03 [c4be0822] (005/394) Accurately ripped
04 [dfd9759a] (005/393) Accurately ripped
05 [6882218e] (005/393) Accurately ripped
06 [6672fb27] (005/394) Accurately ripped
07 [b469c1ba] (005/389) Accurately ripped
08 [cfacb9c6] (005/379) Accurately ripped
Offsetted by 652:
01 [db1861e6] (007/396) Accurately ripped
02 [ed75e7c7] (007/397) Accurately ripped
03 [cd9b2022] (007/394) Accurately ripped
04 [b8fef462] (007/393) Accurately ripped
05 [ad467b26] (007/393) Accurately ripped
06 [bcba641f] (007/394) Accurately ripped
07 [db06817a] (007/389) Accurately ripped
08 [6b648bee] (007/379) Accurately ripped
Offsetted by 664:
01 [8decec0e] (016/396) Accurately ripped
02 [28f2ec53] (017/397) Accurately ripped
03 [d275ac8e] (017/394) Accurately ripped
04 [2525b35a] (017/393) Accurately ripped
05 [5014a85e] (017/393) Accurately ripped
06 [6772182f] (017/394) Accurately ripped
07 [eec0e1c6] (017/389) Accurately ripped
08 [b8d47496] (018/379) Accurately ripped
Offsetted by 670:
01 [67573122] (005/396) Accurately ripped
02 [46b16e99] (005/397) Accurately ripped
03 [d4fdf2df] (005/394) Accurately ripped
04 [db1e12bb] (005/393) Accurately ripped
05 [a196bf15] (005/393) Accurately ripped
06 [3cb2f21c] (005/394) Accurately ripped
07 [78b91207] (005/389) Accurately ripped
08 [df7168cf] (005/379) Accurately ripped
Offsetted by 682:
01 [1a2bbb4a] (004/396) Accurately ripped
02 [822e7325] (004/397) Accurately ripped
03 [da447fb7] (004/394) Accurately ripped
04 [46d8d147] (004/393) Accurately ripped
05 [44d0ecb9] (004/393) Accurately ripped
06 [e6fea5c0] (004/394) Accurately ripped
07 [8cdf72bf] (004/389) Accurately ripped
08 [2c75510b] (004/379) Accurately ripped
Offsetted by 748:
01 [71bcb326] (016/396) Accurately ripped
02 [c95e0c27] (016/397) Accurately ripped
03 [fc4f8b62] (016/394) Accurately ripped
04 [1254e442] (016/393) Accurately ripped
05 [cb97ecc6] (016/393) Accurately ripped
06 [0a97fcbf] (016/394) Accurately ripped
07 [80b98bba] (016/389) Accurately ripped
08 [cf03c94e] (015/379) Accurately ripped
Offsetted by 1346:
01 [6c1c429a] (006/396) Accurately ripped
02 [08896ebd] (006/397) Accurately ripped
03 [09ddfcbf] (006/394) Accurately ripped
04 [2edc4a87] (006/393) Accurately ripped
05 [edbdd5d9] (006/393) Accurately ripped
06 [ffac6e30] (006/394) Accurately ripped
07 [f384bb87] (006/389) Accurately ripped
08 [1b9e77ab] (006/379) Accurately ripped
Offsetted by 1382:
01 [8499e112] (005/396) Accurately ripped
02 [bb007c61] (005/397) Accurately ripped
03 [4a11d3a7] (005/394) Accurately ripped
04 [41ac55cb] (005/393) Accurately ripped
05 [07cc8f25] (005/393) Accurately ripped
06 [ce2f58bc] (005/394) Accurately ripped
07 [60580e0f] (005/389) Accurately ripped
08 [d249ffff] (005/379) Accurately ripped
Offsetted by 1394:
01 [376e6b3a] (003/396) Accurately ripped
02 [f67d80ed] (003/397) Accurately ripped
03 [6008712f] (003/394) Accurately ripped
04 [9cb703a7] (003/393) Accurately ripped
05 [bbb6cd79] (003/393) Accurately ripped
06 [67cafbb0] (003/394) Accurately ripped
07 [852e7f77] (003/389) Accurately ripped
08 [0e9dd78b] (003/379) Accurately ripped
Offsetted by 1412:
01 [c3ad3a76] (015/396) Accurately ripped
02 [4fb907bf] (014/397) Accurately ripped
03 [81815e02] (015/394) Accurately ripped
04 [a4c007ea] (014/393) Accurately ripped
05 [ca1d2b7e] (014/393) Accurately ripped
06 [cdad6f97] (014/394) Accurately ripped
07 [3cf72a1a] (014/389) Accurately ripped
08 [68949a56] (013/379) Accurately ripped
Offsetted by 2005:
01 [5e343b04] (009/396) Accurately ripped
02 [20c5a870] (009/397) Accurately ripped
03 [bbad43bc] (009/394) Accurately ripped
04 [af2fa443] (009/393) Accurately ripped
05 [99da1ead] (009/393) Accurately ripped
06 [c1430652] (009/394) Accurately ripped
07 [dbcf7c66] (008/389) Accurately ripped
08 [1a8e5813] (010/379) Accurately ripped
Offsetted by 2076:
01 [159dc1c6] (021/396) Accurately ripped
02 [d6140357] (021/397) Accurately ripped
03 [63d68dc2] (019/394) Accurately ripped
04 [da07ce72] (020/393) Accurately ripped
05 [25c5c756] (021/393) Accurately ripped
06 [339f854f] (020/394) Accurately ripped
07 [5658259a] (020/389) Accurately ripped
08 [a5020e3e] (019/379) Accurately ripped
Offsetted by 2740:
01 [678e4916] (011/396) Accurately ripped
02 [5c6efeef] (011/397) Accurately ripped
03 [4a1676f1] (011/394) Accurately ripped
04 [0b3d90eb] (011/393) Accurately ripped
05 [de91c04e] (011/393) Accurately ripped
06 [722490be] (011/394) Accurately ripped
07 [fb4d3d16] (010/389) Accurately ripped
08 [0175a22f] (010/379) Accurately ripped
Offsetted by -646:
01 [e35019c5] (000/396) No match (V2 was not tested)
02 [75787bf5] (000/397) No match (V2 was not tested)
03 [927b9d07] (000/394) No match (V2 was not tested)
04 [5f67c767] (000/393) No match (V2 was not tested)
05 [e2009329] (000/393) No match (V2 was not tested)
06 [30c89010] (000/394) No match (V2 was not tested)
07 [d6fef88f] (000/389) No match (V2 was not tested)
08 [36b8ec6b] (000/379) No match (V2 was not tested)
Offsetted by -12:
01 [8927da96] (000/396) No match (V2 was not tested)
02 [671aec2f] (000/397) No match (V2 was not tested)
03 [220d2722] (000/394) No match (V2 was not tested)
04 [4ceff71a] (000/393) No match (V2 was not tested)
05 [8865160e] (000/393) No match (V2 was not tested)
06 [200117a7] (000/394) No match (V2 was not tested)
07 [f86cbcba] (000/389) No match (V2 was not tested)
08 [f82fe146] (000/379) No match (V2 was not tested)
Offsetted by 634:
01 [4ed992aa] (000/396) No match (V2 was not tested)
02 [943a60f5] (000/397) No match (V2 was not tested)
03 [c6da4e07] (000/394) No match (V2 was not tested)
04 [963dd567] (000/393) No match (V2 was not tested)
05 [b99837d9] (000/393) No match (V2 was not tested)
06 [3c1fd580] (000/394) No match (V2 was not tested)
07 [3df5f18f] (000/389) No match (V2 was not tested)
08 [f6b5ae6b] (000/379) No match (V2 was not tested)
Offsetted by 1218:
01 [a3412b9a] (002/396) Accurately ripped
02 [38a93e3d] (002/397) Accurately ripped
03 [8f6cdc3f] (002/394) Accurately ripped
04 [9e94f187] (002/393) Accurately ripped
05 [33d0acd9] (000/393) No match (V2 was not tested)
06 [7eb03430] (002/394) Accurately ripped
07 [da6ac707] (002/389) Accurately ripped
08 [7da00cab] (000/379) No match (V2 was not tested)
Offsetted by 1248:
01 [e25484fe] (000/396) No match (V2 was not tested)
02 [cd61c99b] (000/397) No match (V2 was not tested)
03 [bd405cfe] (000/394) No match (V2 was not tested)
04 [0b44ad42] (000/393) No match (V2 was not tested)
05 [ec853f96] (000/393) No match (V2 was not tested)
06 [87ca54a7] (000/394) No match (V2 was not tested)
07 [ad6dd976] (000/389) No match (V2 was not tested)
08 [1d86b09e] (000/379) No match (V2 was not tested)
Offsetted by 1340:
01 [92b1fd86] (000/396) No match (V2 was not tested)
02 [eacaec77] (000/397) No match (V2 was not tested)
03 [ff69ae82] (000/394) No match (V2 was not tested)
04 [80cff312] (000/393) No match (V2 was not tested)
05 [944fb736] (000/393) No match (V2 was not tested)
06 [32579c2f] (000/394) No match (V2 was not tested)
07 [61a0835a] (000/389) No match (V2 was not tested)
08 [fced8b5e] (000/379) No match (V2 was not tested)
Offsetted by 1418:
01 [9d177f8a] (002/396) Accurately ripped
02 [6d778a05] (002/397) Accurately ripped
03 [8ccdad17] (000/394) No match (V2 was not tested)
04 [51f45e87] (000/393) No match (V2 was not tested)
05 [24634af9] (000/393) No match (V2 was not tested)
06 [9a2a40c0] (000/394) No match (V2 was not tested)
07 [cfb3631f] (000/389) No match (V2 was not tested)
08 [866d85cb] (000/379) No match (V2 was not tested)
Offsetted by 1992:
01 [31cdfaae] (000/396) No match (V2 was not tested)
02 [35a8e383] (000/397) No match (V2 was not tested)
03 [601bd50e] (000/394) No match (V2 was not tested)
04 [c6b9776a] (000/393) No match (V2 was not tested)
05 [d061a90e] (000/393) No match (V2 was not tested)
06 [6a5a7a9f] (000/394) No match (V2 was not tested)
07 [ea7ea1c6] (000/389) No match (V2 was not tested)
08 [68b39366] (000/379) No match (V2 was not tested)

Track Peak [ CRC32 ] [W/O NULL] [ LOG ]
– 98,8 [3239DCCB] [9D7B91AA] CRC32
01 98,8 [05FEF7A3] [180F3D9A]
02 98,8 [9E82F6E1] [F0EC6847]
03 98,8 [F58C1C0D] [84659663]
04 98,8 [79E8EF02] [36A3809B]
05 98,8 [DCB1BDDC] [4FC84C7A]
06 46,7 [0210F300] [E299D9DA]
07 98,8 [5BAA02C5] [2E3C60C4]
08 98,8 [A620ADBC] [4083C5A0]

Thanks to g.y.m

See also: