Tags
Language
Tags

Opeth - In Live Concert at the Royal Albert Hall [3CD] (2010)

Posted By: gribovar
Opeth - In Live Concert at the Royal Albert Hall [3CD] (2010)

Opeth - In Live Concert at the Royal Albert Hall [3CD] (2010)
EAC Rip | FLAC (image+.cue+log) - 1,12 GB | MP3 CBR 320 kbps (LAME 3.93) - 389 MB | Covers - 132 MB
Genre: Extreme Progressive Metal | RAR 3% Rec. | Label: Roadrunner Records (1686-177525)

While In Live Concert at the Royal Albert Hall may not be Opeth’s only live album, it’s certainly their classiest. Recorded at the famous London venue, the live album features the Swedish progressive death metal masters masterfully executing a nearly three-hour set. Most notable about the live set is that Opeth chose to kick it off by performing Blackwater Park, their artistic breakthrough, in its entirety. With an amazingly tight performance and a sparklingly clear recording, In Live Concert at the Royal Albert Hall is an easy addition for metal fans. If you’ve ever wanted to hear the quintessential death metal band at work live, it won’t get any more convenient than this.

CD 1 Tracklist:
01. The Leper Affinity
02. Bleak
03. Harvest
04. The Drapery Falls
05. Dirge For November
06. The Funeral Portrait
07. Patterns In The Ivy
08. Blackwater Park

Total time: 01:07:01

CD 2 Tracklist:
01. Forest Of October
02. Advent
03. April Ethereal
04. The Moor

Total time: 54:50

CD 3 Tracklist:
01. Wreath
02. Hope Leaves
03. Harlequin Forest
04. The Lotus Eater

Total time: 43:32

Exact Audio Copy V1.1 from 23. June 2015

EAC extraction logfile from 26. February 2017, 18:59

Opeth / In Live Concert at the Royal Albert Hall (CD1)

Used drive : PLEXTOR CD-R PX-240A Adapter: 0 ID: 0

Read mode : Secure
Utilize accurate stream : Yes
Defeat audio cache : Yes
Make use of C2 pointers : No

Read offset correction : 6
Overread into Lead-In and Lead-Out : No
Fill up missing offset samples with silence : Yes
Delete leading and trailing silent blocks : No
Null samples used in CRC calculations : Yes
Used interface : Installed external ASPI interface

Used output format : Internal WAV Routines
Sample format : 44.100 Hz; 16 Bit; Stereo


TOC of the extracted CD

Track | Start | Length | Start sector | End sector
––––––––––––––––––––––––––––-
1 | 0:00.00 | 10:06.44 | 0 | 45493
2 | 10:06.44 | 8:52.43 | 45494 | 85436
3 | 18:59.12 | 6:10.01 | 85437 | 113187
4 | 25:09.13 | 10:07.05 | 113188 | 158717
5 | 35:16.18 | 8:28.07 | 158718 | 196824
6 | 43:44.25 | 8:20.54 | 196825 | 234378
7 | 52:05.04 | 2:24.02 | 234379 | 245180
8 | 54:29.06 | 12:32.07 | 245181 | 301587


Range status and errors

Selected range

Filename Z:\data\hexonut\Seeding\Opeth\2010-In Live Concert at the Royal Albert Hall\In Live Concert at the Royal Albert Hall (CD1).wav

Peak level 98.8 %
Extraction speed 5.4 X
Range quality 99.9 %
Test CRC 3EFCD674
Copy CRC 3EFCD674
Copy OK

No errors occurred


AccurateRip summary

Track 1 accurately ripped (confidence 35) [9C437F17] (AR v2)
Track 2 accurately ripped (confidence 35) [A7BB25EF] (AR v2)
Track 3 accurately ripped (confidence 35) [D6861FE1] (AR v2)
Track 4 accurately ripped (confidence 35) [087B4033] (AR v2)
Track 5 accurately ripped (confidence 35) [EDD7AD5C] (AR v2)
Track 6 accurately ripped (confidence 35) [7D67F885] (AR v2)
Track 7 accurately ripped (confidence 35) [8D3F1D06] (AR v2)
Track 8 accurately ripped (confidence 33) [3E96A7F2] (AR v2)

All tracks accurately ripped

End of status report

==== Log checksum 295CB766E66F095D693B77E8B75EC953F90FC009CCE18C63DF472926806C0BC2 ====

[CUETools log; Date: 13.11.2021 15:25:29; Version: 2.1.4]
[CTDB TOCID: UWQ7EgRUf1SWDq4lC8YpoJavYJ8-] found.
Track | CTDB Status
1 | (103/103) Accurately ripped
2 | (102/103) Accurately ripped
3 | (103/103) Accurately ripped
4 | (103/103) Accurately ripped
5 | (102/103) Accurately ripped
6 | (103/103) Accurately ripped
7 | (102/103) Accurately ripped
8 | (101/103) Accurately ripped
[AccurateRip ID: 001511ca-008ab7a9-550fb508] found.
Track [ CRC | V2 ] Status
01 [6cffe214|9c437f17] (34+53/87) Accurately ripped
02 [11202850|a7bb25ef] (33+53/86) Accurately ripped
03 [0041d779|d6861fe1] (34+53/87) Accurately ripped
04 [0dfbcfd1|087b4033] (34+53/87) Accurately ripped
05 [88d8d63e|edd7ad5c] (34+53/87) Accurately ripped
06 [8ca9091c|7d67f885] (33+53/86) Accurately ripped
07 [a7ae0ec4|8d3f1d06] (34+53/87) Accurately ripped
08 [ec2acbd8|3e96a7f2] (34+49/83) Accurately ripped

Track Peak [ CRC32 ] [W/O NULL] [ LOG ]
– 98,8 [3EFCD674] [43062C0E] CRC32
01 98,8 [5A04454C] [7B59C877]
02 98,8 [FE17FA04] [B6BE24FA]
03 98,6 [2D182373] [4AC58560]
04 98,8 [43FB5EDA] [BD6E0615]
05 98,8 [F6902174] [8A19647E]
06 98,8 [6708DCE0] [F01C268D]
07 63,8 [89DA9692] [6A4D8D88]
08 98,8 [5A724756] [AA94F821]

Exact Audio Copy V1.1 from 23. June 2015

EAC extraction logfile from 26. February 2017, 19:38

Opeth / In Live Concert at the Royal Albert Hall (CD2)

Used drive : PLEXTOR CD-R PX-240A Adapter: 0 ID: 0

Read mode : Secure
Utilize accurate stream : Yes
Defeat audio cache : Yes
Make use of C2 pointers : No

Read offset correction : 6
Overread into Lead-In and Lead-Out : No
Fill up missing offset samples with silence : Yes
Delete leading and trailing silent blocks : No
Null samples used in CRC calculations : Yes
Used interface : Installed external ASPI interface

Used output format : Internal WAV Routines
Sample format : 44.100 Hz; 16 Bit; Stereo


TOC of the extracted CD

Track | Start | Length | Start sector | End sector
––––––––––––––––––––––––––––-
1 | 0:00.00 | 17:11.66 | 0 | 77390
2 | 17:11.66 | 15:03.22 | 77391 | 145137
3 | 32:15.13 | 10:22.25 | 145138 | 191812
4 | 42:37.38 | 12:12.37 | 191813 | 246749


Range status and errors

Selected range

Filename Z:\data\hexonut\Seeding\Opeth\2010-In Live Concert at the Royal Albert Hall\In Live Concert at the Royal Albert Hall (CD2).wav

Peak level 98.8 %
Extraction speed 2.9 X
Range quality 100.0 %
Test CRC 767ED4D4
Copy CRC 767ED4D4
Copy OK

No errors occurred


AccurateRip summary

Track 1 accurately ripped (confidence 32) [D0DF7C2A] (AR v2)
Track 2 accurately ripped (confidence 32) [65AF4558] (AR v2)
Track 3 accurately ripped (confidence 32) [A6383C58] (AR v2)
Track 4 accurately ripped (confidence 33) [D206C605] (AR v2)

All tracks accurately ripped

End of status report

==== Log checksum D039A1852A2AB622F8222A631594C0FFA5763320B4E66AA4E0DB99CC756DF719 ====

[CUETools log; Date: 13.11.2021 15:25:59; Version: 2.1.4]
[CTDB TOCID: Llujh5OdnGvjH6uW8_wdDxlwjRo-] found.
Track | CTDB Status
1 | (106/107) Accurately ripped
2 | (107/107) Accurately ripped
3 | (107/107) Accurately ripped
4 | (105/107) Accurately ripped
[AccurateRip ID: 000a1664-002789df-320cda04] found.
Track [ CRC | V2 ] Status
01 [39c7b6fc|d0df7c2a] (28+49/79) Accurately ripped
02 [1693d300|65af4558] (30+48/78) Accurately ripped
03 [f2c05889|a6383c58] (30+49/79) Accurately ripped
04 [fe315b7c|d206c605] (30+50/80) Accurately ripped

Track Peak [ CRC32 ] [W/O NULL] [ LOG ]
– 98,8 [767ED4D4] [E71EA447] CRC32
01 98,8 [29F509C3] [EDD9BEAD]
02 98,8 [3F08B186] [952CF6E7]
03 98,8 [F1772BEF] [C09F5D33]
04 98,8 [FA100F79] [0530A168]

Exact Audio Copy V1.1 from 23. June 2015

EAC extraction logfile from 26. February 2017, 19:59

Opeth / In Live Concert at the Royal Albert Hall (CD3)

Used drive : PLEXTOR CD-R PX-240A Adapter: 0 ID: 0

Read mode : Secure
Utilize accurate stream : Yes
Defeat audio cache : Yes
Make use of C2 pointers : No

Read offset correction : 6
Overread into Lead-In and Lead-Out : No
Fill up missing offset samples with silence : Yes
Delete leading and trailing silent blocks : No
Null samples used in CRC calculations : Yes
Used interface : Installed external ASPI interface

Used output format : Internal WAV Routines
Sample format : 44.100 Hz; 16 Bit; Stereo


TOC of the extracted CD

Track | Start | Length | Start sector | End sector
––––––––––––––––––––––––––––-
1 | 0:00.00 | 12:23.46 | 0 | 55770
2 | 12:23.46 | 6:48.05 | 55771 | 86375
3 | 19:11.51 | 13:11.32 | 86376 | 145732
4 | 32:23.08 | 11:08.67 | 145733 | 195899


Range status and errors

Selected range

Filename Z:\data\hexonut\Seeding\Opeth\2010-In Live Concert at the Royal Albert Hall\In Live Concert at the Royal Albert Hall (CD3).wav

Peak level 98.8 %
Extraction speed 7.0 X
Range quality 99.9 %
Test CRC E499263E
Copy CRC E499263E
Copy OK

No errors occurred


AccurateRip summary

Track 1 accurately ripped (confidence 32) [10831326] (AR v2)
Track 2 accurately ripped (confidence 32) [E8BB71D8] (AR v2)
Track 3 accurately ripped (confidence 32) [897767CC] (AR v2)
Track 4 accurately ripped (confidence 32) [3826CE67] (AR v2)

All tracks accurately ripped

End of status report

==== Log checksum CD7CD71836E4D2182E8604DD0FE753608F9BC7550E43BF3EB9524DB25A40A532 ====

[CUETools log; Date: 13.11.2021 15:26:26; Version: 2.1.4]
[CTDB TOCID: gIEevPMvfkK3MsaMvev9axaRZUo-] found.
Track | CTDB Status
1 | (108/108) Accurately ripped
2 | (108/108) Accurately ripped
3 | (107/108) Accurately ripped
4 | (107/108) Accurately ripped
[AccurateRip ID: 000761c4-001d7f2f-2f0a3404] found.
Track [ CRC | V2 ] Status
01 [c02adb35|10831326] (30+49/79) Accurately ripped
02 [224daeef|e8bb71d8] (29+49/78) Accurately ripped
03 [96412537|897767cc] (30+49/79) Accurately ripped
04 [601939a8|3826ce67] (29+49/78) Accurately ripped

Track Peak [ CRC32 ] [W/O NULL] [ LOG ]
– 98,8 [E499263E] [B76AB2A1] CRC32
01 98,8 [4A348CBE] [60CFB661]
02 98,8 [A0672D30] [443C9375]
03 98,8 [A2D75F20] [7B4E64C9]
04 98,8 [1A0B278B] [288801C3]

Thanks to hexonut

See also: