Tags
Language
Tags

Opeth - My Arms, Your Hearse (1998) [Japanese Edition 2008]

Posted By: gribovar
Opeth - My Arms, Your Hearse (1998) [Japanese Edition 2008]

Opeth - My Arms, Your Hearse (1998) [Japanese Edition 2008]
EAC Rip | FLAC (image+.cue+log) - 455 MB | MP3 CBR 320 kbps (LAME 3.93) - 148 MB | Covers - 103 MB
Genre: Extreme Progressive Metal | RAR 3% Rec. | Label: Avalon/Marquee Inc. (MICP-10809)

On their third album - and first to be released simultaneously in Europe and the U.S. - Opeth continue to refine their epic, progressive death metal style, replete with harmonized leads and acoustic passages. My Arms, Your Hearse flows logically from one composition to the next, and the mostly long songs have enough variation in texture and mood to hold the listener's interest fairly consistently.

Tracklist:
01. Prologue
02. April Ethereal
03. When
04. Madrigal
05. The Amen Corner
06. Demon Of The Fall
07. Credence
08. Karma
09. Epilogue
10. Circle Of The Tyrant (Bonus track)
11. Remember Tomorrow (Bonus track)

Total time: 01:02:49

Exact Audio Copy V1.1 from 23. June 2015

EAC extraction logfile from 2. April 2017, 2:55

Opeth / My Arms, Your Hearse [2008, MICP-10809]

Used drive : HL-DT-STDVDRAM GH24NSD0 Adapter: 1 ID: 0

Read mode : Secure
Utilize accurate stream : Yes
Defeat audio cache : Yes
Make use of C2 pointers : No

Read offset correction : 6
Overread into Lead-In and Lead-Out : No
Fill up missing offset samples with silence : Yes
Delete leading and trailing silent blocks : No
Null samples used in CRC calculations : Yes
Used interface : Native Win32 interface for Win NT & 2000

Used output format : User Defined Encoder
Selected bitrate : 768 kBit/s
Quality : High
Add ID3 tag : No
Command line compressor : C:\Program Files (x86)\Exact Audio Copy\FLAC\FLAC.EXE
Additional command line options : -V -8 -T "Genre=%genre%" -T "Artist=%artist%" -T "Title=%title%" -T "Album=%albumtitle%" -T "Date=%year%" -T "Tracknumber=%tracknr%" -T "Comment=%comment%" %source%


TOC of the extracted CD

Track | Start | Length | Start sector | End sector
––––––––––––––––––––––––––––-
1 | 0:00.00 | 0:59.09 | 0 | 4433
2 | 0:59.09 | 8:41.42 | 4434 | 43550
3 | 9:40.51 | 9:14.20 | 43551 | 85120
4 | 18:54.71 | 1:26.05 | 85121 | 91575
5 | 20:21.01 | 8:43.49 | 91576 | 130849
6 | 29:04.50 | 6:13.29 | 130850 | 158853
7 | 35:18.04 | 5:26.02 | 158854 | 183305
8 | 40:44.06 | 7:50.04 | 183306 | 218559
9 | 48:34.10 | 4:02.43 | 218560 | 236752
10 | 52:36.53 | 5:12.18 | 236753 | 260170
11 | 57:48.71 | 4:59.64 | 260171 | 282659


Range status and errors

Selected range

Filename D:\g.y.m\Opeth\1998. My Arms, Your Hearse [2008, MICP-10809]\Opeth - My Arms, Your Hearse [2008, MICP-10809].wav

Peak level 98.8 %
Extraction speed 1.4 X
Range quality 100.0 %
Test CRC FA517460
Copy CRC FA517460
Copy OK

No errors occurred


AccurateRip summary

Track 1 accurately ripped (confidence 9) [76C80B50] (AR v2)
Track 2 accurately ripped (confidence 9) [BEA0258A] (AR v2)
Track 3 accurately ripped (confidence 9) [AA9B7E98] (AR v2)
Track 4 accurately ripped (confidence 9) [B218A59A] (AR v2)
Track 5 accurately ripped (confidence 9) [D7DDAA2D] (AR v2)
Track 6 accurately ripped (confidence 9) [EE0A176A] (AR v2)
Track 7 accurately ripped (confidence 9) [7F95D2F9] (AR v2)
Track 8 accurately ripped (confidence 9) [6F2762DD] (AR v2)
Track 9 accurately ripped (confidence 9) [73FE7846] (AR v2)
Track 10 accurately ripped (confidence 9) [CA9474BA] (AR v2)
Track 11 accurately ripped (confidence 9) [740AB920] (AR v2)

All tracks accurately ripped

End of status report

==== Log checksum 510687687E08EDC52883612F3FD2921E6528351AAC8C8DC2BCE1C09443ADC104 ====

[CUETools log; Date: 06.12.2021 20:00:15; Version: 2.1.4]
[CTDB TOCID: G80fzgvRx1s4huPxU3bKuTDw_fU-] found.
Track | CTDB Status
1 | (751/752) Accurately ripped
2 | (751/752) Accurately ripped
3 | (749/752) Accurately ripped
4 | (752/752) Accurately ripped
5 | (750/752) Accurately ripped
6 | (749/752) Accurately ripped
7 | (752/752) Accurately ripped
8 | (749/752) Accurately ripped
9 | (752/752) Accurately ripped
10 | (747/752) Accurately ripped
11 | (740/752) Accurately ripped
[AccurateRip ID: 0019e05c-00e33337-830eb80b] found.
Track [ CRC | V2 ] Status
01 [478710cb|76c80b50] (000+013/442) Accurately ripped
02 [fa5bb6d9|bea0258a] (000+013/442) Accurately ripped
03 [dea4195c|aa9b7e98] (000+013/439) Accurately ripped
04 [d350f4ad|b218a59a] (000+013/441) Accurately ripped
05 [684dead7|d7ddaa2d] (000+013/439) Accurately ripped
06 [e2e2b6d9|ee0a176a] (000+013/439) Accurately ripped
07 [18b832e7|7f95d2f9] (000+013/439) Accurately ripped
08 [a91a8c0a|6f2762dd] (000+013/437) Accurately ripped
09 [066e72cb|73fe7846] (000+013/438) Accurately ripped
10 [984cc009|ca9474ba] (000+013/436) Accurately ripped
11 [b2ad3f57|740ab920] (000+012/419) Accurately ripped
Offsetted by -1954:
01 [00579234] (003/442) Accurately ripped
02 [efdbdf25] (003/442) Accurately ripped
03 [1074f8a5] (003/439) Accurately ripped
04 [e9365db0] (003/441) Accurately ripped
05 [c568516d] (003/439) Accurately ripped
06 [90023c09] (003/439) Accurately ripped
07 [b0a73b66] (003/439) Accurately ripped
08 [8c86f92a] (003/437) Accurately ripped
09 [de533129] (003/438) Accurately ripped
10 [dd6fe9cc] (003/436) Accurately ripped
11 [a70b1b44] (003/419) Accurately ripped
Offsetted by -1290:
01 [eb4a0d56] (003/442) Accurately ripped
02 [83e4ab0b] (003/442) Accurately ripped
03 [5360f53c] (003/439) Accurately ripped
04 [125e56f2] (003/441) Accurately ripped
05 [ddf1316a] (003/439) Accurately ripped
06 [d8d8c350] (003/439) Accurately ripped
07 [198f830c] (003/439) Accurately ripped
08 [96651697] (002/437) Accurately ripped
09 [28b94c6e] (003/438) Accurately ripped
10 [f7c29d22] (003/436) Accurately ripped
11 [e720ec31] (002/419) Accurately ripped
Offsetted by -1219:
01 [09a6b61a] (029/442) Accurately ripped
02 [93018cd8] (029/442) Accurately ripped
03 [dbef3e4d] (030/439) Accurately ripped
04 [39c08f2f] (029/441) Accurately ripped
05 [422d15d0] (030/439) Accurately ripped
06 [abb2e6af] (029/439) Accurately ripped
07 [1b5e78c5] (030/439) Accurately ripped
08 [7bd63f63] (030/437) Accurately ripped
09 [ebe4287f] (029/438) Accurately ripped
10 [4dcaf48c] (030/436) Accurately ripped
11 [9f41d4f7] (030/419) Accurately ripped
Offsetted by -1213:
01 [ecc74d8f] (002/442) Accurately ripped
02 [023363f2] (002/442) Accurately ripped
03 [11835849] (002/439) Accurately ripped
04 [2edbe7f5] (002/441) Accurately ripped
05 [3d0a71d2] (002/439) Accurately ripped
06 [1826db87] (002/439) Accurately ripped
07 [b918fac5] (002/439) Accurately ripped
08 [36f13f4a] (002/437) Accurately ripped
09 [9f8a46d0] (002/438) Accurately ripped
10 [703add72] (002/436) Accurately ripped
11 [0881cef2] (002/419) Accurately ripped
Offsetted by -1143:
01 [5a7581da] (002/442) Accurately ripped
02 [378a7edc] (002/442) Accurately ripped
03 [b6888057] (002/439) Accurately ripped
04 [abe2d3af] (002/441) Accurately ripped
05 [98718e47] (002/439) Accurately ripped
06 [0e5ef5bf] (002/439) Accurately ripped
07 [fbf0969e] (002/439) Accurately ripped
08 [210ed611] (002/437) Accurately ripped
09 [d9d5b2e5] (002/438) Accurately ripped
10 [52227566] (002/436) Accurately ripped
11 [79e4d8db] (002/419) Accurately ripped
Offsetted by -628:
01 [6bf49995] (013/442) Accurately ripped
02 [06b2d34e] (013/442) Accurately ripped
03 [a15aa741] (013/439) Accurately ripped
04 [68f034e7] (013/441) Accurately ripped
05 [a15aaedf] (013/439) Accurately ripped
06 [f1aeac21] (013/439) Accurately ripped
07 [4ec9a142] (013/439) Accurately ripped
08 [3d281531] (013/437) Accurately ripped
09 [03f446ad] (013/438) Accurately ripped
10 [d6b25a4d] (013/436) Accurately ripped
11 [4cbcb269] (013/419) Accurately ripped
Offsetted by -610:
01 [28c64d8d] (007/442) Accurately ripped
02 [27930987] (007/442) Accurately ripped
03 [543bafac] (007/439) Accurately ripped
04 [3795824d] (007/441) Accurately ripped
05 [5b9657bf] (007/439) Accurately ripped
06 [9ff15bb7] (007/439) Accurately ripped
07 [ace92d50] (007/439) Accurately ripped
08 [579f2bd1] (007/437) Accurately ripped
09 [5318d015] (007/438) Accurately ripped
10 [37f60ef3] (007/436) Accurately ripped
11 [737f8b5d] (006/419) Accurately ripped
Offsetted by -597:
01 [e89b56ea] (025/442) Accurately ripped
02 [b4d47f88] (025/442) Accurately ripped
03 [edb6929d] (026/439) Accurately ripped
04 [d0b3e44d] (026/441) Accurately ripped
05 [c1ad1c7e] (026/439) Accurately ripped
06 [4a2f5412] (026/439) Accurately ripped
07 [20e3b85d] (026/439) Accurately ripped
08 [04f62732] (026/437) Accurately ripped
09 [0e0c4304] (026/438) Accurately ripped
10 [e20f914e] (025/436) Accurately ripped
11 [72a7441a] (026/419) Accurately ripped
Offsetted by -555:
01 [fe684356] (009/442) Accurately ripped
02 [a4ee16a3] (009/442) Accurately ripped
03 [53e963c5] (009/439) Accurately ripped
04 [f437d111] (009/441) Accurately ripped
05 [f73e0300] (009/439) Accurately ripped
06 [b4a45d5b] (009/439) Accurately ripped
07 [7a6cde57] (009/439) Accurately ripped
08 [523a7e44] (009/437) Accurately ripped
09 [1f9331d3] (009/438) Accurately ripped
10 [c502e17c] (009/436) Accurately ripped
11 [1ee6e577] (008/419) Accurately ripped
Offsetted by -18:
01 [714e2d19] (005/442) Accurately ripped
02 [2b87993f] (005/442) Accurately ripped
03 [5e631a21] (005/439) Accurately ripped
04 [c9f87ce8] (005/441) Accurately ripped
05 [0a248592] (005/439) Accurately ripped
06 [41eca689] (005/439) Accurately ripped
07 [bb740d1f] (005/439) Accurately ripped
08 [cceab31b] (005/437) Accurately ripped
09 [bcc5eedf] (005/438) Accurately ripped
10 [3b630b63] (005/436) Accurately ripped
11 [9f0a7bd5] (005/419) Accurately ripped
Offsetted by 6:
01 [22c707d7] (007/442) Accurately ripped
02 [6b017df2] (007/442) Accurately ripped
03 [79af24f1] (007/439) Accurately ripped
04 [e6a621bf] (007/441) Accurately ripped
05 [68b3f336] (007/439) Accurately ripped
06 [70880063] (007/439) Accurately ripped
07 [a88933db] (007/439) Accurately ripped
08 [3dc6b871] (007/437) Accurately ripped
09 [7451496f] (007/438) Accurately ripped
10 [0c76a6eb] (007/436) Accurately ripped
11 [0e8e2b09] (007/419) Accurately ripped
Offsetted by 12:
01 [b2b934f7] (002/442) Accurately ripped
02 [2156fab8] (002/442) Accurately ripped
03 [d42c6ee2] (002/439) Accurately ripped
04 [0d3a15bc] (002/441) Accurately ripped
05 [2300b619] (002/439) Accurately ripped
06 [6f30e6c4] (002/439) Accurately ripped
07 [b07230d4] (002/439) Accurately ripped
08 [cfafd93a] (002/437) Accurately ripped
09 [e2342013] (002/438) Accurately ripped
10 [808e8dcd] (002/436) Accurately ripped
11 [6a6f16a9] (002/419) Accurately ripped
Offsetted by 18:
01 [fccedce8] (019/442) Accurately ripped
02 [016e22d7] (019/442) Accurately ripped
03 [a174ffa7] (019/439) Accurately ripped
04 [2ec44662] (019/441) Accurately ripped
05 [cb009447] (019/439) Accurately ripped
06 [3b66aa50] (019/439) Accurately ripped
07 [16c8041f] (019/439) Accurately ripped
08 [5f1bf056] (019/437) Accurately ripped
09 [5016f6b7] (019/438) Accurately ripped
10 [f49474af] (020/436) Accurately ripped
11 [c6500237] (019/419) Accurately ripped
Offsetted by 24:
01 [4787c86a] (005/442) Accurately ripped
02 [68c332d8] (005/442) Accurately ripped
03 [22f1ed2c] (005/439) Accurately ripped
04 [0aea8b13] (005/441) Accurately ripped
05 [e69a3bec] (005/439) Accurately ripped
06 [415fd785] (005/439) Accurately ripped
07 [0cafda77] (005/439) Accurately ripped
08 [ee720171] (005/437) Accurately ripped
09 [bdf9cd5b] (005/438) Accurately ripped
10 [68885b91] (005/436) Accurately ripped
11 [2230edb3] (004/419) Accurately ripped
Offsetted by 36:
01 [62e2d7a3] (022/442) Accurately ripped
02 [efdc4eac] (023/442) Accurately ripped
03 [696f5ec6] (021/439) Accurately ripped
04 [e1a982c2] (022/441) Accurately ripped
05 [3672862c] (022/439) Accurately ripped
06 [a1d5d1e8] (022/439) Accurately ripped
07 [94ff0072] (022/439) Accurately ripped
08 [179a1dff] (022/437) Accurately ripped
09 [99bf7aa3] (021/438) Accurately ripped
10 [503a2955] (021/436) Accurately ripped
11 [d9f2c475] (020/419) Accurately ripped
Offsetted by 49:
01 [559b5169] (009/442) Accurately ripped
02 [b5a96664] (009/442) Accurately ripped
03 [06711af0] (009/439) Accurately ripped
04 [5d807414] (009/441) Accurately ripped
05 [1a8922fd] (009/439) Accurately ripped
06 [d3de28a4] (009/439) Accurately ripped
07 [7204855b] (009/439) Accurately ripped
08 [48bd075c] (009/437) Accurately ripped
09 [5057e937] (009/438) Accurately ripped
10 [a0a7abb0] (009/436) Accurately ripped
11 [cbaf6ccb] (008/419) Accurately ripped
Offsetted by 67:
01 [fe77bfd6] (016/442) Accurately ripped
02 [690cbffc] (016/442) Accurately ripped
03 [172da223] (016/439) Accurately ripped
04 [ad7dfb4c] (016/441) Accurately ripped
05 [b6aa8b71] (016/439) Accurately ripped
06 [2ef5d261] (016/439) Accurately ripped
07 [4b674329] (016/439) Accurately ripped
08 [706f1c88] (016/437) Accurately ripped
09 [9a006d23] (016/438) Accurately ripped
10 [fb366056] (015/436) Accurately ripped
11 [df522df2] (014/419) Accurately ripped
Offsetted by -640:
01 [19ce7104] (000/442) No match (V2 was not tested)
02 [f0fb3770] (000/442) No match (V2 was not tested)
03 [803e5889] (000/439) No match (V2 was not tested)
04 [28798a8f] (000/441) No match (V2 was not tested)
05 [a17633e4] (000/439) No match (V2 was not tested)
06 [487ee2be] (000/439) No match (V2 was not tested)
07 [a73ecd04] (000/439) No match (V2 was not tested)
08 [09bbd470] (000/437) No match (V2 was not tested)
09 [24e09617] (000/438) No match (V2 was not tested)
10 [95da8c89] (000/436) No match (V2 was not tested)
11 [87e0cc17] (000/419) No match (V2 was not tested)
Offsetted by 30:
01 [2f28812e] (000/442) No match (V2 was not tested)
02 [273b63eb] (000/442) No match (V2 was not tested)
03 [983b268a] (000/439) No match (V2 was not tested)
04 [a27cb3d3] (000/441) No match (V2 was not tested)
05 [32d9f637] (000/439) No match (V2 was not tested)
06 [6c53c434] (000/439) No match (V2 was not tested)
07 [5cfc0797] (000/439) No match (V2 was not tested)
08 [80a3107a] (000/437) No match (V2 was not tested)
09 [2bdca3ff] (000/438) No match (V2 was not tested)
10 [dc6a4273] (000/436) No match (V2 was not tested)
11 [7e11d91d] (000/419) No match (V2 was not tested)
Offsetted by 48:
01 [41e170ba] (000/442) No match (V2 was not tested)
02 [99a736ef] (000/442) No match (V2 was not tested)
03 [06654bbe] (000/439) No match (V2 was not tested)
04 [4390a92e] (000/441) No match (V2 was not tested)
05 [b5b58f70] (000/439) No match (V2 was not tested)
06 [e9b288c6] (000/439) No match (V2 was not tested)
07 [d56c6da9] (000/439) No match (V2 was not tested)
08 [5a2a341e] (000/437) No match (V2 was not tested)
09 [758527eb] (000/438) No match (V2 was not tested)
10 [37a3f719] (000/436) No match (V2 was not tested)
11 [91b49aef] (000/419) No match (V2 was not tested)
Offsetted by 61:
01 [58e8b8be] (000/442) No match (V2 was not tested)
02 [43deb4d4] (000/442) No match (V2 was not tested)
03 [73cafeeb] (000/439) No match (V2 was not tested)
04 [3ef8eb28] (000/441) No match (V2 was not tested)
05 [416c04b5] (000/439) No match (V2 was not tested)
06 [f65b4765] (000/439) No match (V2 was not tested)
07 [1cec6f32] (000/439) No match (V2 was not tested)
08 [ae5116ac] (000/437) No match (V2 was not tested)
09 [2c1d967f] (000/438) No match (V2 was not tested)
10 [87c37974] (000/436) No match (V2 was not tested)
11 [837142f7] (000/419) No match (V2 was not tested)
Offsetted by 73:
01 [8e7e8bf0] (000/442) No match (V2 was not tested)
02 [1c13c25e] (000/442) No match (V2 was not tested)
03 [452330ea] (000/439) No match (V2 was not tested)
04 [0b2a926d] (000/441) No match (V2 was not tested)
05 [510694ce] (000/439) No match (V2 was not tested)
06 [0985a261] (000/439) No match (V2 was not tested)
07 [b4fc42b5] (000/439) No match (V2 was not tested)
08 [3dbf20ac] (000/437) No match (V2 was not tested)
09 [07e343c7] (000/438) No match (V2 was not tested)
10 [6e974738] (000/436) No match (V2 was not tested)
11 [3b3318db] (000/419) No match (V2 was not tested)
Offsetted by 126:
01 [508ec87b] (000/442) No match (V2 was not tested)
02 [a3b4109e] (000/442) No match (V2 was not tested)
03 [2ba59a87] (000/439) No match (V2 was not tested)
04 [053dec75] (000/441) No match (V2 was not tested)
05 [ca287296] (000/439) No match (V2 was not tested)
06 [b1e0284a] (000/439) No match (V2 was not tested)
07 [56906892] (000/439) No match (V2 was not tested)
08 [f15d0be7] (000/437) No match (V2 was not tested)
09 [0a0a0e3f] (000/438) No match (V2 was not tested)
10 [10f8b093] (000/436) No match (V2 was not tested)
11 [3c20862d] (000/419) No match (V2 was not tested)

Track Peak [ CRC32 ] [W/O NULL] [ LOG ]
– 98,8 [FA517460] [6F4A03FA] CRC32
01 89,0 [0CA1F06E] [15416E6F]
02 98,8 [DCC0C724] [F159C10F]
03 98,8 [DA11D017] [CCCCEE64]
04 67,2 [5930F700] [403C3541]
05 98,8 [C42B8810] [60FF4E93]
06 98,8 [A51E5865] [B8ED8F98]
07 98,8 [B5DC163F] [882C1516]
08 98,8 [6CE245E7] [8387BAC3]
09 98,8 [1F150596] [26372DF6]
10 98,8 [9B31A121] [D643FA9A]
11 98,8 [C5894F69] [0051AC15]

Thanks to g.y.m

See also: