Tags
Language
Tags

Opeth - The Devil's Orchard - Live At Rock Hard Festival 2009 (2011)

Posted By: gribovar
Opeth - The Devil's Orchard - Live At Rock Hard Festival 2009 (2011)

Opeth - The Devil's Orchard - Live At Rock Hard Festival 2009 (2011)
EAC Rip | FLAC (image+.cue+log) - 412 MB | MP3 CBR 320 kbps (LAME 3.93) - 146 MB | Covers - 22 MB
Genre: Extreme Progressive Metal | RAR 3% Rec. | Label: Rock Hard Magazine (#292-9/2011)

The Devils Orchard (Live At Rock Hard Festival 2009) is a live gem an exclusive cd album that came with the September 2011 issue of the German Metal Hammer magazine. It has an advance copy of the album version (from Heritage) of The Devil’s Ochard, which was still a week or so from the albums release. The album clocks in at about an hour, making it as long as a full-length album. While the sound of the live recording is not quite as sharp as those of Opeth’s other live albums, it’s much better than bootleg quality, as this is basically an official release, although a very limited one. The physical cd is high-quality, with a beautiful cover and a booklet that opens up to a great two-panel photo of Opeth onstage at the 2009 Rock Hard Festival. Since this was only distributed with the magazine in Germany and a couple other countries, you’ll have to look around for a copy, but it’s worth finding. Heir Apparent and Hessian Peel are typically incredible performances, and the only official versions of them live. The other tracks don’t sound exactly the same as they do on Lamentations, the Roundhouse Tapes, and/or Live at the Royal Albert Hall, but are just as fantastic. Most fans are aware that Opeth might have undergone a permanent shift in sound on the Heritage album, going for a progressive rock/metal vibe that can be heard on the Devil’s Orchard single. That means this could possibly be the last official chance to hear Mikaels death growl. If so, it’s an amazing way to finish up that facet of the band’s sound, with songs from Blackwater Park, Deliverance, Ghost Reveries, and Watershed. Opeth’s superior musicianship and songwriting skills are definitely on full display on Live at Rock Hard.

Tracklist:
01. The Devil's Orchard

Live At Rock Hard Festival 2009:
02. Intro
03. Heir Apparent
04. Ghost Of Perdition
05. The Leper Affinity
06. Hessian Peel
07. Deliverance

Total time: 01:02:00

Exact Audio Copy V1.1 from 23. June 2015

EAC extraction logfile from 16. May 2016, 16:39

Opeth / The Devil's Orchard - Live At Rock Hard Festival 2009

Used drive : PLEXTOR CD-R PX-240A Adapter: 0 ID: 0

Read mode : Secure
Utilize accurate stream : Yes
Defeat audio cache : Yes
Make use of C2 pointers : No

Read offset correction : 6
Overread into Lead-In and Lead-Out : No
Fill up missing offset samples with silence : Yes
Delete leading and trailing silent blocks : No
Null samples used in CRC calculations : Yes
Used interface : Installed external ASPI interface

Used output format : Internal WAV Routines
Sample format : 44.100 Hz; 16 Bit; Stereo


TOC of the extracted CD

Track | Start | Length | Start sector | End sector
––––––––––––––––––––––––––––-
1 | 0:00.00 | 6:31.36 | 0 | 29360
2 | 6:31.36 | 1:12.43 | 29361 | 34803
3 | 7:44.04 | 9:18.21 | 34804 | 76674
4 | 17:02.25 | 11:31.57 | 76675 | 128556
5 | 28:34.07 | 8:56.31 | 128557 | 168787
6 | 37:30.38 | 11:29.65 | 168788 | 220527
7 | 49:00.28 | 12:59.47 | 220528 | 278999


Range status and errors

Selected range

Filename Z:\data\hexonut\Seeding\Opeth\2011-The Devil's Orchard - Live At Rock Hard Festival 2009\The Devil's Orchard - Live At Rock Hard Festival 2009.wav

Peak level 98.8 %
Extraction speed 9.5 X
Range quality 100.0 %
Test CRC ED6C48D8
Copy CRC ED6C48D8
Copy OK

No errors occurred


AccurateRip summary

Track 1 accurately ripped (confidence 33) [4A3AB0A8] (AR v2)
Track 2 accurately ripped (confidence 33) [F6686387] (AR v2)
Track 3 accurately ripped (confidence 32) [B81D060C] (AR v2)
Track 4 accurately ripped (confidence 33) [D7DB3457] (AR v2)
Track 5 accurately ripped (confidence 32) [A7AF8F05] (AR v2)
Track 6 accurately ripped (confidence 33) [69CFF79C] (AR v2)
Track 7 accurately ripped (confidence 32) [B62DCE99] (AR v2)

All tracks accurately ripped

End of status report

==== Log checksum F71C9AA26DF6CD44DE5BE0E5FDCFBCD6623D7B1BAA3C9F40F621533E875E3F6F ====

[CUETools log; Date: 09.12.2021 19:19:48; Version: 2.1.4]
[CTDB TOCID: WAGLHIVOADkpQmHxqeguSjGe3PM-] found.
Track | CTDB Status
1 | (103/103) Accurately ripped
2 | (103/103) Accurately ripped
3 | (102/103) Accurately ripped
4 | (102/103) Accurately ripped
5 | (103/103) Accurately ripped
6 | (103/103) Accurately ripped
7 | (102/103) Accurately ripped
[AccurateRip ID: 000e4ef1-005a0af4-530e8807] found.
Track [ CRC | V2 ] Status
01 [d5188f72|4a3ab0a8] (06+44/50) Accurately ripped
02 [7cd728b8|f6686387] (07+44/51) Accurately ripped
03 [ea1c5843|b81d060c] (07+43/50) Accurately ripped
04 [5bf9fcc6|d7db3457] (07+44/51) Accurately ripped
05 [669bb704|a7af8f05] (07+43/50) Accurately ripped
06 [73ecfe46|69cff79c] (07+44/51) Accurately ripped
07 [77a50e6f|b62dce99] (07+43/50) Accurately ripped

Track Peak [ CRC32 ] [W/O NULL] [ LOG ]
– 98,8 [ED6C48D8] [0124DF4B] CRC32
01 98,8 [DAA9BD10] [2775DABB]
02 60,1 [E7EE6CDE] [3084BC47]
03 98,8 [A1B47265] [7895E735]
04 98,8 [1560EE59] [D7967893]
05 98,8 [032ABC43] [D09B34A9]
06 98,8 [DA2EFA32] [1C587C0E]
07 98,8 [EA32EAA0] [9A88ED30]

Thanks to hexonut

See also: