Tags
Language
Tags

Opeth - The Roundhouse Tapes (2007)

Posted By: gribovar
Opeth - The Roundhouse Tapes (2007)

Opeth - The Roundhouse Tapes (2007)
EAC Rip | FLAC (image+.cue+log) - 650 MB | MP3 CBR 320 kbps (LAME 3.93) - 226 MB | Covers - 206 MB
Genre: Extreme Progressive Metal | RAR 3% Rec. | Label: Peaceville Records (CDVILEF209X)

Though Opeth have officially signed with Roadrunner, this double-live disc was released by former label Peaceville. This is welcome, because the band's first live offering, the DVD-only Lamentations: Live at Shepherd's Bush, was not able to focus on the first four recordings due to contractual problems. Apparently, this is worked out here, because all of the band's recordings are represented. That said, The Roundhouse Tapes, recorded at Camden Roundhouse, London, U.K., on November 9, 2006, is a double-disc set that captures this mighty band at their very best. The tour that Opeth undertook in support of Ghost Reveries was 18 months long; it began in June of 2005, and ended December 2006. They played 210 shows during that time. Given that this gig was near the end of the tour, it showcases the band at the zenith of their live powers. They run through not only GR material but across their entire career, digging deep into their history - that includes a 19-minute version of "Blackwater Park" on disc two. The sound is tremendous; guitarist and lead vocalist Mikael Äkerfeldt is in excellent voice throughout. His engagement with the crowd and his sense of humor are wonderfully dry and welcoming. Unlike a lot of other acts, Opeth really seem to enjoy their fans, and as a result never need to pander to them as is evidenced by this righteous slab. The sheer subtlety of some of the band's quieter moment (is there any other heavy metal group that controls and uses dynamics as much as these guys?) is almost stunning when equated with the sheer intensity of their attack on the harder edges, as in the long middle section of "Ghost of Perdition." The only confounding thing here is the odd time total for the package: an hour and a half. They certainly played longer gigs on this tour. But the length, and the sometimes thin presence of the deeply atmospheric keyboards are the only down points. As a whole, the sound is clean and Äkerfeldt's vocals, even in full Cookie Monster mode, are discernible and easily understood, and the guitar interplay between Peter Lindgren and Äkerfeldt is downright intuitive and uncanny. (This was apparently Lindgren's last appearance with Opeth as he officially left in the summer of 2007). There is one more added treat on this document, which is the inclusion of Popol Vuh's "Through Pains to Heaven" as a lengthy interlude in the middle of "Under the Weeping Moon." Opeth's fans - both hardcore and somewhat casual - will want this. It captures of the most enigmatic metal bands at their very best.

CD 1 Tracklist:
01. When
02. Ghost Of Perdition
03. Under The Weeping Moon
04. Bleak
05. Face Of Melinda
06. The Night And The Silent Water

Total time: 01:00:58

CD 2 Tracklist:
01. Windowpane
02. Blackwater Park
03. Demon Of The Fall

Total time: 35:14

Exact Audio Copy V1.1 from 23. June 2015

EAC extraction logfile from 26. February 2017, 17:52

Opeth / The Roundhouse Tapes (Disc 1)

Used drive : HL-DT-STBD-RE WH16NS40 Adapter: 6 ID: 0

Read mode : Secure
Utilize accurate stream : Yes
Defeat audio cache : Yes
Make use of C2 pointers : No

Read offset correction : 6
Overread into Lead-In and Lead-Out : No
Fill up missing offset samples with silence : Yes
Delete leading and trailing silent blocks : No
Null samples used in CRC calculations : Yes
Used interface : Installed external ASPI interface

Used output format : Internal WAV Routines
Sample format : 44.100 Hz; 16 Bit; Stereo


TOC of the extracted CD

Track | Start | Length | Start sector | End sector
––––––––––––––––––––––––––––-
1 | 0:00.00 | 10:28.37 | 0 | 47136
2 | 10:28.37 | 10:56.69 | 47137 | 96405
3 | 21:25.31 | 10:27.45 | 96406 | 143475
4 | 31:53.01 | 8:39.17 | 143476 | 182417
5 | 40:32.18 | 9:57.65 | 182418 | 227257
6 | 50:30.08 | 10:28.50 | 227258 | 274407


Range status and errors

Selected range

Filename Z:\data\hexonut\Seeding\Opeth\2007-The Roundhouse Tapes\The Roundhouse Tapes (Disc 1).wav

Peak level 100.0 %
Extraction speed 7.5 X
Range quality 100.0 %
Test CRC 1EE3509B
Copy CRC 1EE3509B
Copy OK

No errors occurred


AccurateRip summary

Track 1 accurately ripped (confidence 84) [F67F20A1] (AR v2)
Track 2 accurately ripped (confidence 85) [64A790D7] (AR v2)
Track 3 accurately ripped (confidence 85) [A048C2C6] (AR v2)
Track 4 accurately ripped (confidence 85) [C3763DB0] (AR v2)
Track 5 accurately ripped (confidence 85) [85EBEB0A] (AR v2)
Track 6 accurately ripped (confidence 82) [73047942] (AR v2)

All tracks accurately ripped

End of status report

==== Log checksum 19E93C79769B9EB6BBE64F82E0997D0E234449DB98043D6C7130A3AFA64CE84E ====

[CUETools log; Date: 10.11.2021 18:53:06; Version: 2.1.4]
[CTDB TOCID: nWs6IjZ2.KlcsIYhckTYzVTFWMs-] found.
Track | CTDB Status
1 | (388/390) Accurately ripped
2 | (389/390) Accurately ripped
3 | (386/390) Accurately ripped
4 | (388/390) Accurately ripped
5 | (388/390) Accurately ripped
6 | (386/390) Accurately ripped
[AccurateRip ID: 000ed15f-004ea463-420e4a06] found.
Track [ CRC | V2 ] Status
01 [4bb1644d|f67f20a1] (104+115/243) Accurately ripped
02 [aec9deab|64a790d7] (104+116/244) Accurately ripped
03 [8e4edc0a|a048c2c6] (104+116/244) Accurately ripped
04 [48c4fce7|c3763db0] (106+116/246) Accurately ripped
05 [4b6cf27a|85ebeb0a] (106+116/246) Accurately ripped
06 [3a60d907|73047942] (104+111/239) Accurately ripped
Offsetted by -676:
01 [c4bbfd70] (002/243) Accurately ripped
02 [89e18dde] (002/244) Accurately ripped
03 [89f6eaeb] (002/244) Accurately ripped
04 [3c87b2da] (002/246) Accurately ripped
05 [a04f4951] (002/246) Accurately ripped
06 [9a6288d2] (000/239) No match (V2 was not tested)
Offsetted by -664:
01 [78add286] (000/243) No match (V2 was not tested)
02 [a365f2f0] (000/244) No match (V2 was not tested)
03 [48f388f5] (000/244) No match (V2 was not tested)
04 [50b5a429] (000/246) No match (V2 was not tested)
05 [36cbbf42] (000/246) No match (V2 was not tested)
06 [620bfe0e] (000/239) No match (V2 was not tested)
Offsetted by -36:
01 [8629ff89] (000/243) No match (V2 was not tested)
02 [d7c5c5aa] (000/244) No match (V2 was not tested)
03 [ad858e3e] (000/244) No match (V2 was not tested)
04 [21291f7b] (000/246) No match (V2 was not tested)
05 [b16357bc] (000/246) No match (V2 was not tested)
06 [ac770629] (000/239) No match (V2 was not tested)

Track Peak [ CRC32 ] [W/O NULL] [ LOG ]
– 100,0 [1EE3509B] [847AAB31] CRC32
01 100,0 [CBEDABA4] [07EB456D]
02 100,0 [47B8F52C] [BDFB31D6]
03 100,0 [105FABB0] [E4752F6E]
04 100,0 [AB5CC50D] [09BB1337]
05 100,0 [D37DB700] [68346E1E]
06 100,0 [FD6C627E] [A31FBBDA]

Exact Audio Copy V1.1 from 23. June 2015

EAC extraction logfile from 26. February 2017, 18:10

Opeth / The Roundhouse Tapes (Disc 2)

Used drive : HL-DT-STBD-RE WH16NS40 Adapter: 6 ID: 0

Read mode : Secure
Utilize accurate stream : Yes
Defeat audio cache : Yes
Make use of C2 pointers : No

Read offset correction : 6
Overread into Lead-In and Lead-Out : No
Fill up missing offset samples with silence : Yes
Delete leading and trailing silent blocks : No
Null samples used in CRC calculations : Yes
Used interface : Installed external ASPI interface

Used output format : Internal WAV Routines
Sample format : 44.100 Hz; 16 Bit; Stereo


TOC of the extracted CD

Track | Start | Length | Start sector | End sector
––––––––––––––––––––––––––––-
1 | 0:00.00 | 8:01.26 | 0 | 36100
2 | 8:01.26 | 18:59.40 | 36101 | 121565
3 | 27:00.66 | 8:13.68 | 121566 | 158608


Range status and errors

Selected range

Filename Z:\data\hexonut\Seeding\Opeth\2007-The Roundhouse Tapes\The Roundhouse Tapes (Disc 2).wav

Peak level 100.0 %
Extraction speed 6.5 X
Range quality 100.0 %
Test CRC E7C68342
Copy CRC E7C68342
Copy OK

No errors occurred


AccurateRip summary

Track 1 accurately ripped (confidence 85) [B12FE633] (AR v2)
Track 2 accurately ripped (confidence 85) [C2CCA4E4] (AR v2)
Track 3 accurately ripped (confidence 83) [E00E7642] (AR v2)

All tracks accurately ripped

End of status report

==== Log checksum C42EE8DD2A6639FAABFEF18ACD0458DB37940EA87A0908D2AB9FBB1AEA8A8C75 ====

[CUETools log; Date: 10.11.2021 18:53:29; Version: 2.1.4]
[CTDB TOCID: 8MWWYW1YPR4JlQU.l4uQuS4Dh9w-] found.
Track | CTDB Status
1 | (389/390) Accurately ripped
2 | (390/390) Accurately ripped
3 | (387/390) Accurately ripped
[AccurateRip ID: 0004d374-001058e9-1c084203] found.
Track [ CRC | V2 ] Status
01 [a549c3d1|b12fe633] (099+117/240) Accurately ripped
02 [ae733ba9|c2cca4e4] (099+117/240) Accurately ripped
03 [3f4fd399|e00e7642] (095+114/233) Accurately ripped
Offsetted by -676:
01 [c77d4784] (002/240) Accurately ripped
02 [ecd4a1ba] (002/240) Accurately ripped
03 [f860d68f] (000/233) No match (V2 was not tested)
Offsetted by -664:
01 [485387cd] (000/240) No match (V2 was not tested)
02 [f0df9eef] (000/240) No match (V2 was not tested)
03 [0ee9ddf0] (000/233) No match (V2 was not tested)
Offsetted by -18:
01 [7aad594d] (000/240) No match (V2 was not tested)
02 [02292061] (000/240) No match (V2 was not tested)
03 [33e2cf1e] (000/233) No match (V2 was not tested)

Track Peak [ CRC32 ] [W/O NULL] [ LOG ]
– 100,0 [E7C68342] [C04BEC1B] CRC32
01 100,0 [1A8742B2] [F34257D3]
02 100,0 [3C35ABF9] [D946B28D]
03 100,0 [E6DCE780] [C14DEC8A]

Thanks to hexonut

See also: