Subcategories

Opus - Opus 1981-1983 (Eleven / The Opusition) [2CD]

Posted By: popsakov
Opus - Opus 1981-1983 (Eleven / The Opusition) [2CD]

Opus - Opus 1981-1983 (Eleven / The Opusition) [2CD]
EAC Rip | FLAC, Img+Cue, Log+Checker ~ 560 Mb | MP3 CBR320 ~ 234 Mb
Scans Included (JPG, 600 dpi) | FileSonic, FileServe, Uploaded | 3% Recovery
Pop-Rock | Label: OK-Musica | Catalog#: OK 78.23601 / OK 78.23602

Opus is a pop-rock group from Graz, Austria. Formed in 1973, the group remains active today. The band is especially well known for its 1985 single release, "Live Is Life". This two-disk edition includes them second studio album "Eleven" (1981), the third studio album "The Opusition" (1982) and also single "Angie" released in 1983.
Opus from Wiki
Opus - Opus 1981-1983 (Eleven / The Opusition) [2CD]

Track List:

CD 1 - Eleven (1981)

01. Opus Pocus [02:49]
02. Keep Your Mind [03:19]
03. Eleven [03:30]
04. (Have You Seen) My Blue Suede Shoes [04:18]
05. Struggles For Gold [05:25]
06. Flyin' High [04:09]
07. Follow Me [03:47]
08. Sunny The Hero [03:01]
09. Hey Girl (To A Girl Unknown) [03:29]
10. Showclown [03:56]
11. The Riddle [01:35]

Exact Audio Copy V0.99 prebeta 5 from 4. May 2009

EAC extraction logfile from 18. January 2011, 14:56

Opus / Eleven

Used drive : Optiarc DVD RW AD-7203S Adapter: 3 ID: 0

Read mode : Secure
Utilize accurate stream : Yes
Defeat audio cache : Yes
Make use of C2 pointers : No

Read offset correction : 48
Overread into Lead-In and Lead-Out : No
Fill up missing offset samples with silence : Yes
Delete leading and trailing silent blocks : No
Null samples used in CRC calculations : Yes
Used interface : Native Win32 interface for Win NT & 2000

Used output format : User Defined Encoder
Selected bitrate : 128 kBit/s
Quality : High
Add ID3 tag : No
Command line compressor : C:\Program Files (x86)\Exact Audio Copy\Flac\flac.exe
Additional command line options : -8 -V %s


TOC of the extracted CD

Track | Start | Length | Start sector | End sector
––––––––––––––––––––––––––––-
1 | 0:00.00 | 2:51.15 | 0 | 12839
2 | 2:51.15 | 3:20.72 | 12840 | 27911
3 | 6:12.12 | 3:33.55 | 27912 | 43941
4 | 9:45.67 | 4:20.28 | 43942 | 63469
5 | 14:06.20 | 5:26.57 | 63470 | 87976
6 | 19:33.02 | 4:11.48 | 87977 | 106849
7 | 23:44.50 | 3:49.72 | 106850 | 124096
8 | 27:34.47 | 3:03.73 | 124097 | 137894
9 | 30:38.45 | 3:31.42 | 137895 | 153761
10 | 34:10.12 | 3:58.25 | 153762 | 171636
11 | 38:08.37 | 1:35.13 | 171637 | 178774


Range status and errors

Selected range

Filename E:\Music\Opus - Eleven.wav

Peak level 68.4 %
Range quality 100.0 %
Copy CRC 6A0DA697
Copy OK

No errors occurred


AccurateRip summary

Track 1 accurately ripped (confidence 1) [B488EBD8]
Track 2 accurately ripped (confidence 2) [8EFD0AFD]
Track 3 accurately ripped (confidence 1) [DFA1DCE8]
Track 4 accurately ripped (confidence 1) [CB86DF8D]
Track 5 accurately ripped (confidence 1) [E3E12337]
Track 6 accurately ripped (confidence 1) [4B56678D]
Track 7 accurately ripped (confidence 1) [06392394]
Track 8 accurately ripped (confidence 1) [C0EBE06E]
Track 9 accurately ripped (confidence 1) [D1E4E7C0]
Track 10 accurately ripped (confidence 1) [66A26C3A]
Track 11 accurately ripped (confidence 1) [511F0CA3]

All tracks accurately ripped

End of status report

AUDIOCHECKER v2.0 beta (build 457) - by Dester - opdester@freemail.hu
~~~~~~~~~~~~~~~~~~~~~~~~~~~~~~~~~~
-=== НЕ РЕДАКТИРУЙТЕ ЭТОТ ФАЙЛ! ===-

Путь: …\Opus - Eleven

01 -=- 01. Opus Pocus.wav -=- CDDA (100%)
02 -=- 02. Keep Your Mind.wav -=- CDDA (99%)
03 -=- 03. Eleven.wav -=- CDDA (99%)
04 -=- 04. (Have You Seen) My Blue Suede Shoes.wav -=- CDDA (100%)
05 -=- 05. Struggles For Gold.wav -=- CDDA (100%)
06 -=- 06. Flyin' High.wav -=- CDDA (100%)
07 -=- 07. Follow Me.wav -=- CDDA (100%)
08 -=- 08. Sunny The Hero.wav -=- CDDA (99%)
09 -=- 09. Hey Girl (To A Girl Unknown).wav -=- CDDA (99%)
10 -=- 10. Showclown.wav -=- CDDA (100%)
11 -=- 11. The Riddle.wav -=- CDDA (100%)

Сводка 99,64% CDDA

69226772

[Verification date: 30.07.2011 9:06:03]
[Disc ID: 0010eca5-0093c0a1-93094f0b]
Track [ CRC ] Status
01 [b488ebd8] (01/01) Accurately ripped as in pressing(s) #1
02 [8efd0afd] (02/02) Accurately ripped as in pressing(s) #1
03 [dfa1dce8] (01/01) Accurately ripped as in pressing(s) #1
04 [cb86df8d] (01/01) Accurately ripped as in pressing(s) #1
05 [e3e12337] (01/01) Accurately ripped as in pressing(s) #1
06 [4b56678d] (01/01) Accurately ripped as in pressing(s) #1
07 [06392394] (01/01) Accurately ripped as in pressing(s) #1
08 [c0ebe06e] (01/01) Accurately ripped as in pressing(s) #1
09 [d1e4e7c0] (01/01) Accurately ripped as in pressing(s) #1
10 [66a26c3a] (01/01) Accurately ripped as in pressing(s) #1
11 [511f0ca3] (01/01) Accurately ripped as in pressing(s) #1

Track [ CRC32 ] [W/O NULL] [ LOG ]
– [6A0DA697] [F50803D7] CRC32
01 [93CDF713] [196BF042]
02 [CC38B6B5] [D8FDE0EB]
03 [97BACB35] [D4B01932]
04 [46C1785E] [80B2E72C]
05 [06DBC312] [C138EB63]
06 [4E8F3D68] [BADBE55B]
07 [879CB1BC] [00BFEFFA]
08 [D5513A71] [1DBE0CAE]
09 [9380FDCD] [26E38446]
10 [817B2EA6] [5E01EFEA]
11 [D9518AB0] [53048E03]

Opus - Opus 1981-1983 (Eleven / The Opusition) [2CD]

CD 2 - The Opusition (1982)

01. The Opusition [03:46]
02. Yellow Fellow [04:15]
03. Best Thing [03:52]
04. Again And Again [03:48]
05. We'll Make It For You [03:20]
06. The Party [03:18]
07. Mad Man (We're Gonna Make You Glad) [03:18]
08. Double Bubbles [03:35]
09. Synthetic Substitutes [03:24]
10. Stop The Pop [03:43]
11. The Last Note [03:55]
12. Angie (Released as Single in 1983) [03:23]

Exact Audio Copy V0.99 prebeta 5 from 4. May 2009

EAC extraction logfile from 18. January 2011, 15:16

Opus / The Opusition

Used drive : Optiarc DVD RW AD-7203S Adapter: 3 ID: 0

Read mode : Secure
Utilize accurate stream : Yes
Defeat audio cache : Yes
Make use of C2 pointers : No

Read offset correction : 48
Overread into Lead-In and Lead-Out : No
Fill up missing offset samples with silence : Yes
Delete leading and trailing silent blocks : No
Null samples used in CRC calculations : Yes
Used interface : Native Win32 interface for Win NT & 2000

Used output format : User Defined Encoder
Selected bitrate : 128 kBit/s
Quality : High
Add ID3 tag : No
Command line compressor : C:\Program Files (x86)\Exact Audio Copy\Flac\flac.exe
Additional command line options : -8 -V %s


TOC of the extracted CD

Track | Start | Length | Start sector | End sector
––––––––––––––––––––––––––––-
1 | 0:00.00 | 3:51.35 | 0 | 17359
2 | 3:51.35 | 4:19.65 | 17360 | 36849
3 | 8:11.25 | 3:58.25 | 36850 | 54724
4 | 12:09.50 | 3:53.15 | 54725 | 72214
5 | 16:02.65 | 3:26.70 | 72215 | 87734
6 | 19:29.60 | 3:22.07 | 87735 | 102891
7 | 22:51.67 | 3:21.43 | 102892 | 118009
8 | 26:13.35 | 3:38.57 | 118010 | 134416
9 | 29:52.17 | 3:28.20 | 134417 | 150036
10 | 33:20.37 | 3:47.00 | 150037 | 167061
11 | 37:07.37 | 3:59.13 | 167062 | 184999
12 | 41:06.50 | 3:24.00 | 185000 | 200299


Range status and errors

Selected range

Filename E:\Music\Opus - The Opusition.wav

Peak level 85.0 %
Range quality 100.0 %
Copy CRC B1AA08D2
Copy OK

No errors occurred


AccurateRip summary

Track 1 accurately ripped (confidence 2) [C8E296EC]
Track 2 accurately ripped (confidence 1) [CC72046F]
Track 3 accurately ripped (confidence 1) [FA241D07]
Track 4 accurately ripped (confidence 2) [C4353CCA]
Track 5 accurately ripped (confidence 1) [75136DB6]
Track 6 accurately ripped (confidence 1) [A52F88BD]
Track 7 accurately ripped (confidence 1) [3132CD54]
Track 8 accurately ripped (confidence 1) [F69DE375]
Track 9 accurately ripped (confidence 1) [33F14E89]
Track 10 accurately ripped (confidence 1) [9DB806CD]
Track 11 accurately ripped (confidence 1) [7E26661C]
Track 12 accurately ripped (confidence 1) [635BC7C5]

All tracks accurately ripped

End of status report

AUDIOCHECKER v2.0 beta (build 457) - by Dester - opdester@freemail.hu
~~~~~~~~~~~~~~~~~~~~~~~~~~~~~~~~~~
-=== НЕ РЕДАКТИРУЙТЕ ЭТОТ ФАЙЛ! ===-

Путь: …\Opus - The Opusition

01 -=- 01. The Opusition.wav -=- CDDA (99%)
02 -=- 02. Yellow Fellow.wav -=- MPEG (95%)
03 -=- 03. Best Thing.wav -=- CDDA (100%)
04 -=- 04. Again And Again.wav -=- CDDA (100%)
05 -=- 05. We'll Make It For You.wav -=- CDDA (100%)
06 -=- 06. The Party.wav -=- CDDA (100%)
07 -=- 07. Mad Man (We're Gonna Make You Glad).wav -=- CDDA (99%)
08 -=- 08. Double Bubbles.wav -=- CDDA (100%)
09 -=- 09. Synthetic Substitutes.wav -=- CDDA (100%)
10 -=- 10. Stop The Pop.wav -=- CDDA (100%)
11 -=- 11. The Last Note.wav -=- CDDA (100%)
12 -=- 12. Angie.wav -=- CDDA (99%)

Сводка 91,83% CDDA

246378212

[Verification date: 30.07.2011 9:06:50]
[Disc ID: 00143e0b-00bb7ec5-9e0a6e0c]
Track [ CRC ] Status
01 [c8e296ec] (02/02) Accurately ripped as in pressing(s) #1
02 [cc72046f] (01/01) Accurately ripped as in pressing(s) #1
03 [fa241d07] (01/01) Accurately ripped as in pressing(s) #1
04 [c4353cca] (02/02) Accurately ripped as in pressing(s) #1
05 [75136db6] (01/01) Accurately ripped as in pressing(s) #1
06 [a52f88bd] (01/01) Accurately ripped as in pressing(s) #1
07 [3132cd54] (01/01) Accurately ripped as in pressing(s) #1
08 [f69de375] (01/01) Accurately ripped as in pressing(s) #1
09 [33f14e89] (01/01) Accurately ripped as in pressing(s) #1
10 [9db806cd] (01/01) Accurately ripped as in pressing(s) #1
11 [7e26661c] (01/01) Accurately ripped as in pressing(s) #1
12 [635bc7c5] (01/01) Accurately ripped as in pressing(s) #1

Track [ CRC32 ] [W/O NULL] [ LOG ]
– [B1AA08D2] [FDE76164] CRC32
01 [514C334D] [29898CC6]
02 [16D4C6B7] [34C67E58]
03 [0A9107DE] [B5561673]
04 [5B356329] [90C4B387]
05 [A5A4FEB3] [1A6B5807]
06 [D27948F5] [13921390]
07 [D1D362CA] [CECCC38A]
08 [FE57485E] [2AC7C913]
09 [06475A1E] [FBD191F9]
10 [50F541C8] [9F69ED19]
11 [1C659072] [916AE590]
12 [C0FCBB78] [383D7FED]

Opus - Opus 1981-1983 (Eleven / The Opusition) [2CD]

Opus - Opus 1981-1983 (Eleven / The Opusition) [2CD]

Download:

FileSonic: FLAC-part 1 | FLAC-part 2 ||| mp3

FileServe: FLAC-part 1 | FLAC-part 2 ||| mp3

Uploaded: FLAC-part 1 | FLAC-part 2 ||| mp3

pass: avaxhome.ws

In case you encounter some dead links, please leave the comment here or send me a private message!

Visit my blog!

All thanks go to MusiKc